#TITLE:Phases (TBY Romantic Mix);
#SUBTITLE:;
#ARTIST:2 Best Enemies;
#TITLETRANSLIT:;
#SUBTITLETRANSLIT:;
#ARTISTTRANSLIT:;
#GENRE:Hardstyle;
#CREDIT:Thumbsy;
#MENUCOLOR:;
#METERTYPE:DDR;
#BANNER:Phases bn.png;
#BACKGROUND:Phases bg.png;
#LYRICSPATH:;
#CDTITLE:CDTitle v1.5.png;
#MUSIC:Phases (TBY Romantic Mix).mp3;
#OFFSET:-0.608;
#SAMPLESTART:51.790;
#SAMPLELENGTH:12.840;
#SELECTABLE:YES;
#LISTSORT:;
#BPMS:0.000=150.000;
#STOPS:;
#BGCHANGES:;
#ATTACKS:;

//---------------dance-single - ----------------
#NOTES:
     dance-single:
     :
     Beginner:
     2:
     0.134,0.183,0.028,0.019,0.000:
0000
0000
0000
0000
,
0000
0000
0000
0000
,
0001
0000
0000
0000
,
0001
0000
0000
0000
,
0010
0000
0000
0000
,
0010
0000
0000
0000
,
0001
0000
0000
0000
,
0010
0010
0010
0000
,
0001
0000
0000
0000
,
1000
0000
0001
0001
,
0001
0000
0000
0000
,
0001
0000
1000
0000
,
1000
0000
0000
0000
,
0010
0000
0100
0100
,
0100
0000
0010
0000
,
0100
0000
0000
0000
,
0001
0000
0001
0000
,
1000
1000
1000
0000
,
0010
0000
0010
0000
,
1000
1000
1000
0000
,
1000
0000
0000
0000
,
0100
0000
0000
0000
,
0010
0000
0010
0000
,
0001
0000
0000
0000
,
1001
0000
0000
0000
,
1000
0000
0000
0000
,
0001
0000
0000
0000
,
1000
0000
0000
0000
,
0001
0000
1000
0000
,
0001
0000
1000
0000
,
0001
0000
1000
0000
,
0001
1000
0001
0000
,
1000
1000
1000
0000
,
0001
0000
0000
0000
,
0010
0010
0010
0000
,
0001
0000
0000
0000
,
1000
0000
0000
0000
,
0010
0000
0000
0000
,
1000
0000
1000
0000
,
0100
0000
0000
0000
,
0010
0010
0010
0000
,
0001
0000
0000
0000
,
1000
1000
1000
0000
,
0010
0000
0010
0000
,
0100
0000
0000
0000
,
0010
0000
0000
0000
,
0100
0000
0100
0000
,
0001
0000
0000
0000
,
0000
0000
1000
0000
,
0000
0000
0100
0000
,
0000
0000
0010
0000
,
0000
0000
0001
0000
,
0001
0000
1000
0000
,
0000
0000
0010
0000
,
1000
0000
0001
0000
,
0000
0000
0001
0000
,
1000
0000
0000
0000
,
0100
0000
0000
0000
,
1001
0000
0000
0000
,
0000
0000
1000
0000
,
0100
0000
0000
0000
,
0100
0000
0000
0000
,
1000
0000
0000
0000
,
0001
0000
0000
0000
,
0220
0000
0000
0000
,
0000
0000
0000
0330
;

//---------------dance-single - ----------------
#NOTES:
     dance-single:
     :
     Easy:
     4:
     0.260,0.335,0.130,0.074,0.000: // measure 1
0000
0000
0000
0000
,  // measure 2
0000
0000
0000
0000
,  // measure 3
1000
0000
1000
0000
,  // measure 4
1000
0000
1000
0100
,  // measure 5
0010
0000
0010
0000
,  // measure 6
0010
0000
0001
0000
,  // measure 7
0001
0100
0010
1000
,  // measure 8
0100
0100
0100
0000
,  // measure 9
1100
0000
0100
0000
,  // measure 10
1000
0001
0100
0000
,  // measure 11
0100
0000
0100
0000
,  // measure 12
0001
0010
0100
0100
,  // measure 13
0010
0000
0010
0000
,  // measure 14
0001
0001
0001
0000
,  // measure 15
1000
0000
1000
0000
,  // measure 16
0010
0000
0010
0000
,  // measure 17
0100
0100
0100
0010
,  // measure 18
1000
0001
1000
0000
,  // measure 19
1000
0001
1000
0001
,  // measure 20
0010
0010
0010
0000
,  // measure 21
1000
1000
0100
0001
,  // measure 22
0001
0100
1000
0010
,  // measure 23
0010
0100
0001
0010
,  // measure 24
0010
0000
0010
0000
,  // measure 25
1001
1000
0100
0000
,  // measure 26
1000
0100
0001
0000
,  // measure 27
1000
0100
0001
0000
,  // measure 28
1000
0100
0001
0000
,  // measure 29
1000
0100
0001
0100
,  // measure 30
1000
0001
0100
1000
,  // measure 31
0100
0001
0010
0100
,  // measure 32
1000
1000
1001
1001
,  // measure 33
1000
0100
0010
0001
,  // measure 34
0100
0100
0100
0000
,  // measure 35
0010
1000
0001
0100
,  // measure 36
0010
0010
1000
0000
,  // measure 37
0001
0010
0100
1000
,  // measure 38
0100
0100
0100
0000
,  // measure 39
0100
0000
0010
0000
,  // measure 40
1001
0000
1001
0000
,  // measure 41
1001
1001
0001
0001
,  // measure 42
1000
0100
1000
0000
,  // measure 43
0110
0110
0010
0100
,  // measure 44
0010
0000
0010
0000
,  // measure 45
0010
0010
0010
0000
,  // measure 46
0100
0100
0100
0000
,  // measure 47
0001
1000
0010
1000
,  // measure 48
0100
0000
0000
0000
,  // measure 49
0010
0010
0002
0000
,  // measure 50
1003
1000
0020
0000
,  // measure 51
0130
0100
0002
0000
,  // measure 52
1003
1000
0200
0000
,  // measure 53
0310
0001
0200
0000
,  // measure 54
0310
1000
0200
0000
,  // measure 55
0301
0001
0100
0100
,  // measure 56
1001
0000
1001
0000
,  // measure 57
1000
0000
0000
0000
,  // measure 58
0100
0000
0000
0000
,  // measure 59
1001
0000
0000
0000
,  // measure 60
0100
0000
0000
0000
,  // measure 61
0010
0000
0000
0000
,  // measure 62
0100
0000
0000
0000
,  // measure 63
0010
0000
0010
0000
,  // measure 64
0100
0000
0000
0000
,  // measure 65
2002
0000
0000
0000
,  // measure 66
0000
0000
0000
3003
;

//---------------dance-single - ----------------
#NOTES:
     dance-single:
     :
     Medium:
     6:
     0.391,0.426,0.333,0.222,0.143:
0000
0000
0000
0000
,
0000
0000
0000
0000
,
0001
0001
0001
0001
,
0001
0001
0001
0010
,
1000
1000
1000
1000
,
1000
1000
1000
0100
,
0001
0010
0100
1000
,
0001
0100
0010
1000
,
1100
0000
0000
0001
0000
0000
1000
0000
0000
1000
0000
0001
,
0100
0100
0010
0000
,
0100
0000
0000
0100
0000
0000
0010
0000
0000
1000
0000
0001
,
0010
0010
0100
0001
,
0100
0000
0000
0010
0000
0000
0001
0000
0000
0100
0000
0010
,
0100
0100
0010
0000
,
1000
0000
0000
0001
0000
1000
0100
0000
0000
0100
0000
0000
,
1000
0000
0001
0000
,
1100
0000
0000
0001
0000
0000
0100
0000
0000
0001
0000
1000
,
0100
0100
0100
0000
,
0100
0000
0000
1000
0000
0000
0100
0000
0000
1000
0000
0001
,
0100
0100
1000
0001
,
0010
0000
0000
1000
0000
0000
0100
0000
0000
0010
0000
0001
,
0100
0100
0100
0000
,
0001
0001
0010
0010
,
0100
0000
0100
0000
,
1100
0000
0000
1000
0000
0000
1000
0000
0000
1000
0000
0001
,
0100
0000
0000
0100
0000
0000
0100
0000
0000
0100
0000
0001
,
1000
0000
0000
1000
0000
0000
1000
0000
0000
1000
0000
0100
,
0010
0000
0000
0010
0000
0000
0010
0000
0000
0010
0000
0001
,
0100
0010
1000
0100
,
1000
0001
0100
0010
,
1000
0000
1000
0000
1000
0000
0001
0000
0001
0000
0001
0000
,
1001
1000
2000
3000
,
1100
0000
0000
1100
0000
0000
0101
0000
0000
0101
0000
1000
,
0100
0010
0001
0000
,
0110
0110
1001
1001
,
1000
0000
0000
0001
0000
0000
0100
0000
0100
0000
0000
0000
,
0110
0000
0000
0110
0000
0000
1001
0000
0000
1001
0000
0001
,
0100
0010
0100
0000
,
0010
0100
0100
0010
,
2002
3003
0220
0330
,
1100
0101
1100
0101
,
1000
0010
0100
0001
,
0011
1010
0011
1010
,
0001
0000
0001
0000
0001
0000
0002
0000
0000
0003
0000
0000
,
1000
0000
0000
1000
0000
0000
1000
0000
0000
0100
0000
1000
,
0001
0100
0010
1000
,
0001
0001
1000
1000
,
2200
3300
0000
0000
,
0001
0001
0012
0013
,
0100
1000
2100
3100
,
0010
0001
0021
0031
,
0100
0010
0220
0330
,
1000
1100
0002
1003
,
0100
0110
0020
0031
,
0001
0101
0200
0310
,
2000
0000
0000
3000
0000
0010
2000
0000
0000
3000
0000
0000
,
2002
0000
0000
3003
,
1000
1000
1000
0000
,
0001
0000
0000
0001
0000
0000
0000
0001
0000
0000
0000
0000
0000
0000
0000
0000
,
1000
1000
0100
0010
,
0001
0000
0000
0000
0000
0000
0000
2000
0000
0000
0000
0000
0000
0000
0000
0000
,
3000
0000
0000
0000
0000
0000
0000
0001
0000
0000
0000
0000
0000
0000
0000
0000
,
0000
0000
0000
0000
0000
0000
0000
0020
0000
0000
0000
0000
0030
0000
0000
0000
,
0001
0000
0001
0000
0001
0000
1000
0000
1000
0000
1000
0000
,
2002
0000
0000
0000
,
0000
0000
0000
3003
;

//---------------dance-single - ----------------
#NOTES:
     dance-single:
     :
     Hard:
     8:
     0.506,0.578,0.389,0.167,0.467:
0000
0000
0000
0000
,
0000
0000
0000
0000
,
1000
0100
1000
0100
,
1000
0100
1000
0002
,
0013
0100
0010
0100
,
0010
0000
0000
0100
0000
0000
0010
0000
0001
1000
0000
0001
,
0100
0000
0010
0100
0000
1000
0000
0100
0000
0010
0000
1000
,
0100
0010
0001
0100
0010
1000
0200
0000
0000
0300
0000
0000
,
1000
0000
0000
0100
0000
0000
0010
0000
0000
0001
0000
0001
,
0100
0100
0010
1000
,
0100
0000
0000
0100
0000
0000
0100
0000
0000
0010
0000
0001
,
0100
0000
0000
0100
0000
0000
0010
1000
0001
0010
0100
1000
,
0001
0000
0000
1000
0000
0000
0001
0000
0000
0001
0000
0010
,
0100
0100
0001
0100
,
1000
0000
0000
0010
0000
0000
0010
0000
0100
0010
0000
0000
,
1000
0000
0000
0001
0000
0000
1001
0000
0000
1000
0000
0001
,
1000
0000
0000
0100
0000
0000
1000
0000
0000
0001
0000
1000
,
0100
0010
1000
0010
,
0010
0000
0000
0001
0000
0000
1001
0000
0000
1000
0000
0010
,
0100
0000
0000
0100
0000
0000
0010
0100
0001
1000
0010
0100
,
0001
0000
0000
1000
0000
0000
0100
0000
0000
0100
0000
1000
,
0001
0001
0010
0100
,
1000
0000
0000
1000
0000
0000
0001
0000
0100
0010
0000
0000
,
0100
0000
0000
0100
0000
0000
0001
0000
0000
0010
0000
0100
,
1000
0000
0000
1000
0000
0000
1000
0000
0000
1000
0000
0001
,
0100
0000
0000
0100
0000
0000
0100
0000
0000
0100
0000
0100
,
0001
0000
0000
0001
0000
0000
0001
0000
0000
0001
0000
0010
,
0100
0000
0000
0100
0000
0000
0100
0000
0000
0100
0000
0010
,
0001
0000
0001
0100
0000
0100
0010
0000
0010
1000
0001
0010
,
0100
0000
0100
1000
0000
1000
0001
0000
0001
0100
0001
1000
,
0100
0000
0010
0000
0001
0000
1000
0000
0100
0000
0010
0000
,
0001
0100
0010
1000
0001
0100
0020
0000
0000
0130
0000
0000
,
1001
0000
0000
1100
0000
0000
0101
0000
0000
1001
0000
1000
,
0100
0001
0100
1000
,
0101
0000
0000
0110
0000
0000
1010
0000
0000
1100
0000
1000
,
0100
0000
0010
0001
0100
0010
1000
0000
0100
0000
0010
0001
,
1000
0000
0000
0010
0000
0000
0001
0000
0000
0010
0000
1000
,
0100
0100
0010
0001
,
0101
0000
0000
0101
0000
0000
1000
0000
0010
0100
0000
0000
,
1001
0000
0000
0000
0000
0100
1001
0000
0000
1000
0000
0000
,
0110
0000
0000
0011
0000
0000
0101
0000
0000
0110
0000
1000
,
0010
0000
0000
0100
0000
0000
0001
0000
0000
0010
0000
0001
,
0100
0000
0001
1000
0000
0000
0110
0000
0000
1001
0000
1000
,
0100
0000
0100
0000
0100
0000
1001
0000
0000
0000
0000
0000
,
0110
0000
0000
1010
0000
0000
1100
0000
0000
1001
0000
0001
,
0100
0000
0000
0100
0000
0000
0010
0000
0010
0100
0000
0000
,
0100
0000
0000
0001
0000
0000
0100
0000
0010
0100
0000
0000
,
2002
0000
0000
3003
0000
0000
1001
0000
0000
1000
0100
1000
,
0100
0000
0000
0010
0000
0000
2001
0000
0000
3010
0100
0001
,
0010
0000
0000
0001
0000
0000
2100
0000
0000
3100
0000
0010
,
0001
0001
0201
0301
,
0010
0000
0010
0100
0010
0001
1000
0000
0010
0000
0100
0010
,
1000
0000
0000
1001
0000
0000
0001
0000
0000
0011
0000
0001
,
0100
1001
1000
0110
,
1000
0000
0001
0100
0000
1000
0100
0000
0001
0100
0000
0000
,
2002
0000
0000
3003
0000
1000
0200
0000
0000
0310
0001
0000
,
0101
0000
0000
1000
0000
0000
0001
0000
0000
1000
0000
0001
,
1000
1000
0001
0001
,
1100
0000
0000
0101
0000
0000
0000
1001
0000
0000
0000
0000
0000
0000
0000
0000
,
1000
0000
0000
1000
0000
0000
0001
0010
0100
1000
0001
0010
,
0100
0000
0000
0000
0000
0000
0000
2200
0000
0000
0000
0000
0000
0000
0000
0000
,
3300
0000
0000
0000
0000
0000
0000
0002
0003
0000
0000
0000
0000
0000
0000
0000
,
0000
0000
0000
0000
0000
0000
0000
0202
0000
0000
0000
0000
0303
0000
0000
0000
,
0001
0000
0100
0000
0001
0000
1000
0000
0100
0000
1000
0000
,
2002
0000
0000
0000
,
0000
0000
0000
3003
;
