#TITLE:Lights Down Low;
#SUBTITLE:;
#ARTIST:Technikore feat. Jenny J;
#TITLETRANSLIT:;
#SUBTITLETRANSLIT:;
#ARTISTTRANSLIT:;
#GENRE:UK Hardcore;
#CREDIT:Thumbsy & Nezumi;
#MENUCOLOR:;
#METERTYPE:DDR;
#BANNER:Lights Down Low.png;
#BACKGROUND:Lights Down Low-bg.png;
#LYRICSPATH:;
#CDTITLE:cdtitle.png;
#MUSIC:Lights Down Low.mp3;
#OFFSET:-1.420;
#SAMPLESTART:46.595;
#SAMPLELENGTH:22.601;
#SELECTABLE:YES;
#LISTSORT:;
#BPMS:0.000=170.000;
#STOPS:;
#BGCHANGES:;
#ATTACKS:;

//---------------dance-single - ----------------
#NOTES:
     dance-single:
     :
     Beginner:
     1:
     0.131,0.189,0.039,0.000,0.000:
0000
0000
0000
0000
,
0000
0000
0000
0000
,
0000
0000
0000
0000
,
0000
0000
0000
0000
,
0000
0000
0000
0000
,
0000
0000
0000
0000
,
0000
0000
0000
0000
,
0000
0000
0000
0000
,
1000
0000
1000
0000
,
1000
0000
0000
0000
,
0001
0000
0010
0000
,
0100
0000
0000
0000
,
1000
0000
1000
0000
,
1000
0000
0000
0000
,
0001
0000
0100
0000
,
0010
0000
0000
0000
,
1000
0000
0001
0001
,
0000
0000
0010
0000
,
0100
0000
1000
1000
,
0000
0000
0001
0000
,
0100
0000
0010
0010
,
0000
0000
0100
0000
,
0001
0000
1000
1000
,
0000
0000
0100
0000
,
1000
0000
1000
0000
,
0100
0000
0010
0000
,
0001
0000
0001
0000
,
0100
0000
0010
0000
,
1000
0000
1000
0000
,
0001
0000
0001
0000
,
1001
0000
0000
0000
,
0110
0000
0000
0000
,
1000
0000
0001
0000
,
0001
0000
0000
0000
,
1000
0000
0100
0000
,
0010
0000
0000
0000
,
0001
0000
0001
0000
,
0100
0000
0000
0000
,
0010
0000
1000
0000
,
0001
0000
0010
0000
,
0001
0000
0000
0000
,
1000
0000
0100
0000
,
1000
0000
0000
0000
,
0001
0000
0010
0000
,
0001
0000
0000
0000
,
1000
0000
0000
0000
,
0100
0000
0000
0000
,
0001
0000
0010
0000
,
1001
0000
0000
0000
;

//---------------dance-single - ----------------
#NOTES:
     dance-single:
     :
     Easy:
     2:
     0.234,0.283,0.026,0.013,0.000:
0000
0000
0000
0000
,
0000
0000
0000
0000
,
0000
0000
0000
0000
,
0000
0000
0000
0000
,
0000
0000
0000
0000
,
0000
0000
0000
0000
,
0000
0000
0000
0000
,
0000
0000
0000
0000
,
1000
0100
1000
1000
,
1000
0000
0001
0000
,
0100
0010
0100
0100
,
0100
0000
0001
0000
,
1000
0100
0010
0010
,
0010
0000
0001
0000
,
1000
1000
0001
0001
,
1000
0000
0100
0000
,
1001
0001
0100
0001
,
0000
0001
0000
0001
,
0010
0100
1000
1000
,
0000
0001
0000
1000
,
0100
0010
0001
1000
,
0000
1000
0000
0001
,
0100
0010
1000
0100
,
0000
0100
0000
0010
,
0001
0001
0100
0001
,
0000
1000
0000
0010
,
0100
0100
0001
0100
,
0000
0010
0000
1000
,
0100
0100
1000
0100
,
0000
0010
0000
0001
,
0100
0100
0010
0100
,
0001
0000
1000
0000
,
1000
0100
0010
0001
,
0001
0000
0001
0000
,
1000
0010
0100
0001
,
0001
0000
1000
0000
,
0001
0010
0100
1000
,
1000
0000
0001
0000
,
0001
0100
0010
1000
,
1000
0100
0010
0001
,
1000
0000
1000
0000
,
0001
0010
0010
0001
,
1000
0000
0010
0000
,
0100
0001
0001
0010
,
0100
0000
1000
0000
,
0001
0000
1000
1000
,
0001
0100
0002
0000
,
1003
1000
1000
0000
,
1001
0000
0000
0000
;

//---------------dance-single - ----------------
#NOTES:
     dance-single:
     :
     Medium:
     5:
     0.371,0.440,0.092,0.249,0.000:
0000
0000
0000
0000
,
0000
0000
0000
0000
,
0000
0000
0000
0000
,
0000
0000
0000
0000
,
0000
0000
0000
0000
,
0000
0000
0000
0000
,
0000
0000
0000
0000
,
0000
0000
0000
0000
,
1000
0100
0010
0010
,
0100
0000
1000
0001
1000
0000
0010
0000
,
0100
0001
0100
0001
0100
0000
0100
0000
,
0001
0000
1000
0100
1000
0000
0001
0000
,
0100
0100
0010
0100
,
0100
0000
0001
1000
0001
0000
0001
0000
,
1000
0100
0010
0000
,
1000
0100
0001
0100
,
1000
0100
1000
0000
0001
0000
0100
0000
,
0000
0010
0000
0010
0000
0010
0000
0000
,
0100
0001
0100
0000
0010
0000
1000
0000
,
0000
0100
0000
0100
0000
0100
0000
0000
,
0010
0001
0010
0000
0100
0000
1000
0000
,
0000
0001
0000
0001
0000
0001
0000
0000
,
0100
0010
0100
0000
0001
0000
1000
0000
,
0000
0100
0000
0100
0000
0100
0000
0000
,
1000
0001
1000
0000
0010
0000
0100
0000
,
0000
0010
0000
1000
0000
0001
0000
0000
,
1000
0100
1000
0000
0001
0000
0100
0000
,
0000
0010
0000
1000
0000
0001
0000
0000
,
1000
0100
0010
0000
0100
0000
1000
0000
,
0000
0001
0000
0100
0000
0010
0000
0000
,
0100
0001
0010
0000
0100
0000
1000
0000
,
0000
0001
0000
0001
0000
0000
2000
0000
,
3001
0100
0001
0000
0002
0000
0023
0000
,
0230
1300
0001
0100
,
0010
1000
0010
0000
0200
0000
0302
0000
,
0023
0130
1000
0100
,
0010
0100
0010
0000
0002
0000
2003
0000
,
3002
0103
0010
1000
,
1100
1100
0101
0101
,
0001
0100
0001
0100
0001
0000
0000
0000
,
1000
0100
1000
0000
0002
0000
2003
0000
,
3002
0013
0100
1000
,
0001
0100
0001
0000
2000
0000
3002
0000
,
2003
3010
0100
0001
,
1000
0010
2000
3002
,
2003
3001
0010
0100
,
1100
1000
0101
0001
,
1000
0100
0010
0001
1000
0000
0000
0000
,
1001
0000
0000
0000
;

//---------------dance-single - ----------------
#NOTES:
     dance-single:
     :
     Edit:
     6:
     1.000,1.000,1.000,1.000,0.013:
1110
0001
0010
0100
2000
3000
2000
3000
,
0200
0300
0001
1000
0001
1000
0100
0010
,
0001
0100
1000
0010
0002
0003
0002
0003
,
0020
0030
1000
0010
1000
0010
0001
0100
,
0010
1000
0100
0001
0020
0030
0020
0030
,
0002
0003
1000
0010
1000
0100
0001
0010
,
2200
3300
0000
2200
3300
0000
0202
0303
0000
0022
0033
0000
,
0100
0001
0100
0001
0020
0030
0020
0030
,
1101
0010
0101
0010
2002
3003
2002
3003
,
0220
0330
1100
0010
0101
1000
0110
1000
,
0101
0010
0101
0010
2002
3003
2002
3003
,
0220
0330
0101
0010
1100
0001
1100
0001
,
1010
0101
1010
0011
2200
3300
2200
3300
,
0022
0033
1010
0101
1010
1100
0011
1100
,
0022
0000
0033
0000
0220
0000
0330
0000
2200
0000
0000
3300
0022
0000
0033
0000
,
1000
0010
1000
0010
0202
0303
0202
0303
,
1001
0000
0010
0000
1002
0000
0000
0003
0110
0000
1000
0000
0101
0000
2000
3000
,
0011
0000
2000
3000
0101
0000
0020
0000
1130
0000
0002
0003
1020
0030
0200
0300
,
1010
0000
0001
0000
2100
0000
0000
3000
0011
0000
0100
0000
1001
0000
0200
0300
,
0011
0000
0200
0300
0011
0000
2000
0000
3101
0000
0020
0030
0201
0300
2000
3000
,
0011
0000
0100
0000
1002
0000
0000
0003
1100
0000
0010
0000
0101
0000
0020
0030
,
1001
0000
0020
0030
1001
0000
0200
0000
0311
0000
2000
3000
0201
0300
0020
0030
,
1100
0000
0010
0000
2001
0000
0000
3000
0101
0000
0010
0000
1100
0000
0002
0003
,
0110
0000
0002
0003
1010
0000
0200
0000
1301
0000
0020
0000
1032
0000
0003
0000
,
1110
0000
0001
0000
1210
0000
0000
0300
1001
0000
0100
0000
1101
0000
0020
0030
,
0101
0000
0020
0030
1101
0000
0200
0000
1301
0000
0020
0030
1201
0300
2000
3000
,
0101
0000
0000
0000
0000
0000
0010
0000
0000
0000
0000
0000
1201
0000
0000
0000
0000
0000
0000
0000
0300
0000
0000
0000
1001
0000
0000
0000
0000
0000
0000
0000
0000
0000
0000
0000
0111
0000
0000
0000
0000
0000
2000
0000
0000
3000
0000
0000
,
0101
0000
0000
0000
0000
0000
0000
0000
0000
0000
0000
0000
0000
0000
0000
0000
0000
0000
0000
0000
0000
0000
0000
0000
2000
0000
0000
0000
0000
0000
0000
0000
0000
0000
0000
0000
0000
0000
3000
0000
0000
0000
0000
0000
0000
0000
0000
0000
0111
0000
0000
0000
0000
0000
0000
0000
0000
0000
0000
0000
0000
0000
0000
0000
0000
0000
0000
0000
0000
0000
0000
0000
0020
0000
0000
0000
0000
0000
0000
0000
0000
0000
0000
0000
0000
0000
0000
0000
0000
0000
0000
0000
0000
0000
0000
0000
1031
0000
0000
0000
0000
0000
0000
0000
0000
0000
0000
0000
0000
0000
0000
0000
0000
0000
0000
0000
0000
0000
0000
0000
0020
0000
0000
0000
0000
0000
0000
0000
0000
0000
0000
0000
0030
0000
0000
0000
0000
0000
0000
0000
0000
0000
0000
0000
1201
0000
0000
0000
0000
0000
0000
0000
0000
0000
0000
0000
0300
0000
0000
0000
0000
0000
0000
0000
0000
0000
0000
0000
2000
0000
0000
0000
0000
0000
0000
0000
0000
0000
0000
0000
3000
0000
0000
0000
0000
0000
0000
0000
0000
0000
0000
0000
,
0011
0000
1000
0000
0211
0000
0000
0300
1010
0000
0100
0000
1011
0000
2000
3000
,
0101
0000
2000
3000
0111
0000
0200
0000
1310
0000
0002
0003
1120
0030
0200
0300
,
1010
0000
0001
0000
1210
0000
0000
0300
1001
0000
0100
0000
1101
0000
0020
0030
,
0101
0000
0020
0030
0000
0000
0200
0000
0300
0000
2000
0000
3000
0000
0000
0000
,
1101
0010
1001
0100
2020
3030
2020
3030
,
0202
0303
1100
0010
0101
1000
0110
1000
,
0101
0010
0101
0010
0202
0303
0202
0303
,
2020
3030
0101
0010
1100
0001
1010
0100
,
1001
0010
0101
0010
2002
3003
2002
3003
,
0220
0330
1100
0010
0101
1000
0101
0010
,
2002
3003
2020
3030
2200
3300
2200
3300
,
0011
1000
0011
0100
0022
1033
0022
0033
,
0111
1000
0101
0010
0202
0303
0202
0303
,
2200
3300
1001
0010
0101
1000
0110
1000
,
0101
0010
1100
0001
2020
3030
2020
3030
,
0220
0330
0101
0010
1100
0001
0110
1000
,
0111
1000
0101
0010
2002
3003
2002
3003
,
0220
0330
0011
0100
1010
0001
1010
0100
,
2002
3003
0202
0303
0022
0033
0022
0033
,
2000
0000
0001
0000
0010
0000
0001
3000
0001
1000
0001
1000
0001
0000
1010
0000
,
2120
0000
0000
0000
,
0000
0000
0000
0000
,
0000
3030
0000
0000
;

//---------------dance-single - ----------------
#NOTES:
     dance-single:
     :
     Hard:
     7:
     0.579,0.661,0.249,0.721,0.000: // measure 1
0000
0000
0000
0000
,  // measure 2
0000
0000
0000
0000
,  // measure 3
0000
0000
0000
0000
,  // measure 4
0000
0000
0000
0000
,  // measure 5
0000
0000
0000
0000
,  // measure 6
0000
0000
0000
0000
,  // measure 7
0000
0000
0000
0000
,  // measure 8
0000
0000
0000
0000
,  // measure 9
1000
0001
0100
0001
0200
0000
0320
0000
,  // measure 10
2030
0000
3001
0100
0001
1000
0100
1000
,  // measure 11
0001
0010
0100
1000
0002
0000
0203
0000
,  // measure 12
0320
0000
1030
0100
1000
0001
0100
0010
,  // measure 13
0100
0001
0010
0100
2000
0000
3002
0000
,  // measure 14
2003
0000
3100
0010
0001
0010
0100
1000
,  // measure 15
0002
0203
2300
3200
,  // measure 16
0301
0010
0100
1000
0002
0000
2003
0000
,  // measure 17
3001
0100
0020
0000
0130
0001
0010
0100
,  // measure 18
0000
0100
0000
1000
0000
0001
0100
0010
,  // measure 19
0100
0001
0020
0000
0031
0100
0010
1000
,  // measure 20
0000
1000
0000
0001
0000
0001
0010
0100
,  // measure 21
1000
0001
2000
0000
3001
0010
0001
1000
,  // measure 22
0000
0100
0000
0010
0000
0001
0100
0001
,  // measure 23
1000
0010
2000
0000
3100
0010
0001
0010
,  // measure 24
0000
0100
0000
1000
0000
0100
0001
0100
,  // measure 25
1000
0001
0200
0000
0310
1000
0001
0100
,  // measure 26
0000
0100
0000
0010
0000
0010
1000
0001
,  // measure 27
0010
0001
2000
0000
3100
0010
0001
0010
,  // measure 28
0000
0010
0000
0100
0000
0100
1000
0001
,  // measure 29
0100
0010
0200
0000
0310
0001
0010
1000
,  // measure 30
0000
0100
0000
0010
0000
0001
0010
0001
,  // measure 31
0010
0100
2000
0000
3001
0100
0001
0100
,  // measure 32
0000
0100
0000
0100
0000
0000
0000
0000
,  // measure 33
0010
1000
0001
0000
2002
0000
3223
0000
,  // measure 34
2331
0000
3001
0100
0001
1000
0100
0010
,  // measure 35
0001
0100
0010
0000
0220
0000
2332
0000
,  // measure 36
3123
0000
1030
0100
0010
0001
1000
0001
,  // measure 37
1000
0010
0100
0000
2020
0000
3232
0000
,  // measure 38
2313
0000
3001
0010
0100
1000
0100
0010
,  // measure 39
0002
0023
0230
2300
,  // measure 40
3001
0100
0010
0100
0001
0000
1000
0000
,  // measure 41
0100
1000
0001
0000
0022
0000
2233
0000
,  // measure 42
3312
0000
1003
0100
0010
0100
1000
0001
,  // measure 43
0100
0010
0100
0000
2100
0000
3102
0000
,  // measure 44
2103
0000
3001
0100
0010
0100
0001
1000
,  // measure 45
0100
0010
0001
0000
0012
0000
2013
0000
,  // measure 46
3012
0000
1003
0010
1000
0001
0100
0001
,  // measure 47
2000
3001
0002
1003
,  // measure 48
1000
0100
0001
0100
1000
0000
0001
0000
,  // measure 49
1001
0000
0000
0000
;

//---------------dance-double - ----------------
#NOTES:
     dance-double:
     :
     Easy:
     3:
     0.258,0.346,0.170,0.013,0.000:
00000000
00000000
00000000
00000000
,
00000000
00000000
00000000
00000000
,
00000000
00000000
00000000
00000000
,
00000000
00000000
00000000
00000000
,
00000000
00000000
00000000
00000000
,
00000000
00000000
00000000
00000000
,
00000000
00000000
00000000
00000000
,
00000000
00000000
00000000
00000000
,
10000000
00000000
01000000
00000000
,
00010000
00000000
00001000
00000000
,
00000100
00000000
00000001
00000000
,
00000010
00000001
00001000
00000010
,
00000100
00000000
00001000
00000000
,
00010000
00000000
00100000
10000000
,
00010000
00010000
20000000
00000000
,
30010000
00000000
00000000
00000000
,
10000000
00100000
01000000
00010000
,
00000000
10000000
00000000
01000000
,
00010000
00001000
00000100
00000001
,
00000000
00000001
00000000
00000010
,
00000100
00001000
00000010
00000100
,
00000000
00001000
00000000
00010000
,
00001000
01000000
00100000
10000000
,
00000000
01000000
10000000
10000000
,
10010000
00010000
01000000
00001000
,
00010000
00010000
00001000
00000000
,
00000010
00000001
00000100
00000001
,
00000100
00000010
00001000
00000000
,
00000100
00000100
00010000
00010000
,
00001000
00001000
01000000
00000000
,
00100000
10000000
00010000
10000000
,
11000000
00000000
00000000
00000000
,
00010000
01000000
00011000
00011000
,
00011000
00000010
00000100
00000000
,
00000100
00001000
00011000
00011000
,
00011000
00010000
01000000
00000000
,
10000000
01000000
00010000
01000000
,
10000000
10010000
00010000
01000000
,
00001000
00010000
00001000
00000100
,
00000001
00000000
00000010
00000000
,
00000100
00010000
00001000
00001000
,
00011000
00010000
00100000
10000000
,
01000000
00100000
00010000
00011000
,
00011000
00001000
00000010
00000001
,
00001000
00000000
00000001
00000000
,
00001000
00000000
00000010
00000000
,
00001000
00000000
00000001
00000000
,
00001000
00010000
10000000
00000000
,
10010000
00000000
00000000
00000000
;

//---------------dance-double - ----------------
#NOTES:
     dance-double:
     :
     Medium:
     6:
     0.359,0.440,0.092,0.157,0.000:
00000000
00000000
00000000
00000000
,
00000000
00000000
00000000
00000000
,
00000000
00000000
00000000
00000000
,
00000000
00000000
00000000
00000000
,
00000000
00000000
00000000
00000000
,
00000000
00000000
00000000
00000000
,
00000000
00000000
00000000
00000000
,
00000000
00000000
00000000
00000000
,
10000000
01000000
10000000
00000000
00010000
00000000
00010000
00000000
,
01010000
00001000
00010000
00000010
,
00000100
00000001
00000010
00000100
,
00001000
00000000
00000010
00000000
,
00001000
00000001
00001000
00000000
00000100
00000000
00000100
00000000
,
00000100
00010000
00001000
01000000
,
00100000
00010000
00100000
10000000
,
01000000
00100000
01000000
00000000
10010000
00000000
00000000
00000000
,
10000000
01000000
00010000
00000000
00001000
00000000
00010000
00000000
,
00000000
00000100
00000000
00001000
00000000
00000010
00000000
00000000
,
00000100
00000001
00000100
00000000
00000010
00000000
00000100
00000000
,
00000000
00000001
00000000
00000001
00000000
00000001
00000000
00000000
,
00000010
00000100
00001000
00000000
00000100
00000000
00010000
00000000
,
00000000
00000100
00000000
00000100
00000000
00000100
00000000
00000000
,
00010000
00100000
10000000
00000000
10000000
00000000
01000000
00000000
,
00000000
10000000
00000000
10000000
00000000
00010000
00000000
00000000
,
01000000
00001000
01000000
00000000
00001000
00010000
00001000
00000000
,
00000000
00000100
00000000
00000010
00000000
00000100
00000000
00000000
,
00000001
00000010
00000001
00000000
00001000
00000100
00001000
00000000
,
00000000
00000100
00000000
00000010
00000000
00000001
00000100
00000000
,
00000100
00000010
00000100
00000000
00000010
00001000
00000010
00000000
,
00000000
00010000
00000000
00001000
00000000
01000000
00000000
00000000
,
00100000
10000000
00100000
00000000
01000000
00010000
01000000
00010000
,
00000000
00010000
00000000
00010000
00000000
00000000
00000000
00000000
,
10000000
01000000
10000000
00000000
02000000
00000000
03200000
00000000
,
00302000
00000000
00013000
00000100
00010000
00000000
00001000
00000000
,
00000100
00000001
00000100
00000000
00000020
00000000
00000230
00000000
,
00000302
00000000
00000013
00000100
00000010
00000000
00000001
00000000
,
00000100
00001000
00000100
00000000
00001000
00000000
00010000
00000000
,
00100000
00000000
10000000
01000000
10000000
01000000
10000000
00000000
,
02000000
03200000
00320000
00230000
,
00310000
00010000
10010000
00000000
,
10000000
01000000
10000000
01000000
10000000
00000000
00010000
00000000
,
01000000
00001000
00010000
00000100
,
00000010
00000001
00000010
00000001
00000010
00000000
00000001
00000000
,
00000100
00000010
00000100
00000001
,
00001000
00000010
00001000
00000010
00001000
00000000
00000100
00000000
,
00010000
00001000
01000000
00010000
,
11000000
00000000
01010000
00000000
,
20020000
00000000
00000000
30030000
,
00011000
00000000
00000000
00000000
;

//---------------dance-double - ----------------
#NOTES:
     dance-double:
     :
     Hard:
     8:
     0.535,0.535,0.249,0.393,0.000:
00000000
00000000
00000000
00000000
,
00000000
00000000
00000000
00000000
,
00000000
00000000
00000000
00000000
,
00000000
00000000
00000000
00000000
,
00000000
00000000
00000000
00000000
,
00000000
00000000
00000000
00000000
,
00000000
00000000
00000000
00000000
,
00000000
00000000
00000000
00000000
,
00000001
00001000
00000100
00001000
00000002
00000000
00000023
00000000
,
00000230
00000000
00001300
00000010
00010000
00001000
00010000
00001000
,
01000000
00100000
10000000
01000000
00200000
00000000
00320000
00000000
,
20030000
00000000
31000000
00100000
00010000
00100000
01000000
10000000
,
00010000
01000000
00100000
01000000
00020000
00000000
02030000
00000000
,
03020000
00000000
01030000
00001000
00100000
00001000
00010000
00000100
,
00000020
00000032
00000203
00000310
,
00001000
00000100
00000010
00000001
00001000
00000000
00001001
00000000
,
00000001
00000100
00002000
00000000
00003100
00000001
00000010
00000100
,
00000000
00000010
00000000
00000001
00000000
00000100
00001000
00000100
,
00000010
00010000
00002000
00000000
01003000
00100000
10000000
01000000
,
00000000
00100000
00000000
01000000
00000000
10000000
00010000
01000000
,
00100000
01000000
00200000
00000000
10300000
01000000
00100000
00010000
,
00000000
00000010
00000000
00000001
00000000
00000100
00000001
00000010
,
00000200
00000000
00001300
00000000
00000001
00000100
00000010
00000100
,
00000000
00000100
00000000
00000001
00000000
00000001
00000020
00000000
,
00000031
00001000
00000100
00001000
00000001
00000010
00000100
00001000
,
00000000
00000100
00000000
00010000
00000000
00001000
01000000
00100000
,
10000000
01000000
00100000
01000000
10000000
00010000
01000000
00100000
,
00000000
10000000
00000000
01000000
00000000
00100000
01000000
10000000
,
00010000
01000000
00001000
00100000
00001000
00010000
00000100
00001000
,
00000000
00000010
00000000
00000100
00000000
00000001
00000010
00000100
,
00002000
00000000
00003010
00000000
00000100
00000001
00000100
00000001
,
00000000
00000001
00000000
00000001
00000000
00000001
00000020
00000000
,
00000031
00000100
00000001
00000000
00000101
00000000
00001100
00000000
,
00011000
00000000
01000000
00010000
01000000
00100000
10000000
01000000
,
00100000
01000000
10000000
00000000
01010000
00000000
00110000
00000000
,
00011000
00000000
00000010
00000100
00000001
00000010
00000100
00000010
,
00000001
00000100
00001000
00000000
00001100
00000000
00000101
00000000
,
00001100
00000000
00010000
00001000
00010000
00100000
00010000
00100000
,
20000000
32000000
03200000
00320000
,
10030000
01000000
00100000
00010000
00110000
00000000
11000000
00000000
,
00010000
01000000
00010000
00000000
01001000
00000000
00011000
00000000
,
00010100
00000000
00000010
00000001
00000010
00000100
00001000
00000001
,
00000100
00000010
00000100
00000000
00000110
00000000
00010010
00000000
,
00011000
00000000
01000000
00100000
10000000
01000000
00100000
00010000
,
10000000
00010000
10000000
00000000
20000000
00000000
32000000
00000000
,
03020000
00000000
00031000
00000100
00000010
00000001
00000010
00001000
,
00000200
00000320
00000032
00000023
,
00000130
00010000
00001000
00100000
01000000
00000000
10000000
00000000
,
10010000
00000000
00000000
00000000
;
