#TITLE:Jump;
#SUBTITLE:;
#ARTIST:Gammer & Whizzkid;
#TITLETRANSLIT:;
#SUBTITLETRANSLIT:;
#ARTISTTRANSLIT:;
#GENRE:Dirty Dutch'd UK Hardcore;
#CREDIT:Thumbsy;
#MENUCOLOR:;
#METERTYPE:DDR;
#BANNER:Jump-bn.png;
#BACKGROUND:Jump-bg.png;
#LYRICSPATH:;
#CDTITLE:CDTitle.png;
#MUSIC:Jump.mp3;
#OFFSET:-0.083;
#SAMPLESTART:48.080;
#SAMPLELENGTH:12.000;
#SELECTABLE:YES;
#LISTSORT:;
#BPMS:0.000=170.030;
#STOPS:;
#BGCHANGES:;
#ATTACKS:;

//---------------dance-single - ----------------
#NOTES:
     dance-single:
     :
     Beginner:
     1:
     0.103,0.173,0.098,0.036,0.000:
0000
0000
0000
0000
,
0000
0000
0000
0000
,
0001
0000
0000
0000
,
1000
0000
0000
0000
,
0001
0000
0000
0000
,
0000
0000
0000
0000
,
0001
0000
0000
0000
,
1000
0000
0000
0000
,
0100
0000
0000
0000
,
0010
0000
0000
0000
,
0100
0000
0000
0000
,
1000
0000
0000
0000
,
0001
0000
0010
0000
,
0100
0000
0000
0000
,
1000
0000
0010
0000
,
0100
0000
0000
0000
,
2002
0000
0000
0000
,
0000
0000
0000
0000
,
0000
0000
0000
3003
,
0000
0000
0000
0000
,
1000
0000
0000
0000
,
0000
0000
1001
0000
,
0000
0000
0000
0000
,
0000
0000
0110
0000
,
0000
0000
0000
0000
,
0000
0000
1001
0000
,
0000
0000
0000
0000
,
0000
0000
0000
1001
,
0000
0000
0000
0000
,
0001
0000
0000
0000
,
0100
0000
0000
0000
,
0010
0000
0000
0000
,
0100
0000
0000
0000
,
0001
0000
0000
0000
,
1000
0000
0000
0000
,
0001
0000
0000
0000
,
0100
0000
0000
0000
,
0010
0000
0000
0000
,
0100
0000
0000
0000
,
0010
0000
0000
0000
,
1000
0000
0000
0000
,
0001
0000
0000
0000
,
0100
0000
0000
0000
,
1000
0000
0000
0000
,
0001
0000
0000
0000
,
0000
0000
0000
0000
,
1000
0000
0000
0000
,
0001
0000
0000
0000
,
0100
0000
0000
0000
,
0000
0000
0000
0000
,
1000
0000
0000
0000
,
0100
0000
0000
0000
,
0001
0000
0000
0000
,
0000
0000
1001
0000
,
0000
0000
0000
0000
,
0000
0000
0110
0000
,
0000
0000
0000
0000
,
0000
0000
1001
0000
,
0000
0000
0000
0000
,
0000
0000
0000
0110
,
0000
0000
0000
0000
,
0001
0000
0100
0000
,
0001
0000
0000
0000
,
1000
0000
0100
0000
,
1000
0000
0000
0000
,
0010
0000
0100
0000
,
0010
0000
0000
0000
,
1000
0000
0000
1001
,
0000
0000
0000
0000
,
0001
0000
0000
0000
,
1000
0000
0000
0000
,
0010
0000
0000
0000
,
0100
0000
0000
0000
,
0001
0000
0000
0000
,
1000
0000
0000
0000
,
0001
0000
0000
0000
,
2002
0000
0000
0000
,
0000
0000
0000
3003
;

//---------------dance-single - ----------------
#NOTES:
     dance-single:
     :
     Easy:
     4:
     0.283,0.312,0.143,0.027,0.000:
0000
0000
0000
0000
,
0000
0000
0000
0000
,
1100
0000
0000
0100
,
1001
0000
0000
0000
,
0001
0000
0000
0100
,
0000
0000
0000
0100
,
1001
0000
0000
1000
,
1001
0000
0000
0001
,
1000
0001
0000
0100
,
0001
1000
0000
1000
,
0001
0100
0000
0001
,
0010
0001
0000
1000
,
0010
1000
0100
0000
,
1000
0100
1000
0000
,
0001
0100
0001
1000
,
0001
0001
1000
1000
,
2000
0000
0000
0000
,
0000
0000
0000
0000
,
0000
0000
3000
0000
,
0000
0000
0000
0000
,
0001
0100
0010
1000
,
0000
0000
1100
0000
,
1000
0100
0010
0001
,
0000
0000
0101
0000
,
0001
1000
0001
1000
,
0000
0000
0110
0000
,
1000
0100
1000
0001
,
0000
0000
0000
1001
,
1000
0000
0000
0100
0000
0000
0010
0000
,
0001
0000
0000
0010
0000
0000
0100
0000
,
1000
0000
0000
0001
0000
0000
0100
0000
,
0100
0000
0000
0010
0000
0000
0010
0000
,
1000
0000
0000
0001
0000
0000
0010
0000
,
0010
0000
0000
0100
0000
0000
1000
0000
,
0001
0100
0010
0100
,
0001
1000
0100
0010
,
0100
0000
0000
1000
0000
0000
1000
0000
,
0001
0000
0000
0100
0000
0000
0100
0000
,
0010
0000
0000
0010
0000
0000
1000
0000
,
0001
0000
0000
0010
0000
0000
0010
0000
,
0100
0000
0000
1000
0000
0000
1000
0000
,
0001
0000
0000
0100
0000
0000
0100
0000
,
0010
0100
0010
0100
,
0001
1000
0001
1000
,
1000
0001
0000
0001
,
0000
1000
0000
0001
,
0011
1000
0000
0100
,
0000
0100
0000
0010
,
0011
1000
0000
0001
,
0000
0100
0000
0100
,
0000
0010
0000
0100
,
0000
0001
0000
1000
,
0001
0010
0100
1000
,
0000
0000
1001
0000
,
1000
0100
0010
0001
,
0000
0000
1001
0000
,
1000
0100
0010
0100
,
0000
0000
1001
0000
,
0001
0100
0010
1000
,
0000
0000
0000
1001
,
1000
0100
0010
0100
,
0001
0100
0010
0000
,
0001
0100
0010
0100
,
0001
0010
1000
0000
,
0001
0100
0010
1000
,
0001
0100
0010
0000
,
1000
0000
0000
0100
0000
0000
0100
0000
,
1000
0000
0000
1000
0000
0000
0110
0000
,
0001
0010
0100
1000
,
0100
0010
0001
0000
,
1000
0010
0100
0001
,
0010
0100
1000
0000
,
1000
0001
1000
0100
,
0010
0100
1000
0000
,
1000
0000
0000
0001
0000
0000
0100
0000
,
0010
0000
0000
1000
0000
0000
0001
0000
,
2002
0000
0000
0000
,
0000
0000
0000
3003
;

//---------------dance-single - ----------------
#NOTES:
     dance-single:
     :
     Medium:
     6:
     0.380,0.416,0.080,0.018,0.009: // measure 1
0000
0000
0000
0000
,  // measure 2
0000
0000
0000
0000
,  // measure 3
1000
0000
0000
0001
0000
0001
1000
0000
,  // measure 4
0100
0000
0000
0000
0000
1000
0100
0000
,  // measure 5
0001
0000
0000
0100
0000
0001
0100
0000
,  // measure 6
0000
0000
0000
1000
0000
0000
1000
0000
0000
0000
0001
0000
0100
0000
0000
0000
,  // measure 7
0001
0000
0000
0100
0000
0010
0100
0000
,  // measure 8
0001
0000
0000
1000
0000
0000
0001
0000
,  // measure 9
1000
0000
0001
0100
0000
0100
0001
0000
,  // measure 10
0001
0000
1000
0100
0000
0100
1000
0000
,  // measure 11
0010
0000
0100
0010
0000
0010
0100
0000
,  // measure 12
1000
0000
0001
0010
0000
0010
0001
0000
,  // measure 13
1000
0000
0100
0000
0000
0001
0000
0100
,  // measure 14
1000
0000
0001
0000
0000
0100
0000
1000
,  // measure 15
0100
0010
0100
0000
0000
0001
0000
1000
,  // measure 16
0100
0010
0001
0010
0000
0100
0000
1000
,  // measure 17
0200
0000
0000
0000
,  // measure 18
0000
0000
0000
0000
,  // measure 19
0000
0000
0300
0000
,  // measure 20
0000
0000
0000
0000
,  // measure 21
0100
0000
0001
0000
1000
0100
1000
0000
,  // measure 22
0001
0000
0100
0000
0000
MMMM
0000
0000
,  // measure 23
0100
0000
0001
0000
1000
0100
0010
0000
,  // measure 24
0100
0000
0010
0000
0000
MMMM
0000
0000
,  // measure 25
0010
0001
1000
0100
,  // measure 26
1000
0000
0001
0000
0000
MMMM
0000
0000
,  // measure 27
0001
1000
0100
0010
,  // measure 28
0001
0010
0001
0010
0001
0010
0000
MMMM
,  // measure 29
1000
0000
1000
0100
0000
0100
1000
0000
,  // measure 30
0001
0000
0100
0010
0000
0010
0100
0000
,  // measure 31
0100
0000
0001
0010
0000
0010
0001
0000
,  // measure 32
0010
0000
0100
1000
0000
1000
0100
0000
,  // measure 33
0010
0000
0100
1000
0000
1000
0100
0000
,  // measure 34
0010
0000
0001
1000
0000
1000
0001
0000
,  // measure 35
0010
0000
0000
0100
0000
0000
0100
0000
,  // measure 36
0010
0000
0000
0010
0000
0000
0010
0000
,  // measure 37
1000
0000
0001
0100
0000
0010
1000
0000
,  // measure 38
1000
0000
0010
0100
0000
0010
0100
0000
,  // measure 39
0001
0000
1000
0100
0000
0010
0100
0000
,  // measure 40
1000
0000
0100
0010
0000
0010
0001
0000
,  // measure 41
0001
0000
1000
0010
0000
0010
0100
0000
,  // measure 42
0001
0000
0001
0100
0000
0010
0100
0000
,  // measure 43
1000
0000
0000
0100
0000
0000
0010
0000
,  // measure 44
0001
0000
0000
0010
0000
0100
0000
0000
,  // measure 45
1000
0000
0000
0001
0000
0000
0100
0000
,  // measure 46
0000
0000
0000
1000
0000
0000
0100
0000
0000
0000
0000
0000
0100
0000
0000
0000
,  // measure 47
0001
0000
0000
0100
0000
0000
0100
0000
,  // measure 48
1000
0000
0000
0100
0000
0100
0100
0000
,  // measure 49
0001
0101
0000
0101
,  // measure 50
1000
1100
0000
1100
,  // measure 51
0010
0110
0000
0110
,  // measure 52
1000
1001
0000
1001
,  // measure 53
1000
1000
0100
0010
,  // measure 54
0001
0000
0010
0000
0000
MMMM
0000
0000
,  // measure 55
1000
0100
0010
0001
,  // measure 56
0010
0000
0100
0000
0000
MMMM
0000
0000
,  // measure 57
0001
0001
0010
0010
,  // measure 58
1000
0000
0010
0000
0000
MMMM
0000
0000
,  // measure 59
0001
0001
0001
0001
,  // measure 60
0001
0010
0100
1000
0100
0010
0000
MMMM
,  // measure 61
1000
0100
0010
0100
,  // measure 62
1000
0001
0010
0100
,  // measure 63
1000
0001
1000
0001
,  // measure 64
0010
0100
0010
1000
,  // measure 65
0001
0100
0010
1000
,  // measure 66
0001
0100
0010
0100
,  // measure 67
1000
0000
0100
0010
0000
1000
0001
0000
,  // measure 68
0001
0000
0010
0100
0000
0100
1001
0000
,  // measure 69
1000
0001
0010
0100
,  // measure 70
1000
0100
0010
0100
,  // measure 71
0001
0010
0100
1000
,  // measure 72
0100
0010
0100
1000
,  // measure 73
0010
0100
0010
0100
,  // measure 74
0001
0010
0100
0010
,  // measure 75
0001
0000
1000
0100
0000
0100
1000
0000
,  // measure 76
0001
0100
0010
1000
0000
0010
0100
0000
,  // measure 77
0002
0000
0000
0000
,  // measure 78
0000
0000
0000
0003
;

//---------------dance-single - ----------------
#NOTES:
     dance-single:
     :
     Hard:
     9:
     0.605,0.589,0.080,0.045,0.375:
1000
0000
0000
0001
0000
0000
0100
0000
0000
0000
0100
0000
0100
0000
0000
0000
,
0000
0000
0000
0001
0000
0000
1000
0000
0000
0000
0100
0000
0100
0000
0000
0000
,
0001
0000
0000
1000
0000
0000
0100
0000
0000
0000
0010
0000
0010
0000
0000
0000
,
0001
0000
0000
0001
0000
0000
0000
0000
0001
0000
0010
0000
0000
0000
0000
0100
0000
0000
1000
0000
0000
0000
0000
0000
,
1000
0000
0000
0010
0000
0000
0100
0000
0000
0000
0001
0000
0001
0000
0000
0000
,
0000
0000
0000
1000
0000
0000
0100
0000
0000
0000
0010
0000
0100
0000
0000
0000
,
1000
0000
0000
0010
0000
0000
0100
0000
0000
0000
0100
0000
0001
0000
0000
0000
,
1000
0000
0000
0001
0000
0000
0000
0000
0010
0000
0001
0000
0000
0000
0000
1000
0000
0000
0001
0000
0000
0000
0000
0000
,
1000
0000
0000
0010
0100
0000
0001
0000
1000
0000
0010
0000
0100
0000
0000
0000
,
0001
0000
0000
0010
0100
0000
0010
0000
0001
0000
1000
0000
0100
0000
0000
0000
,
0010
0000
0000
0100
1000
0000
0010
0000
0100
0000
0010
0000
1000
0000
0000
0000
,
0001
1000
1000
0001
0100
0010
1000
0000
,
2000
0000
0000
0000
3200
0000
0000
0010
0300
0000
0010
0000
0000
0000
0010
0000
,
0100
1000
0000
0000
0010
0000
0000
1000
0000
0000
0100
0000
0000
0010
0000
0001
,
1000
0000
0100
0000
0010
0000
0000
0100
0000
0100
1000
0000
0000
1000
0000
0100
,
1000
0001
0100
0010
0100
0001
1000
0100
,
2000
0000
0000
0000
,
0000
0000
0000
0000
,
0000
0000
0000
0000
,
3000
0000
0000
0000
,
1000
0100
0010
0000
0010
0100
0010
0000
,
0010
0001
0010
0100
0000
MMMM
0010
0100
,
0010
0001
0010
0100
1000
0100
1000
0000
,
0001
0010
0100
1000
0000
MMMM
1000
0001
,
1000
0010
0100
0010
1000
0000
0001
0000
,
0010
0100
0010
0100
0000
MMMM
0000
0000
,
1000
0100
0010
0000
0001
0000
0001
0000
,
0001
0100
1000
0100
0001
1000
0000
MMMM
,
1000
0000
0000
0001
0100
0000
0010
0000
0000
0100
0001
0000
1000
0000
0000
1000
,
0100
0000
0000
0010
0100
0000
1000
0000
0000
0001
0100
0000
0001
0000
0000
0001
,
1000
0000
0000
0010
0100
0000
0010
0000
0000
0100
0001
0000
1000
0000
0000
0010
,
0100
0000
0000
0001
0100
0000
0010
0000
0000
0100
0010
0000
1000
0000
0000
0100
,
0010
0000
0000
0010
0100
0000
1000
0000
0000
0100
1000
0000
0001
0000
0000
0100
,
0010
0000
0000
1000
0100
0000
0010
0000
0000
0100
1000
0000
0001
0000
0000
1000
,
0001
0000
0000
1000
0001
0000
1000
0000
0000
0001
1000
0000
0001
0000
0000
1000
,
0100
0000
0000
0010
0100
0000
0010
0000
0000
0100
0010
0000
0100
0000
0000
0000
,
1000
0000
0000
0001
0100
0000
1000
0000
0000
0100
0010
0000
1000
0000
0000
0001
,
0010
0000
0000
0100
0010
0000
1000
0000
0000
0010
0001
0000
1000
0000
0000
1000
,
0001
0000
0000
0001
0100
0000
1000
0000
0000
1000
0100
0000
0001
0000
0000
1000
,
0100
0000
0000
1000
0100
0000
0001
0000
0000
0001
0100
0000
1000
0000
0000
0010
,
0100
0000
0000
1000
0100
0000
0001
0000
0000
0010
0100
0000
0001
0000
0000
0001
,
0100
0000
0000
1000
0100
0000
1000
0000
0000
0001
0100
0000
0010
0000
0000
1000
,
0100
0000
0000
0010
0001
0000
1000
0000
0000
0100
0010
0000
0001
0000
0000
0010
,
0100
0000
0000
1000
0001
0000
0010
0000
0000
0100
1000
0000
0001
0000
0000
0000
,
1000
0000
0000
0001
0000
0000
0001
0000
0000
0000
1000
0000
0100
0000
0000
0000
,
0000
0000
0000
0001
0000
0000
0001
0000
0000
0000
1000
0000
1000
0000
0000
0000
,
0001
0000
0000
0010
0000
0000
0100
0000
0000
0000
0100
0000
0100
0000
0000
0000
,
0010
0000
0000
0000
0000
0000
0000
0000
0000
0100
0000
0000
0000
0000
0000
0000
1000
0000
0000
0000
0010
0000
0000
0000
0000
0000
0000
0000
0000
0000
0100
0000
0000
0000
0000
0000
0100
0000
0000
0000
0000
0000
0000
0000
0000
0000
0000
0000
,
1000
0101
1000
0011
,
0010
0110
1000
1001
,
0001
0011
0100
1100
,
0010
0000
0110
0000
1000
0000
1000
0100
,
0010
0100
1000
0000
0010
0100
0001
0000
,
1000
0010
0100
0001
0000
MMMM
0010
1000
,
0100
0010
0001
0010
0100
1000
0001
0000
,
1000
0100
0010
0100
0000
MMMM
0100
0010
,
0001
0010
0001
1000
0001
0000
1000
0000
,
0010
0100
0001
0010
0000
MMMM
0000
0000
,
0001
0010
0100
0000
1000
0000
1000
0000
,
1000
0100
0010
0001
1000
0100
0000
MMMM
,
1000
0000
0001
0100
0010
0100
0010
0100
,
0001
0010
0100
0010
0000
0010
0100
0000
,
0100
0000
0100
1000
0001
0100
0010
0100
,
0001
0010
0100
1000
0000
1000
0100
0000
,
0010
0000
0100
1000
0001
0100
0010
0100
,
0010
1000
0100
0010
0000
0010
0100
0000
,
1000
0000
0000
0001
0100
0000
0010
0000
0000
0100
0001
0000
1000
0000
0000
0100
,
0010
0000
0000
0100
1000
0000
0001
0000
0000
0100
0001
0000
0101
0000
0000
0000
,
1000
0000
0001
0100
0001
0100
0001
1000
,
0100
0010
0001
0010
0000
0100
1000
0000
,
0001
0000
0010
0100
0010
0100
0010
0001
,
1000
0100
0010
0100
0000
0100
1000
0000
,
0001
0000
1000
0010
1000
0010
1000
0100
,
0010
0100
0010
0001
0000
1000
0100
0000
,
0001
0000
0000
0100
1000
0000
0001
0000
0000
0100
0010
0000
0100
0000
0000
0001
,
0100
0000
0000
0010
0100
0000
0001
0000
0000
1000
0100
0000
0010
0000
0000
0000
,
2002
0000
0000
0000
,
0000
0000
0000
3003
;
