#TITLE:Hide & Seek;
#SUBTITLE:;
#ARTIST:Technikore;
#TITLETRANSLIT:;
#SUBTITLETRANSLIT:;
#ARTISTTRANSLIT:;
#GENRE:UK Hardcore;
#CREDIT:Thumbsy;
#MENUCOLOR:;
#METERTYPE:DDR;
#BANNER:Hide and Seek-bn.png;
#BACKGROUND:Hide and Seek-bg.png;
#LYRICSPATH:;
#CDTITLE:CDTitle v1.5.png;
#MUSIC:Hide and Seek.mp3;
#OFFSET:-0.440;
#SAMPLESTART:67.340;
#SAMPLELENGTH:12.000;
#SELECTABLE:YES;
#LISTSORT:;
#DISPLAYBPM:171.000;
#BPMS:0.000=170.000;
#STOPS:;
#BGCHANGES:;
#ATTACKS:;

//---------------dance-single - ----------------
#NOTES:
     dance-single:
     :
     Beginner:
     1:
     0.088,0.127,0.008,0.023,0.000:
0000
0000
0000
0000
,
0000
0000
0000
0000
,
1000
0000
0000
0000
,
0000
0000
0000
0000
,
0001
0000
0000
0000
,
0000
0000
0000
0000
,
0100
0000
0000
0000
,
0000
0000
0000
0000
,
0010
0000
0000
0000
,
0000
0000
0000
0000
,
1000
0000
0000
0000
,
0000
0000
0000
0000
,
0100
0000
0000
0000
,
0000
0000
0000
0000
,
0010
0000
0000
0000
,
1000
0000
0000
0000
,
0100
0000
0000
0000
,
0001
0000
0000
0000
,
0100
0000
0000
0000
,
0010
0000
0000
0000
,
0100
0000
0000
0000
,
0001
0000
0000
0000
,
1000
0000
0000
0000
,
0100
0000
0100
0000
,
0100
0000
0000
0000
,
0010
0000
0000
0000
,
0100
0000
0000
0000
,
0001
0000
0000
0000
,
0100
0000
0000
0000
,
0010
0000
0000
0000
,
0100
0000
0000
0000
,
0010
0000
0000
0000
,
0001
0000
0000
0000
,
0100
0000
0000
0000
,
1000
0000
0000
0000
,
0100
0000
0000
0000
,
0100
0000
0000
0000
,
0010
0000
0000
0000
,
0002
0000
0000
0000
,
0003
0000
0000
0000
,
1000
0000
0000
0000
,
0000
0000
0000
0000
,
0100
0000
0000
0000
,
0000
0000
0000
0000
,
0010
0000
0000
0000
,
0000
0000
0000
0000
,
0100
0000
0000
0000
,
1000
0000
0000
0000
,
0001
0000
0000
0000
,
0100
0000
0100
0000
,
0100
0000
0000
0000
,
1000
0000
0100
0000
,
0010
0000
0000
0000
,
0001
0000
0100
0000
,
0010
0000
0000
0000
,
0100
0000
0000
0000
,
0001
0000
1000
0000
,
0001
0000
0000
0000
,
1000
0000
0100
0000
,
1000
0000
0000
0000
,
0001
0000
0010
0000
,
0001
0000
0000
0000
,
1000
0000
0000
0000
,
0001
0000
0000
0000
,
1000
0000
0000
0100
,
0000
0000
0000
0000
,
0100
0000
0000
0010
,
0000
0000
0000
0000
,
1000
0000
0000
0010
,
0000
0000
0000
0000
,
0010
0000
0000
0100
,
0000
0000
0001
0000
,
0000
1000
0000
0000
,
0001
0000
0000
0000
,
0100
0000
0000
0000
,
0010
0000
0000
0000
,
0000
0000
0000
0000
,
1000
0000
0000
0000
,
0001
0000
0000
0000
,
0001
0000
0000
0000
,
2002
0000
0000
0000
,
0000
0000
0000
0000
,
0000
0000
0000
3003
;

//---------------dance-single - ----------------
#NOTES:
     dance-single:
     :
     Easy:
     4:
     0.214,0.254,0.015,0.238,0.000:
0000
0000
0000
0000
,
0000
0000
0000
0000
,
1000
0000
0000
0000
,
0000
0000
0000
0001
,
0001
0000
0000
0000
,
0000
0000
0000
0000
,
1100
0000
0000
0000
,
0000
0000
0000
0100
,
0200
0000
0000
0300
,
0002
0003
0000
0000
,
2000
0000
0000
3000
,
0002
0000
0003
0010
,
0200
0000
0300
1000
,
0020
0030
0000
0000
,
2000
0000
3000
0001
,
0200
0000
0000
0300
,
0010
1000
0001
0100
,
0000
0010
0000
1000
,
0001
0000
1000
0000
,
0100
0000
1000
0000
,
0001
0000
0100
0001
,
0100
0000
0010
0000
,
2000
0000
0000
0000
,
0000
0000
0000
3000
,
0200
0000
0000
0300
,
1000
0100
0010
0001
,
0200
0000
0000
0300
,
0002
0003
2000
3000
,
0200
0000
0000
0300
,
1000
0100
0010
0001
,
0200
0000
0000
0300
,
0020
0030
2000
3000
,
0002
0000
0000
0003
,
0200
0000
0000
0300
,
2000
0000
0000
3000
,
0001
0010
0100
1000
,
2000
0000
0000
3000
,
0200
0000
0000
0300
,
0020
0000
0000
0030
,
0000
0000
0000
0000
,
0020
0000
0000
0000
,
0000
0000
0030
0100
,
0200
0000
0000
0000
,
0000
0000
0000
0300
,
0002
0000
0000
0000
,
0000
0000
0003
0100
,
0100
0010
0001
2000
,
0002
0000
0000
3003
,
0010
0010
0010
0010
,
0000
1000
0001
1000
,
0100
0100
0100
0100
,
0000
0010
1000
0001
,
0100
0100
0100
0100
,
0000
0001
0010
0100
,
0010
0010
0010
0010
,
0000
0000
1000
0000
,
1000
0100
1000
1000
,
0000
0001
0000
0001
,
0100
0001
0100
0100
,
0000
1000
0000
1000
,
0001
0100
0010
0010
,
0000
1000
0100
0000
,
0100
0000
0010
0001
,
1000
0000
0000
0000
,
1000
0001
0100
0001
,
0000
1000
0000
0001
,
0001
1000
0100
1000
,
0000
0001
0000
0100
,
0100
1000
0100
0010
,
0000
0001
0000
0001
,
1000
0100
0010
0100
,
0000
1000
0000
0001
,
0000
0010
0100
0010
,
0000
0010
0000
0010
,
0001
0010
0001
0010
,
0000
0010
0000
0100
,
0000
1000
0010
0100
,
0000
0001
1000
0001
,
0100
0010
0010
2000
,
0000
0000
0000
3000
,
2200
0000
0000
0000
,
0000
0000
0000
0000
,
0000
0000
0000
3300
;

//---------------dance-single - ----------------
#NOTES:
     dance-single:
     :
     Medium:
     5:
     0.295,0.349,0.123,0.276,0.000: // measure 1
0000
0000
0000
0000
,  // measure 2
0000
0000
0000
0000
,  // measure 3
1001
0000
0000
0000
0000
0001
0000
0000
,  // measure 4
0000
1000
0000
0100
0000
0000
0000
0000
,  // measure 5
0011
0000
0000
0000
0000
1000
0000
0000
,  // measure 6
0000
0010
0000
0100
0000
0000
0000
0000
,  // measure 7
0101
0000
0000
0000
0000
0010
0000
0000
,  // measure 8
0000
1000
0000
0100
0000
0000
0000
0000
,  // measure 9
0220
0000
0330
1000
,  // measure 10
0200
0300
0000
0000
,  // measure 11
0202
0000
0000
0303
0000
0010
0000
0000
,  // measure 12
0020
0030
0000
1000
,  // measure 13
0202
0000
0303
1000
,  // measure 14
0200
0000
0000
0000
0000
0300
0000
0001
,  // measure 15
0020
0000
0030
1000
,  // measure 16
0200
0000
0000
0300
,  // measure 17
1000
0000
0100
0000
0010
0000
0001
2000
,  // measure 18
0000
0000
3000
0001
,  // measure 19
0100
0010
1000
0001
,  // measure 20
1000
0200
0000
0000
0000
0000
0300
0000
,  // measure 21
0010
0001
0010
0100
,  // measure 22
1000
1000
1000
1000
,  // measure 23
1000
0002
0000
0000
,  // measure 24
0000
0000
0000
0003
,  // measure 25
1000
0100
0010
0100
,  // measure 26
2000
0000
0000
3000
,  // measure 27
0001
0010
0100
0010
,  // measure 28
0002
0000
0000
0013
,  // measure 29
0010
0100
1000
0100
,  // measure 30
0020
0000
0000
0031
,  // measure 31
0100
0010
0100
0010
,  // measure 32
2000
0000
0000
3000
,  // measure 33
2000
0000
0000
0000
3000
0001
0000
0000
,  // measure 34
0200
0000
0300
0010
,  // measure 35
2000
0000
0000
3001
,  // measure 36
0020
0000
0000
0030
,  // measure 37
0200
0000
0000
0300
,  // measure 38
2000
0000
0000
3000
,  // measure 39
2002
0000
0000
0003
,  // measure 40
0000
0001
0000
0001
0000
0001
3000
0000
,  // measure 41
0100
0000
0000
0000
0000
0010
0000
0000
,  // measure 42
0000
0010
0000
0010
0000
0000
0001
0000
,  // measure 43
1000
0000
0000
0000
0000
0100
0000
0000
,  // measure 44
0000
0010
0000
0010
0000
0000
0001
0000
,  // measure 45
1000
0000
0000
0000
0000
0010
0000
0000
,  // measure 46
0000
0100
0000
0001
0000
0000
0101
0000
,  // measure 47
2000
3200
0320
0032
,  // measure 48
0000
0000
0000
0003
,  // measure 49
1000
0000
0000
0100
0000
0000
0010
0000
,  // measure 50
0000
0100
0000
0000
1000
0000
0101
0000
,  // measure 51
0001
0000
0000
0010
0000
0000
0100
0000
,  // measure 52
0000
0010
0000
0000
0001
0000
1100
0000
,  // measure 53
0010
0000
0000
0100
0000
0000
0010
0000
,  // measure 54
0000
1000
0000
0000
0001
0000
1100
0000
,  // measure 55
0100
0000
0000
0010
0000
0000
0001
0000
,  // measure 56
0000
0001
0000
0000
1000
0000
1000
0000
,  // measure 57
1001
0000
0000
0100
0000
0000
0010
0000
,  // measure 58
0000
0100
0000
0000
0001
0000
0101
0000
,  // measure 59
1000
0000
0000
0100
0000
0000
0010
0000
,  // measure 60
0000
0100
0000
0000
1000
0001
1000
0000
,  // measure 61
0010
0000
0000
0100
0000
0000
0010
0000
,  // measure 62
0000
1000
0000
0000
0001
0000
0100
0000
,  // measure 63
1000
0100
0010
2002
,  // measure 64
0000
0000
0000
3003
,  // measure 65
1000
0000
0001
0000
1000
0000
0100
0010
,  // measure 66
0000
0001
0000
0100
0010
0000
1000
0000
,  // measure 67
1000
0000
0010
0000
0100
0000
0001
0010
,  // measure 68
0000
0100
0000
1000
0000
0100
0000
0010
,  // measure 69
0001
0000
0100
0000
0100
0000
0010
1000
,  // measure 70
0000
0100
0000
0100
0010
0000
0001
0000
,  // measure 71
1000
0000
0010
0000
0100
0000
0001
1000
,  // measure 72
0000
1000
0000
1000
0001
1000
0001
1000
,  // measure 73
0000
0000
0100
0000
0010
0000
0001
0010
,  // measure 74
0000
0010
0000
0100
0010
0000
0001
0000
,  // measure 75
0100
0000
0010
0000
0100
0000
0001
0100
,  // measure 76
0000
0010
0000
1000
0000
0100
0000
0010
,  // measure 77
0001
1000
0100
1000
,  // measure 78
0001
0100
0001
1000
,  // measure 79
1000
0100
0010
2002
,  // measure 80
0000
0000
0000
3003
,  // measure 81
2002
0000
0000
0000
,  // measure 82
0000
0000
0000
0000
,  // measure 83
0000
0000
0000
3003
;

//---------------dance-single - ----------------
#NOTES:
     dance-single:
     :
     Hard:
     8:
     0.405,0.476,0.284,0.307,0.038:
0000
0000
0000
0000
,
0000
0000
0000
0000
,
1100
0000
0000
0000
0000
0001
0000
0000
,
0000
0100
0000
0010
0000
0000
0000
0000
,
1010
0000
0000
0000
0000
1000
0000
0000
,
0000
0001
0000
0100
0000
0000
0000
0000
,
0011
0000
0000
0000
0000
0010
0000
0000
,
0000
0100
0000
1000
0000
0000
0000
0000
,
2001
0000
0000
3000
0000
0001
0000
0000
,
0000
1000
0000
0100
0000
0000
0000
0000
,
1200
0000
0000
0300
0000
0010
0000
0000
,
0000
0001
0000
0010
0000
0000
1100
0000
,
0120
0000
0000
0030
0000
0010
0000
0000
,
0000
1000
0000
0001
0000
0000
0000
0100
,
2100
0000
0000
3000
0000
0001
0000
0000
,
0220
0000
0030
0301
,
2010
0000
0001
0000
3100
0000
0010
0200
,
0000
1000
0310
0001
,
2000
0010
0010
3001
,
0100
0020
0000
1000
0000
0000
0130
0100
,
0000
2000
3010
0100
,
0002
2003
3100
0010
,
0020
0230
1300
0001
,
0100
0100
0100
0100
,
0002
0000
1000
0000
1003
0000
0100
0002
,
0000
1000
1000
0003
,
0100
0010
0001
0010
,
0100
1000
1000
0200
,
0320
0130
0001
0100
,
2000
3010
0100
0010
,
2000
3100
0010
1000
,
0010
0001
0000
0001
0000
0001
0000
0001
,
2000
0100
3010
0002
,
0203
0010
1000
0302
,
0023
0000
0100
0000
1000
0000
0032
0003
,
0100
0020
0000
0000
0130
0000
0100
0200
,
0000
0310
0001
0001
,
2000
3200
0010
1300
,
2002
0000
0000
3003
,
0000
1000
0000
1000
0000
1000
0000
1000
,
1100
0000
0000
0000
0000
0001
0000
0000
,
0000
0100
0000
0010
0000
0000
0000
0000
,
0101
0000
0000
0000
0000
1000
0000
0000
,
0000
0010
0000
0100
0000
0000
0001
0000
,
0101
0000
0000
0000
0000
1000
0000
0000
,
0000
0100
0000
0100
0010
0000
0001
0000
,
1001
0010
0100
1000
,
0220
0000
0000
0330
,
1100
0000
0000
0110
0000
0000
0011
0000
,
0000
0110
0000
0000
1000
0000
0001
0000
,
0101
0000
0000
1001
0000
0000
1100
0000
,
0000
0110
0000
0000
0001
0000
0010
0000
,
1100
0000
0000
0110
0000
0000
0101
0000
,
0000
1010
0000
0000
0100
0000
0010
0000
,
1001
0000
0000
1100
0000
0000
1010
0000
,
0000
0110
0000
0000
0001
0000
1000
0000
,
0100
0000
0010
0001
1000
0000
0100
0000
,
0010
0000
0100
0000
1000
0000
0001
0100
,
0010
0100
0010
1000
0100
0000
0010
0000
,
0001
0000
0100
0000
0001
0100
0001
0000
,
1000
0000
1000
0100
1000
0000
0010
0000
,
0100
0001
0010
0001
,
1000
1100
0101
0110
,
2002
0000
0000
3003
,
1000
0000
0000
0000
0010
0000
0000
0010
0100
0000
0010
0000
0100
0000
0001
0000
,
0000
0000
1000
0000
0000
0000
0100
0010
0100
0000
1000
0000
0001
0000
0010
0000
,
0100
0000
0000
0000
0100
0000
0000
0010
0001
0000
1000
0000
0100
0000
0010
0000
,
0000
0010
0000
0010
0000
0010
0000
0010
,
0001
0000
0000
0000
1000
0000
0000
0010
0100
0000
0010
0000
0100
0000
0001
0000
,
0000
0000
0010
0000
0000
0000
0100
0010
0100
0000
1000
0000
0001
0000
0010
0000
,
0100
0000
0000
0000
0100
0000
0000
1000
0100
0000
1000
0000
0100
0000
0010
0000
,
0000
0000
0010
0000
0000
0000
0010
0001
1000
0000
0001
0000
0100
0000
0001
0000
,
0000
0000
0000
0000
1000
0000
0000
0001
0100
0000
0010
0000
0100
0000
0001
0000
,
0000
0000
0001
0000
0000
0000
0001
1000
0100
0000
0010
0000
0001
0000
1000
0000
,
0001
0000
0000
0000
0100
0000
0000
0010
1000
0000
0100
0000
0010
0000
0100
0000
,
0000
0100
0000
0100
0000
0100
0000
1000
,
0001
0000
0001
0000
0010
0000
0010
0100
,
0000
0100
0000
1000
0000
1000
0000
0100
,
1000
0100
0010
0002
,
0000
0000
0000
0003
,
2200
0000
0000
0000
,
0000
0000
0000
0000
,
0000
0000
0000
3300
;
