#TITLE:Here We Go;
#SUBTITLE:;
#ARTIST:S3RL feat. Amy & Tamika;
#TITLETRANSLIT:;
#SUBTITLETRANSLIT:;
#ARTISTTRANSLIT:;
#GENRE:UK Hardcore;
#CREDIT:Thumbsy;
#MENUCOLOR:;
#METERTYPE:DDR;
#BANNER:Here We Go-bn.png;
#BACKGROUND:Here We Go-bg.png;
#LYRICSPATH:;
#CDTITLE:CDTitle.png;
#MUSIC:Here We Go.mp3;
#OFFSET:-0.027;
#SAMPLESTART:81.900;
#SAMPLELENGTH:12.000;
#SELECTABLE:YES;
#LISTSORT:;
#BPMS:0.000=175.000,64.000=131.250,67.000=87.500,97.000=43.750,99.000=175.000;
#STOPS:103.000=1.029
;
#BGCHANGES:;
#ATTACKS:;

//---------------dance-single - ----------------
#NOTES:
     dance-single:
     :
     Beginner:
     2:
     0.116,0.182,0.064,0.027,0.000:
0000
0000
0000
0000
,
1000
0000
0000
0000
,
0100
0000
0000
0000
,
1000
0000
0000
0000
,
0010
0000
1000
0000
,
0001
0000
0000
0000
,
0010
0000
0000
0000
,
0001
0000
0000
0000
,
0100
0000
0010
0000
,
0100
0000
0000
0000
,
0000
0000
0000
1000
,
1000
0000
0000
0000
,
0010
0000
0000
0000
,
0100
0000
0000
0000
,
0000
0000
0000
1000
,
1000
0000
0000
0000
,
0001
0000
0000
1000
,
0000
1000
0000
0001
,
0000
0100
0000
0010
,
0000
1000
0000
0001
,
0000
1000
0000
0100
,
0000
0010
0000
0100
,
0000
0001
0000
0010
,
0000
1000
0000
0001
,
0000
2000
0000
0000
,
0000
0000
3000
0000
,
0000
0000
0000
0000
,
0001
0000
0000
0000
,
0100
0000
0000
0000
,
0001
0000
0000
0000
,
1000
0000
0000
0000
,
0010
0000
0000
0000
,
0100
0000
0000
0000
,
0001
0000
0010
0000
,
1000
0000
0000
0000
,
1000
0000
0000
0000
,
0001
0000
0000
0000
,
0010
0000
0000
0000
,
0100
0000
0000
0000
,
1000
0000
0000
0000
,
0001
0000
0000
0000
,
0001
0000
0000
0000
,
1001
0000
0000
0000
,
1000
0000
0000
0000
,
0010
0000
0000
0000
,
0001
0000
0000
0000
,
0010
0000
0000
0000
,
1001
0000
0000
0000
,
1000
0000
0000
0000
,
0110
0000
0000
0000
,
1001
0000
0000
0000
,
1000
0000
0000
0000
,
0100
0000
0000
0000
,
0001
0000
0000
0000
,
0100
0000
0000
0000
,
1001
0000
0000
0000
,
0100
0000
0000
0000
,
0110
0000
0000
0000
,
1000
0000
0000
0000
,
0001
0000
0000
0000
,
1000
0000
0000
0000
,
0001
0000
0000
0000
,
1000
0000
0001
0000
,
1000
0000
0001
0000
,
1000
1000
1000
1000
,
0000
0000
0000
0000
,
2002
3003
0000
0000
;

//---------------dance-single - ----------------
#NOTES:
     dance-single:
     :
     Easy:
     5:
     0.302,0.303,0.064,0.091,0.119:
0000
0000
0000
0000
,
1000
0000
0100
0000
,
0010
0000
0010
0000
,
0100
0000
0100
0000
,
0001
0000
0001
0000
,
1000
0000
0001
0000
,
1000
0000
0001
0000
,
0100
0000
0010
0000
,
0100
0000
0001
0000
,
1001
0000
0000
0000
,
1000
0000
1000
0001
,
0100
0000
0000
0000
,
0010
0010
0010
0000
,
1001
0000
0001
0000
,
1000
0000
0000
0100
,
0220
0000
0330
0000
,
1001
0000
0000
1000
,
1000
0001
0001
0100
,
0100
0010
0010
1000
,
0001
0010
0001
1000
,
0100
0010
0100
1000
,
1000
0001
0010
0010
,
0001
0100
0010
0010
,
1000
0100
0001
0010
,
0100
2000
0000
0002
,
0000
0000
3003
0000
,
1000
0100
1000
0010
,
0100
0000
0000
0001
0000
0000
0010
0000
0001
0000
0000
0000
,
0001
0010
0100
1000
,
0010
0000
0000
0100
0000
0000
0001
0000
0010
0000
0000
0000
,
1000
0100
1000
0000
,
0001
0100
0001
0000
,
1000
0001
0100
0010
,
1000
0000
1000
0000
0000
0000
1000
0000
0000
0000
0000
0000
,
1000
0001
0100
0010
,
1000
0000
0000
0001
0000
0000
0010
0000
0100
0000
0000
0000
,
1000
0100
0010
0001
,
0010
0000
0000
0100
0000
0000
1000
0000
0100
0000
0000
0000
,
0010
0001
0100
0010
,
1000
0000
0000
0001
0000
0000
1000
0000
0100
0000
0000
0000
,
0001
0100
0010
1000
,
0001
1000
1100
0000
,
1001
0001
0100
0010
,
0100
0001
1000
0100
,
0001
0010
0100
1000
,
0010
0000
0000
0100
0000
0000
0001
0000
0010
0000
0100
0000
,
0010
0001
0100
0010
,
1000
0001
2000
3000
,
1000
0010
0100
0001
,
0010
0100
2000
3000
,
1000
0100
0001
0100
,
1000
0000
0000
0100
0000
0000
0010
0000
0010
0000
0001
0000
,
0100
0001
0010
1000
,
0001
0000
0000
0100
0000
0000
0010
0000
0001
0000
1000
0000
,
0100
0010
0001
0010
,
0100
0000
0000
1000
0000
0000
0001
0000
1000
0000
0001
0000
,
0100
0010
0100
0001
,
0002
0000
2000
3003
,
1000
0000
0001
0000
,
0100
0000
0010
0000
0100
0000
0010
0000
0000
0000
0000
0000
,
1000
0000
0001
0000
,
0010
0000
0100
0000
0010
0000
0100
0000
0000
0000
0000
0000
,
1000
0000
0001
0000
1000
0000
0001
0000
0000
0000
0000
0000
,
0010
0000
0100
0000
0010
0000
0100
0000
0000
0000
0000
0000
,
1000
0000
0100
0000
1000
0000
0100
0000
0010
0000
0001
0000
,
0010
0000
0000
0000
,
2002
3003
0000
0000
;

//---------------dance-single - ----------------
#NOTES:
     dance-single:
     :
     Medium:
     8:
     0.430,0.515,0.137,0.128,0.311:
0000
0000
0000
0000
,
1000
0100
1000
0100
,
0010
0100
0010
0100
,
0010
1000
0010
0001
,
0010
0000
0000
0100
0000
0000
0010
0000
0000
0001
0000
1000
,
0100
0010
0100
1000
,
0001
0010
0001
0010
,
0100
1000
0100
1000
,
0100
0010
0001
0010
,
0210
0001
1000
0301
,
0120
1000
0001
1030
,
2000
0100
0010
3001
,
0002
0010
0100
1003
,
2002
0000
0000
3003
,
0110
0000
0000
0110
,
1001
0000
0000
0000
,
2002
0000
3003
1000
,
1000
0000
1000
0100
0010
0000
0010
0100
,
0010
0000
0001
0100
1000
0100
0001
0000
,
0000
0100
0001
0100
0010
0000
0001
1000
,
0100
0010
0100
1000
0001
0000
1001
1000
,
0100
0010
0100
0010
0001
0010
0100
0100
,
0100
0100
0001
0010
0100
1000
1100
0000
,
0000
1000
0001
0100
0010
0000
1000
0001
,
0010
0100
2002
0000
3003
0000
1100
0000
,
0101
0110
1001
0000
,
1000
0000
0100
0000
0010
0000
0100
0000
0000
0010
0000
0000
,
0001
0000
0000
0100
0000
0000
0010
0000
0000
1000
0000
0001
,
0010
0000
0001
0000
0100
0000
0010
0000
0000
1000
0000
0000
,
0010
0000
0000
0100
0000
0000
0010
0000
0000
0001
0000
0010
,
0001
0000
0100
0000
0010
0000
0100
0000
0000
0001
0000
0000
,
1000
0000
0000
0100
0000
0000
0010
0000
0000
0010
0000
0001
,
1000
0000
0100
0000
0010
0000
0001
0000
1000
0000
0100
0000
,
0020
0000
0000
0000
0000
0000
0030
0000
0000
0000
0000
0001
,
0010
0000
0010
0000
0100
0000
1000
0000
0000
0001
0000
0000
,
0100
0000
0000
0010
0000
0000
1000
0000
0000
0001
0000
1000
,
0100
0100
0010
0001
,
0010
0000
0000
0010
0000
0000
1000
0000
0000
0001
0000
0100
,
0010
0000
1000
0000
0001
0000
0100
0000
0000
0100
0000
0000
,
1000
0000
0000
1000
0000
0000
0100
0000
0000
0010
0000
0010
,
0001
0000
0010
0000
0100
0000
1000
0000
0001
0000
0010
0000
,
0200
0000
0000
0300
,
1000
0000
1000
0100
0000
0000
1000
0000
0000
0100
0000
0000
,
0010
0000
0000
0001
0000
0000
0010
0000
0000
0100
0001
0100
,
0001
0100
0010
1000
,
0100
0000
0000
0010
0000
0000
0100
0000
0000
1000
0001
1000
,
0001
1000
0100
0010
,
0100
0000
0000
1000
0000
0000
0010
0000
0000
0100
0010
0100
,
0010
1000
0100
0010
,
0100
0000
0000
1000
0000
0000
0010
0000
0000
0100
0010
1000
,
0001
0000
0100
0000
0010
0000
1000
0000
0000
0001
0000
0000
,
0100
0000
0000
0010
0000
0000
0100
0000
0000
1000
0100
0001
,
0010
0000
0001
0000
1000
0000
0100
0000
0000
0010
0000
0000
,
0001
0000
0000
0010
0000
0000
0100
0000
0000
1000
0100
0001
,
0100
0000
0010
0000
0001
0000
0100
0000
0000
0010
0000
0000
,
0010
0000
0000
0100
0000
0000
1000
0000
0000
0001
0000
1000
,
0100
0100
0010
0001
,
1000
0000
1000
0000
,
1000
0000
0001
0000
0100
0000
0010
0000
0000
0000
0000
0000
,
0001
0000
1000
0000
0100
0000
0010
0000
0000
0000
0000
0000
,
0100
0000
0010
0000
0001
0000
0100
0000
0000
0000
0000
0000
,
0010
0000
1000
0000
0001
0000
0100
0000
0000
0000
0000
0000
,
0010
0000
1000
0000
0001
0000
0100
0000
1000
0000
0100
0000
,
0001
0000
0010
0000
0001
0000
0010
0000
1000
0000
0010
0000
,
0001
0000
1000
0000
0100
0000
0010
0001
1000
0100
0010
0001
,
1000
0000
0000
0000
,
2002
3003
0000
0000
;

//---------------dance-single - ----------------
#NOTES:
     dance-single:
     :
     Hard:
     9:
     0.602,0.757,0.183,0.101,0.918: // measure 1
0000
0000
0000
0000
,  // measure 2
1100
0000
0000
0001
0000
0010
0100
0000
0010
0001
0000
0000
,  // measure 3
0001
0000
0000
1000
0000
0010
0100
0000
0100
0001
0000
0000
,  // measure 4
1000
0000
0000
0100
0000
0010
0100
0000
1000
0100
0000
0000
,  // measure 5
1000
0000
0000
0001
0000
0010
0001
0000
0010
0001
0000
0000
,  // measure 6
1000
0000
0000
0010
0000
0100
0010
0000
0100
0001
0000
0000
,  // measure 7
1000
0000
0000
0100
0000
0010
0001
0000
1000
0100
0000
0000
,  // measure 8
0010
0000
0000
0100
0000
1000
0010
0000
1000
0001
0000
1000
,  // measure 9
0100
0100
1000
0001
,  // measure 10
1001
0000
1000
0001
0000
0001
0010
0000
0010
0100
0000
0100
,  // measure 11
1000
1000
0001
0110
,  // measure 12
1100
0000
1000
0001
0000
0000
0100
0000
0000
0010
0000
0000
,  // measure 13
1001
0000
0010
0100
0000
0000
0001
0000
0000
0100
0000
0000
,  // measure 14
1001
0100
0010
1000
,  // measure 15
0001
0100
0010
1010
,  // measure 16
0102
0000
0100
0003
,  // measure 17
2002
0000
0000
0000
3003
0000
0100
1000
,  // measure 18
0100
1000
0001
0100
0001
0100
0010
1000
,  // measure 19
0001
0010
0100
0001
0100
1000
0001
0100
,  // measure 20
0001
0100
0010
1000
0010
1000
0100
0010
,  // measure 21
0001
0001
0010
0100
1000
0001
1001
1100
,  // measure 22
1000
1100
0001
0101
0001
0101
0010
1000
,  // measure 23
0001
0000
0010
0100
0000
0000
0001
0000
0000
0100
0000
0000
1000
0000
0000
0001
0000
0000
0100
0000
0000
0000
0000
0000
,  // measure 24
0000
1100
0002
0100
0103
0000
1000
0001
,  // measure 25
0100
0000
0010
0100
0000
0000
0002
0000
0000
0000
0000
0000
0003
0000
0000
0000
0000
0000
1000
0000
0001
0000
1000
0000
,  // measure 26
0001
1000
0100
1001
,  // measure 27
0100
0000
0001
0100
0000
0000
0100
0000
0010
0000
1000
0000
,  // measure 28
0001
0000
0010
0000
0001
0000
0100
0010
1000
0001
0010
0100
,  // measure 29
1000
0000
0001
0000
0100
0000
0010
0000
1000
0000
0001
0000
,  // measure 30
0010
0000
0100
0000
0010
0000
0001
1000
0001
0100
0001
0100
,  // measure 31
0010
0000
1000
0000
0100
0000
1000
0000
0010
0000
0100
0000
,  // measure 32
0001
0000
0010
0000
0001
0000
0100
0010
0100
0010
0100
0010
,  // measure 33
1000
0000
0100
0000
0001
0000
0100
0000
1000
0000
0100
0000
,  // measure 34
0010
0000
0001
0000
0001
0000
1000
0100
0010
0001
1000
0100
,  // measure 35
0010
0000
0001
0000
0010
0000
0100
0000
1000
0000
0100
0000
,  // measure 36
0010
0000
0001
0000
1000
0000
0001
0010
0100
1000
0001
0010
,  // measure 37
0100
0000
1000
0000
0001
0000
0100
0000
0010
0000
0100
0000
,  // measure 38
0001
0000
1000
0000
0100
0000
0010
0001
1000
0100
0010
0001
,  // measure 39
0100
0000
0010
0000
1000
0000
0100
0000
1000
0000
0100
0000
,  // measure 40
0010
0000
0001
0000
0010
0000
0001
1000
0001
0100
0001
0010
,  // measure 41
0001
0000
1000
0000
0010
0000
0100
0000
0001
0000
0010
0000
,  // measure 42
0110
0000
1001
1001
,  // measure 43
1000
0000
0001
1000
0000
0000
0100
0000
0010
0000
0001
0000
,  // measure 44
0010
0000
0100
0000
1000
0000
1000
0100
1000
0100
0010
0001
,  // measure 45
0010
0000
0001
0000
1000
0000
0001
0000
0100
0000
0010
0000
,  // measure 46
0100
0000
0001
0000
0010
0000
0001
0100
0010
1000
0001
0010
,  // measure 47
0100
0000
1000
0000
1000
0000
0100
0000
0010
0000
0010
0000
,  // measure 48
1000
0000
0001
0000
0001
0000
1000
0001
1000
0001
1000
0001
,  // measure 49
1000
0000
0100
0000
0010
0000
0100
0000
1000
0000
0001
0000
,  // measure 50
0010
0000
0100
0000
0010
0000
0001
0010
0100
1000
0100
1000
,  // measure 51
0100
0000
1000
0000
0001
0000
0100
0000
0010
0000
1000
0000
,  // measure 52
0002
0000
0000
0003
0000
0000
0001
0100
0010
1000
0001
0100
,  // measure 53
0010
0000
1000
0000
0001
0000
0010
0000
1000
0000
0001
0000
,  // measure 54
0100
0000
1000
0000
0100
0000
0010
0001
0010
0100
0010
0100
,  // measure 55
2000
0000
0000
0000
0000
0000
3000
0000
0000
0001
0000
1000
,  // measure 56
0002
1000
1000
0003
,  // measure 57
1000
0000
0000
0100
0000
0000
0010
0000
0001
1000
0000
0000
,  // measure 58
1000
0000
0001
0000
1000
0000
0001
0000
1000
0000
0001
0000
,  // measure 59
1000
0000
0100
0000
0010
0000
0001
0000
1000
0000
0100
0000
,  // measure 60
0010
0000
0001
0000
1000
0000
0100
0000
0010
0000
0001
0000
,  // measure 61
1000
0000
0010
0000
0100
0000
0001
0000
1000
0000
0010
0000
,  // measure 62
0100
0000
0001
0000
1000
0000
0010
0000
0100
0000
0001
0000
,  // measure 63
1000
0100
1000
0100
1000
0100
0010
0001
0010
0001
0010
0001
,  // measure 64
1000
0100
0010
0001
0100
0010
1000
0100
0010
0001
0100
0010
,  // measure 65
1000
0001
1000
0010
0100
0010
0100
0001
1000
0100
0010
0001
,  // measure 66
2000
0000
0001
3100
,  // measure 67
2002
3003
0000
0000
;
