#TITLE:Guitar Hero;
#SUBTITLE:;
#ARTIST:Dougal & Gammer;
#TITLETRANSLIT:;
#SUBTITLETRANSLIT:;
#ARTISTTRANSLIT:;
#GENRE:UK Hardcore;
#CREDIT:Thumbsy;
#MENUCOLOR:;
#METERTYPE:DDR;
#BANNER:Guitar Hero-bn.png;
#BACKGROUND:Guitar Hero-bg.png;
#LYRICSPATH:;
#CDTITLE:CDTitle.png;
#MUSIC:Guitar Hero.mp3;
#OFFSET:-0.005;
#SAMPLESTART:28.280;
#SAMPLELENGTH:12.000;
#SELECTABLE:YES;
#LISTSORT:;
#BPMS:0.000=169.720;
#STOPS:162.000=0.355
,165.000=0.355
,168.000=0.355
,171.000=0.355
;
#BGCHANGES:0.000=Guitar Hero-bg.png=1.000=0=0=1,
162.000=GH1.jpg=1.000=0=0=1,
165.000=GH2.jpg=1.000=0=0=1,
168.000=GH3.jpg=1.000=0=0=1,
171.000=GH4.jpg=1.000=0=0=1,
184.000=GH5.jpg=1.000=0=0=1,
188.000=Guitar Hero-bg.png=1.000=1=0=1,
99999=-nosongbg-=1.000=0=0=0 // don't automatically add -songbackground-
;
#ATTACKS:;

//---------------dance-single - ----------------
#NOTES:
     dance-single:
     :
     Easy:
     3:
     0.263,0.360,0.094,0.083,0.000:
0000
0000
0000
0000
,
0000
0000
0000
0000
,
0000
0000
0000
0000
,
0000
0000
0000
0000
,
2000
0000
0000
0000
,
0000
0000
3002
0000
,
0200
0000
0003
0300
,
0020
0000
0000
0030
,
1001
0000
0000
0000
,
1000
0001
1000
0100
,
1000
0000
0000
0000
,
0001
0100
0001
1000
,
1000
0000
1000
0000
,
0100
0000
0100
0000
,
0001
0001
0001
0001
,
0010
0100
1000
0000
,
0100
1000
0100
1000
,
0001
1000
0100
0000
,
0100
0001
0100
0001
,
1000
0001
0100
0000
,
0000
0100
0000
0001
,
0000
1000
0000
0001
,
0000
1000
0000
0100
,
0000
0001
0001
0001
,
0000
1000
0001
0100
,
0001
0100
0010
0000
,
0001
1000
0001
0010
,
0001
0010
0001
0000
,
1001
0000
0000
0000
,
1001
0000
0000
0000
,
1001
0000
1001
0000
,
1001
1001
1001
0000
,
2000
0000
0100
0000
,
0100
0100
0100
3000
,
0002
0000
0100
0000
,
0100
0100
0100
0003
,
2000
0000
0010
0000
,
0010
0010
0010
3000
,
0002
0000
0010
0000
,
0010
0010
0010
1003
,
1000
0000
0001
0000
,
0000
1000
0000
0000
,
0010
0000
0000
0100
,
0000
0001
0000
1000
,
0000
0001
0000
1000
,
0001
1000
0001
1000
,
1000
1000
1000
1000
,
1000
0000
0100
0000
,
0001
0100
0001
0000
,
0010
0000
0100
0000
,
0010
1000
0010
0000
,
1000
0100
0001
0000
,
0001
0100
1000
0000
,
1000
0100
0001
0100
,
1000
0100
0001
0000
,
1000
0001
0010
0100
,
1000
0010
0100
0001
,
1000
0000
0100
0000
,
0010
0010
0010
0010
,
0001
0100
0010
1000
,
0001
1000
0001
1000
,
0100
0010
0001
0010
,
0100
0010
0001
1000
,
1001
0000
0000
0000
;

//---------------dance-single - ----------------
#NOTES:
     dance-single:
     :
     Beginner:
     2:
     0.150,0.229,0.062,0.010,0.000:
0000
0000
0000
0000
,
0000
0000
0000
0000
,
0000
0000
0000
0000
,
0000
0000
0000
0000
,
1000
0000
0000
0000
,
0000
0000
0000
0000
,
0001
0000
0000
0000
,
1000
0000
0000
0000
,
0010
0000
0000
0000
,
0001
0000
1000
0000
,
1000
0000
0000
0000
,
0010
0000
0100
0000
,
0010
0000
0000
0000
,
0010
0000
0000
0000
,
0001
0000
1000
0000
,
0001
0001
0001
0000
,
1001
0000
1000
0000
,
0001
0000
1000
0000
,
1000
0000
0001
0000
,
0100
0000
0001
0000
,
0001
0000
1000
0000
,
0010
0000
0010
0010
,
0010
0000
0100
0000
,
0001
0000
0000
0000
,
0000
0000
1000
0000
,
0001
0000
0010
0000
,
0100
0000
1000
0000
,
0001
0000
0100
0000
,
0100
0000
1000
0000
,
1000
0000
0001
0000
,
0001
0000
0010
0010
,
0010
0000
0000
0000
,
1001
0000
0000
0000
,
1000
0000
0000
0000
,
1001
0000
0000
0000
,
0001
0000
0000
0000
,
1001
0000
0000
0000
,
0100
0000
0000
0000
,
0110
0000
0000
0000
,
0010
0000
0000
0000
,
2000
0000
0000
0000
,
0000
0000
0000
0000
,
0000
0000
0000
3000
,
1000
0000
0000
0000
,
0001
0000
0000
0000
,
1000
0000
0001
0000
,
1000
0000
0001
0000
,
1000
0000
0001
0000
,
1000
0000
0100
0000
,
0001
0000
0010
0000
,
0100
0000
0001
0000
,
0001
0000
0001
0000
,
0001
0000
0001
0000
,
1000
0000
1000
0000
,
0001
0000
0001
0000
,
1001
0000
1000
0000
,
1000
0000
1000
0000
,
0001
0000
0100
0000
,
0100
0000
0100
0000
,
0010
0000
0010
0000
,
1000
0000
1000
0000
,
1000
0000
0010
0000
,
1000
0000
0000
0000
,
0001
0000
0000
0000
;

//---------------dance-single - ----------------
#NOTES:
     dance-single:
     :
     Medium:
     6:
     0.416,0.424,0.073,0.218,0.000:
0000
0000
0000
0000
,
0000
0000
0000
0000
,
0000
0000
0000
0000
,
0000
0000
0000
0000
,
1000
0001
1000
0001
0000
0001
0000
0010
,
0000
0100
0000
1000
0100
0000
0010
0000
,
0010
0001
0010
0001
0000
0001
0000
0100
,
0000
0010
0000
1000
0100
0000
0010
0000
,
1001
1000
0000
1000
,
0000
1000
0000
1000
,
0001
0100
0000
0100
,
0000
0100
0000
0100
,
0010
1000
0001
0010
,
0001
1000
0010
1000
,
0001
0010
0100
0000
1000
0010
0100
0001
,
0020
0000
0002
0033
,
0001
1000
0001
1000
0001
0000
0100
0000
,
0010
1000
0001
1000
,
0100
0010
0100
0010
0100
0000
0010
0000
,
0001
0100
0010
1000
,
0001
0100
0001
0100
0001
0000
1000
0000
,
0010
1000
0001
0100
,
0010
1000
0010
1000
0010
0000
1000
0000
,
0001
0000
0100
0000
0001
1000
0001
1000
,
0001
2000
0000
3002
,
0000
0203
0000
0320
,
0000
2030
0000
3002
,
0000
0023
0000
0230
,
0000
0302
0000
2003
,
0000
3020
0000
0032
,
0000
2003
0000
3001
,
1000
0100
0010
0001
0010
0100
1000
0001
,
1000
0001
1000
0000
,
0010
0000
0010
0100
0000
0000
0000
0000
,
0001
0010
0100
0000
,
0100
0000
0100
0010
0000
0000
0000
0000
,
0001
0100
0001
0000
,
0100
0010
1000
0001
0000
0000
0000
0000
,
2000
0000
3002
0003
,
0010
0100
1000
0001
0000
0000
1000
0000
,
2000
0000
0000
0001
3001
0000
0002
0000
,
0000
0010
0013
0000
0200
0000
0000
1000
,
1300
0000
2000
0000
0000
0010
3010
0000
,
1000
0001
1000
0001
,
0100
0001
0100
0001
,
0010
0100
0010
0100
1000
0100
1000
0100
,
1000
0001
0100
0001
0000
0001
1000
0000
,
1000
0000
0000
1000
0001
0000
0001
0100
,
0001
1000
0001
0100
0000
0100
0001
0000
,
1000
0000
0000
1000
0100
0000
1000
0100
,
1000
0010
1000
0100
0000
0100
1000
0000
,
0001
0101
1000
1100
,
1000
0100
1000
0000
0001
0100
0001
0000
,
0001
0011
1000
1010
,
1000
0001
0000
1000
0000
0001
1000
0000
,
0000
1000
0001
0001
,
1000
0100
1000
0100
0000
0001
0100
0000
,
1000
0100
0001
0010
,
1000
0010
1000
0001
0000
1000
0001
0000
,
1001
1000
0100
0010
,
0011
0010
0100
1000
,
0001
0010
0100
1000
0001
0000
0100
0000
,
0001
1000
0001
1000
0000
1000
0001
0000
;

//---------------dance-single - ----------------
#NOTES:
     dance-single:
     :
     Hard:
     8:
     0.566,0.590,0.135,0.260,0.088:
0000
0000
0000
0000
,
0000
0000
0000
0000
,
0000
0000
0000
0000
,
0000
0000
0000
0000
,
2000
3200
2300
3200
,
2300
0000
3100
0000
1000
0001
0100
0001
,
0200
0302
0203
0302
,
0013
0100
0010
0100
1000
0000
0010
0000
,
1000
0100
1000
0100
1000
0100
1000
0100
,
0010
0000
0001
0000
0010
0000
0001
0000
0010
0000
0100
0000
0010
0000
0000
0010
,
0000
0100
0010
0001
0100
0001
0100
0001
,
0010
0001
0010
0001
0010
0000
0010
0000
,
1000
0001
0100
1000
,
0001
0000
0000
0000
0100
0000
0000
0000
0010
0000
0000
0000
1000
0000
0000
0100
,
0010
0001
1000
0001
0100
0001
1000
0001
,
0010
0000
0000
0000
,
1000
0100
1000
0001
1000
0100
1000
0000
,
0001
0000
0010
0000
0001
0000
0000
0000
0010
0000
0100
0000
0010
0000
0000
0100
,
0000
1000
0010
0000
1000
0010
1000
0000
,
0001
0000
0010
0000
0001
1000
0000
1000
0000
0000
0000
0000
0001
0000
0100
0000
,
0010
1000
0010
0001
0010
1000
0010
0000
,
0001
0000
0010
0000
0001
0000
0010
0000
0001
0000
0010
0000
0001
1000
0000
1000
,
0000
1000
0010
1000
0010
1000
0010
1000
,
0010
0000
0100
0000
0010
0000
0000
0010
0000
0000
0100
0010
0100
0000
0001
0000
,
1000
0001
0100
0010
,
1000
0000
0000
0000
0100
0000
0000
0000
1000
0000
0000
0000
0010
0100
0000
0100
,
0000
0001
0001
0000
1000
0000
0010
0000
,
0100
0001
0010
0100
,
1000
1100
1000
1100
,
0001
0101
0001
0101
,
1000
0100
0010
0001
1000
0100
0010
0001
,
2000
0100
0001
0010
0001
0100
3001
0000
,
0002
0000
0003
0010
0100
0000
0000
1000
,
0001
1000
0001
2000
0000
3000
0001
0000
,
2000
0000
3000
0001
0020
0030
0000
0100
,
1000
0000
0001
0000
1000
0000
0002
0000
0003
0000
0000
0000
1000
0001
0000
0001
,
2000
3000
0000
0010
0200
0000
0300
0001
,
0100
0001
1000
0002
0000
0003
2000
0000
,
0002
3003
0000
1000
0200
0000
0300
0010
,
0001
1000
0100
0010
0000
0000
0100
0000
,
0100
1000
0100
1000
0100
0000
0100
0001
,
0100
0001
0100
0000
0001
0010
0001
0010
,
0001
0000
0010
1000
0010
1000
0010
0000
,
2000
3002
2003
3002
,
1003
0001
1000
0001
,
1000
0000
0001
0000
1000
0000
0001
0000
1000
0000
0001
0000
1000
0001
1000
0000
,
0001
0000
0100
0000
1000
0000
0100
0000
0000
0000
0001
0000
1000
0001
0000
0001
,
1000
0000
0000
0010
1000
0000
0000
0001
,
0100
0001
1000
0001
0000
1000
1000
0010
,
1000
0000
0000
0010
0100
0000
0000
0001
,
1000
0010
1000
0001
0000
1000
0100
0000
,
1000
0001
1000
0100
0010
0000
0001
1000
,
0001
0010
0100
1000
0000
1000
0001
0000
,
0001
0100
0001
0010
0100
0000
1000
0001
,
0100
0000
0010
0000
0100
0000
0001
0000
0000
0000
0010
0100
0010
0000
0100
0000
,
0000
1000
0100
0010
,
0001
0010
0100
0010
0001
0010
0100
0010
,
0001
0100
0010
1000
,
0010
1000
0010
0100
0010
1000
0010
0100
,
0110
0110
0101
0101
,
1001
1001
1100
1100
,
1000
0001
0100
0001
1000
0100
1000
0001
,
0100
0010
1000
0001
0000
0010
0100
0000
,
1001
0000
0000
0000
;

//---------------dance-single - ----------------
#NOTES:
     dance-single:
     :
     Challenge:
     10:
     0.745,0.881,0.447,0.198,0.338: // measure 1
0000
0000
0000
0000
,  // measure 2
0000
0000
0000
0000
,  // measure 3
0000
0000
0000
0000
,  // measure 4
0000
0000
0000
0000
,  // measure 5
1000
0001
0100
0001
1000
0100
1000
0001
,  // measure 6
0100
0001
1000
0100
0010
0001
0100
0010
,  // measure 7
1000
0100
1000
0100
1000
0010
0100
0001
,  // measure 8
0010
0001
0100
0001
0010
0001
0100
0001
,  // measure 9
1000
0100
1000
0001
1000
0100
1000
0100
,  // measure 10
0010
0000
0100
0000
1000
0000
0001
0000
1000
0000
0100
0000
1000
0010
0100
0002
,  // measure 11
0000
1003
0001
0010
0001
1000
0010
1000
,  // measure 12
0001
0000
0010
0000
0010
0000
0000
0010
0001
0000
0000
0010
0001
0100
0010
1000
,  // measure 13
0100
1000
0001
0100
,  // measure 14
1001
0000
0000
0000
1000
0000
0000
0000
0010
0000
0000
0000
0001
0000
0000
1000
,  // measure 15
0100
0001
0010
1000
0100
0001
0010
0100
,  // measure 16
4000
0004
0000
0000
0000
0000
0000
0000
0000
0000
0000
0000
3003
0000
0000
0000
,  // measure 17
1001
1000
0100
0010
0001
0100
0010
1000
,  // measure 18
0100
0000
0010
0000
0001
0000
0100
0000
0010
0000
1000
0000
0001
1000
0001
0100
,  // measure 19
0000
0001
0010
0100
1000
0010
0100
0001
,  // measure 20
0010
0000
0100
0000
1000
0000
0001
0000
1000
0000
0000
1000
0100
0010
0100
1000
,  // measure 21
0001
1000
1001
1000
0100
0010
0011
0001
,  // measure 22
0100
0010
1010
1000
0100
1000
1001
0001
,  // measure 23
0100
0010
0110
0100
0010
1000
1100
0100
,  // measure 24
1001
0000
0000
0000
1100
0000
0000
0000
0001
0000
1000
0010
0100
0000
0001
0000
,  // measure 25
1000
1001
1100
1001
,  // measure 26
0101
0000
0000
0000
1001
0000
0000
0000
0101
0000
0000
0000
0001
0010
0001
0100
,  // measure 27
0000
1001
0011
1001
,  // measure 28
1010
0000
0000
0000
1001
0000
0000
0010
0100
0000
0000
0001
0010
0100
1000
0001
,  // measure 29
1000
1000
0001
0001
,  // measure 30
0001
0000
0001
0000
1000
0000
1000
0000
0010
0000
0100
0000
0001
1000
0001
1000
,  // measure 31
0000
1000
0100
0010
0001
1000
0100
0010
,  // measure 32
0001
0010
0001
0000
1000
0100
1000
0000
0010
0100
0010
0000
0100
0001
0100
0000
,  // measure 33
0020
0000
1030
0100
0002
0000
0103
1000
,  // measure 34
0010
0000
0001
0000
0010
0000
0200
0000
0000
0000
0300
0000
0001
0100
0000
0001
,  // measure 35
0020
0000
0130
0001
0200
0000
1300
0010
,  // measure 36
0001
0000
1000
0000
0100
0000
0002
0000
0000
0000
0003
0000
0001
1000
0000
1000
,  // measure 37
0200
0000
0000
0300
0001
0000
0100
0000
2000
0000
0000
0000
3010
0000
0001
0000
,  // measure 38
0010
0000
1000
0000
0100
0000
0002
0000
0000
0003
0100
0000
2000
0000
0000
0000
,  // measure 39
3002
0000
0003
0020
2000
0030
3000
0001
,  // measure 40
0100
1000
0001
0100
0000
0000
0001
0000
,  // measure 41
0001
0010
0100
0010
0001
0010
0100
0010
0001
0000
0000
0000
1000
0100
0010
0100
,  // measure 42
1000
0100
0010
0100
1000
0000
0000
0000
1000
0010
0100
0001
0010
0100
1000
0001
,  // measure 43
1000
0000
0000
0000
1000
0100
0010
0001
1000
0100
0010
0001
1000
0000
0000
0000
,  // measure 44
1100
0101
1100
0101
,  // measure 45
1000
0100
0001
0100
1000
0100
0001
0100
,  // measure 46
1000
0100
1000
0000
0001
1000
0001
0000
0001
0100
0001
0000
0010
0100
0010
0000
,  // measure 47
1000
0000
0100
0000
0010
0000
0001
0000
0000
0000
0010
0000
0100
1000
0000
1000
,  // measure 48
0100
0000
0010
0000
0100
0000
1000
0001
0100
0000
0001
0000
1000
0000
0001
0010
,  // measure 49
0100
0010
0001
1000
0000
1100
1100
0000
,  // measure 50
0010
0000
0100
0000
0001
0000
0010
0100
0010
0000
0100
0000
1000
0000
0010
1000
,  // measure 51
0010
0000
0001
1000
0001
0000
0100
0000
0000
0000
0110
0000
0110
0000
0000
0000
,  // measure 52
1000
0000
0001
0000
0010
0000
0100
1000
0100
0000
1000
0000
0001
0000
0100
0001
,  // measure 53
1000
0000
0001
0000
1000
0000
0010
0000
0000
0000
0001
0010
0100
0000
0001
0000
,  // measure 54
2000
0000
0000
0000
0000
0000
3200
0000
0320
0000
0030
0000
0000
0000
0001
0100
,  // measure 55
0001
0000
1000
0000
0001
0000
1000
0000
0001
0000
0001
1000
0001
0000
0001
0000
,  // measure 56
0000
0000
1100
0000
0010
0001
0101
0000
,  // measure 57
1000
0001
0110
0000
0001
0100
1010
0001
,  // measure 58
0010
0000
0100
0000
1000
0000
0100
0000
1000
0000
0001
0000
0010
0000
0100
1000
,  // measure 59
0001
0000
0010
0100
1000
0000
0001
0000
0100
0000
0001
0000
1000
0000
0000
0000
,  // measure 60
1100
0101
0110
1100
,  // measure 61
0110
0000
0000
0000
0101
0000
0000
0000
1001
0000
0000
0000
0110
0000
0000
1000
,  // measure 62
0001
1000
0001
0100
0010
1000
0100
0010
,  // measure 63
0001
1000
0100
0001
0000
1001
1001
0000
;
