#TITLE:Attack;
#SUBTITLE:;
#ARTIST:30 Seconds to Mars;
#TITLETRANSLIT:;
#SUBTITLETRANSLIT:;
#ARTISTTRANSLIT:;
#GENRE:[Adjective] Rock;
#CREDIT:Thumbsy;
#MENUCOLOR:;
#METERTYPE:DDR;
#BANNER:Attack.png;
#BACKGROUND:Attack-bg.png;
#LYRICSPATH:;
#CDTITLE:CDTitle v1.5.png;
#MUSIC:Attack.mp3;
#OFFSET:1.033;
#SAMPLESTART:30.690;
#SAMPLELENGTH:21.762;
#SELECTABLE:YES;
#LISTSORT:;
#BPMS:0.000=175.000,92.000=43.750,94.000=175.000;
#STOPS:;
#BGCHANGES:3.012=Attack.avi=1.000=1=0=0,
282.000=Attack-bg.png=1.000=0=0=1,
99999=-nosongbg-=1.000=0=0=0 // don't automatically add -songbackground-
;
#ATTACKS:;

//---------------dance-single - ----------------
#NOTES:
     dance-single:
     :
     Beginner:
     1:
     0.140,0.250,0.041,0.010,0.000:
0000
0000
0000
0000
,
0000
0000
0000
0000
,
0000
0000
0000
0000
,
0000
0000
0000
0000
,
0000
0000
0000
0000
,
0000
0000
0000
0000
,
0000
0000
0000
0000
,
0000
0000
0000
0000
,
0000
0000
0000
0000
,
1000
0000
0000
0000
,
1000
0000
0000
0000
,
0001
0000
0000
0000
,
0001
0000
0000
0000
,
0010
0000
0000
0000
,
0010
0000
0000
0000
,
1000
0000
1000
0000
,
0001
0000
0001
0000
,
0100
0000
0000
0000
,
0010
0000
0000
0000
,
1000
0000
0000
0000
,
0100
0000
0000
0000
,
0001
0000
0000
0000
,
0100
0000
0000
0000
,
1000
0000
1001
0000
,
0001
0000
0000
0000
,
0001
0000
1000
0000
,
0000
0000
0100
0000
,
0100
0000
0010
0000
,
0000
0000
0001
0000
,
0000
0000
1000
0000
,
0000
0000
0010
0000
,
0010
0000
0100
0000
,
0000
0000
0100
0000
,
0001
0000
1000
0000
,
0000
0000
0001
0000
,
0001
0000
1000
0000
,
1000
0000
0001
0000
,
0001
0000
0010
0000
,
0000
0000
0001
0000
,
0000
0000
1000
0000
,
1001
0000
1000
0000
,
0000
0000
0001
0000
,
1001
0000
0001
0000
,
0000
0000
0010
0000
,
0110
0000
0010
0000
,
0000
0000
0100
0000
,
1000
0000
0001
0000
,
0001
0000
0100
0000
,
0000
0000
0010
0000
,
0010
0000
1000
0000
,
0000
0000
0001
0000
,
0001
0000
1000
0000
,
1000
0000
0001
0000
,
0001
0000
0010
0010
,
0010
0010
0010
0010
,
0010
0010
0010
0000
,
0000
0000
0001
0000
,
0000
0000
1000
0000
,
0000
0001
0000
0000
,
1000
0000
1000
0000
,
0000
0010
0000
0000
,
0010
0000
0100
0000
,
0000
0100
0000
0000
,
0001
0000
0001
0000
,
0000
0000
1000
0000
,
1000
0000
0100
0000
,
0000
0000
0100
0000
,
0100
0000
0010
0000
,
0000
0000
0001
0000
,
1000
0000
0002
0000
,
0000
0000
0003
0000
;

//---------------dance-single - ----------------
#NOTES:
     dance-single:
     :
     Easy:
     3:
     0.265,0.321,0.132,0.061,0.000:
0000
0000
0000
0000
,
0000
0000
0000
0000
,
0000
0000
0000
0000
,
0000
0000
0000
0000
,
0000
0000
0000
0000
,
0000
0000
0000
0000
,
0000
0000
0000
0000
,
0000
0000
0000
0000
,
0000
0000
0000
0000
,
1000
0100
0100
1000
,
0100
0100
1000
0000
,
0001
0100
0100
0001
,
0100
0100
0010
0000
,
0010
1000
1000
0100
,
1000
1000
0001
0000
,
0002
0000
0023
0000
,
0230
0000
2300
0000
,
3001
0000
0100
0000
,
0010
0000
1000
0000
,
0100
0000
0010
0000
,
0010
0000
0001
1000
,
0001
0000
0100
0000
,
0010
0000
1000
0000
,
0100
0001
1001
0000
,
1000
0000
0100
0010
,
0100
0001
1001
0000
,
1000
0000
0001
0000
,
0100
0000
0001
0000
,
1001
0000
1000
0000
,
1000
0000
0100
0000
,
0000
0010
0001
1000
,
1001
1000
0001
0000
,
0001
0000
0100
0000
,
0100
0010
1000
0000
,
1000
0000
0001
0000
,
0001
1000
0001
0000
,
0001
1000
0001
0000
,
0001
1000
0000
0100
,
0000
0010
0000
0100
,
0000
1000
1001
0001
,
0100
0000
0010
1000
,
0001
1000
0000
0001
,
1001
0000
1000
0100
,
0010
0200
0000
0300
,
1001
0000
0001
0000
,
1000
0100
0000
0100
,
1000
0000
0001
0100
,
0001
0010
0001
0000
,
1001
0000
1000
0000
,
1000
0100
0010
0000
,
0010
0000
0001
0000
,
0001
1001
1000
0000
,
1000
1001
0001
0000
,
0001
0000
1000
0100
,
0010
0001
1000
1000
,
0001
0001
1001
0000
,
1000
0000
0100
0000
,
0010
0001
0010
0000
,
0100
0000
1000
0000
,
0001
0100
0001
0000
,
1000
0000
0010
0000
,
1000
0100
1000
0000
,
0001
0000
0010
0000
,
0001
0000
1000
1000
,
0001
0000
0001
0001
,
1000
0000
0001
0100
,
0100
0000
0010
0010
,
1000
0000
0100
0010
,
1001
0000
0010
0100
,
1001
0000
0002
0000
,
0000
0000
0003
0000
;

//---------------dance-single - ----------------
#NOTES:
     dance-single:
     :
     Medium:
     5:
     0.478,0.607,0.831,0.182,0.000:
0000
0000
0000
0000
,
0000
0000
0000
0000
,
0000
0000
0000
0000
,
0000
0000
0000
0000
,
0000
0000
0000
0000
,
0000
0000
0000
0000
,
0000
0000
0000
0000
,
0000
0000
0000
0000
,
0000
0000
0000
0000
,
1000
1100
1100
0001
,
0101
0101
0001
0011
,
1000
0011
0011
1000
,
1010
1010
0001
0101
,
1000
0110
0110
1000
,
0011
0011
1000
0110
,
2000
3100
0002
0103
,
2000
3010
0002
0013
,
2010
0001
0100
3001
,
0012
1000
0100
1003
,
0011
0001
1000
0100
,
1100
1000
0001
0200
,
0320
1030
1001
0001
,
0010
0001
1000
1000
,
0001
1000
0001
0100
,
0101
0000
0000
0000
0001
1000
0000
1000
,
0000
1000
0010
0000
1001
0000
0000
1000
,
0100
0000
0000
0000
1000
0001
0000
0010
,
0000
0100
0000
0000
1100
0000
0000
0001
,
0100
0000
0000
0000
0100
0001
0000
0010
,
0000
0100
0000
1000
0001
0000
0000
0000
,
1001
1000
0002
0023
,
0230
0000
2300
0000
3001
0000
0000
0001
,
0100
0000
0000
0000
0100
0001
0000
0010
,
0000
0100
0000
0100
1000
0000
0000
0000
,
1001
0000
0000
0000
0011
0000
0000
1100
,
0000
0000
0101
0000
1010
0000
0000
0101
,
0000
0000
0011
0000
1100
0000
0000
0011
,
0000
0002
0000
0023
,
0000
0230
0000
2300
,
0000
3002
1003
0001
,
1001
0000
0110
0000
0010
0100
0000
0010
,
0000
0100
0000
0010
0001
0000
1000
0000
,
0101
0000
1000
0100
,
0010
0100
1001
0001
,
0100
0000
0000
0000
0100
0010
0000
1000
,
0000
0001
0000
0100
0010
0000
1000
0000
,
1001
0011
0010
0100
,
1000
0100
0010
0001
,
1001
0000
0000
0000
1000
0010
0000
0100
,
0000
0001
0000
0010
0001
0000
0000
0000
,
1001
0000
1000
0000
0011
0000
0000
1100
,
0000
0000
1010
0000
0101
0000
0000
1100
,
0000
0000
1010
0000
0011
0000
0000
0101
,
0000
1000
1100
0101
,
0011
1010
1100
0101
,
0011
1100
0001
1100
,
1100
0001
0101
0101
,
0001
0011
1000
1001
,
1001
0010
0110
0110
,
1000
1001
0001
0101
,
1100
1000
1100
0101
,
0001
1001
1000
1010
,
0011
0001
0011
1010
,
1000
0001
1000
0100
,
0101
0100
1000
1100
,
0001
0101
0100
0010
,
1001
0010
0100
1001
,
0100
1001
1000
0001
,
0001
0000
0100
0001
0100
0000
0001
0000
,
1000
0100
1000
0000
0002
0000
0000
0000
,
0000
0000
0003
0000
;

//---------------dance-single - ----------------
#NOTES:
     dance-single:
     :
     Hard:
     7:
     0.580,0.643,0.628,0.172,0.000: // measure 1
0000
0000
0000
0000
,  // measure 2
0000
0000
0000
0000
,  // measure 3
0000
0000
0000
0000
,  // measure 4
0000
0000
0000
0000
,  // measure 5
0000
0000
0000
0000
,  // measure 6
0000
0000
0000
0000
,  // measure 7
0000
0000
0000
0000
,  // measure 8
0000
0000
0000
0000
,  // measure 9
0000
0000
0000
0000
,  // measure 10
0001
0100
0010
0000
0010
0000
1000
0100
,  // measure 11
0010
0000
0010
0000
0001
1000
1001
0000
,  // measure 12
0001
0010
0100
0000
0100
0000
1000
0010
,  // measure 13
0100
0000
0100
0000
0001
1000
1001
0000
,  // measure 14
1000
0100
1100
0000
1100
0000
0001
0100
,  // measure 15
0101
0000
0101
0000
1000
0010
1010
0000
,  // measure 16
0012
1003
2100
3001
,  // measure 17
0201
0310
0120
1030
,  // measure 18
0001
0100
0001
0000
1100
0000
1000
0100
,  // measure 19
1000
0000
1100
0000
0100
0010
0001
0000
,  // measure 20
0001
0100
0010
0000
0110
0000
0100
0010
,  // measure 21
0100
0000
0110
0000
0010
1000
0001
0000
,  // measure 22
1000
0100
0001
0000
1001
0000
0001
0100
,  // measure 23
1000
0000
1001
0000
1000
0100
0010
0001
,  // measure 24
1000
1000
0001
0000
1001
0000
0001
0010
,  // measure 25
1100
0000
0000
0000
1000
0001
0000
0101
,  // measure 26
0000
1100
0000
1000
0100
0001
0000
0100
,  // measure 27
1001
0000
0000
0000
0002
0000
0000
0023
,  // measure 28
0000
0000
0230
0000
1000
0000
0300
0001
,  // measure 29
0101
0000
0000
0000
0001
1000
0000
1001
,  // measure 30
0000
0110
0000
0010
1000
0000
0000
0100
,  // measure 31
1001
0000
2000
0000
3001
0010
0001
0010
,  // measure 32
0100
0010
0100
1000
0001
0000
0000
1000
,  // measure 33
0001
0000
0000
0000
0100
0100
0000
0101
,  // measure 34
0000
1100
0000
1000
0100
0100
0000
0100
,  // measure 35
1001
0000
0000
0000
0011
0000
0001
1001
,  // measure 36
0000
0000
1100
0000
1001
0000
0000
0101
,  // measure 37
0000
0010
0110
0000
1001
0001
0000
1000
,  // measure 38
0000
1100
0002
0023
,  // measure 39
0130
0000
1000
0000
0101
0001
0000
1000
,  // measure 40
0001
0100
0010
1000
1001
0000
0001
0010
,  // measure 41
1100
0000
1100
0000
1000
0100
0000
0011
,  // measure 42
0000
0001
0101
0100
0010
0000
1000
0100
,  // measure 43
0011
0000
0011
0000
1000
0010
0100
0001
,  // measure 44
0000
1000
0100
0000
1100
0000
1000
0100
,  // measure 45
0110
0000
0110
0000
0010
0001
0100
0010
,  // measure 46
0000
0010
0100
0000
1001
0000
0001
1000
,  // measure 47
0001
0000
0001
0000
0010
0100
1000
0100
,  // measure 48
0010
0001
1000
0001
0001
0000
1000
0010
,  // measure 49
1010
0000
0101
0000
0001
0100
0001
1000
,  // measure 50
0000
1000
0100
0000
1100
0000
1000
0100
,  // measure 51
0011
0000
1100
0000
0001
0100
0010
0100
,  // measure 52
0001
1000
0100
0000
1000
0100
0100
1000
,  // measure 53
0100
0100
0010
0001
0100
0010
0010
0100
,  // measure 54
0010
0010
0100
0001
1000
0100
0001
0100
,  // measure 55
1000
0001
0100
1000
0100
0001
1000
0100
,  // measure 56
0001
0100
1000
0001
1001
0000
1000
0000
,  // measure 57
1000
0100
0010
0000
0001
0000
0100
0010
,  // measure 58
0000
0100
0000
1000
0000
0000
0100
0000
,  // measure 59
0001
0010
0200
0000
1000
0300
0002
1003
,  // measure 60
0000
0001
1000
0000
1000
0100
0010
0000
,  // measure 61
0010
0000
0010
0100
1000
0000
0001
0100
,  // measure 62
0000
0010
0000
0100
0001
1000
0001
0000
,  // measure 63
1001
0000
0002
0000
2003
0000
3000
0020
,  // measure 64
0000
0030
0200
0000
0301
1000
0001
0000
,  // measure 65
1001
0000
0001
0010
0001
0000
0011
0000
,  // measure 66
0010
0001
0010
0000
0100
1000
0100
0000
,  // measure 67
1100
0000
1000
0100
1000
0000
1100
0000
,  // measure 68
1000
0001
1000
0000
0001
1000
0001
0000
,  // measure 69
1001
0000
0001
0100
0001
0000
0101
0000
,  // measure 70
0001
0010
0001
0000
2000
0000
0000
0000
,  // measure 71
0000
0000
3000
0000
;
