#TITLE:Zelda Termina Field;
#SUBTITLE:;
#ARTIST:近藤浩治;
#TITLETRANSLIT:;
#SUBTITLETRANSLIT:;
#ARTISTTRANSLIT:koji kondo;
#GENRE:;
#CREDIT:JDDD;
#MUSIC:134_-_termina_field.ogg;
#BANNER:zelda_majoras_mask_n64.png;
#BACKGROUND:Majora.png;
#CDTITLE:IS.png;
#SAMPLESTART:41.334;
#SAMPLELENGTH:12.000;
#SELECTABLE:YES;
#OFFSET:0.000;
#BPMS:0.000=110.020
,28.000=145.000
,87.000=72.500
,105.500=145.000
,141.000=96.667
,150.333=48.333
,155.000=144.999
,162.500=96.666
;
#STOPS:27.500=1.800
,109.500=0.200
;
#BGCHANGES:;
#FGCHANGES:;

//--------------- dance-single - JDDD ----------------
#NOTES:
     dance-single:
     JDDD:
     Beginner:
     2:
     0.11,0.155,0,0.011,0:
0000
0000
0000
0000
,
0000
0000
0000
0000
,
0000
0000
0000
0000
,
0000
0000
0000
0000
,
0000
0000
0000
0000
,
0000
0000
0000
0000
,
0000
0000
0000
0000
,
1000
1000
1000
0000
,
0010
0010
0010
0000
,
0100
0100
0100
0000
,
0001
0001
0001
0000
,
1000
0000
0010
0000
,
0100
0000
0001
0000
,
0010
0000
0100
0000
,
1000
0000
0001
0000
,
1000
0000
0010
0000
,
0100
0000
0001
0000
,
0100
0000
1000
0000
,
0100
0000
0010
0000
,
1000
0000
0100
0000
,
0010
0000
0100
0000
,
1000
0000
0001
0000
,
0001
0000
0100
0100
,
0000
0100
0000
0100
,
0000
1000
0000
1000
,
0000
1000
0000
0001
,
0000
1000
0000
0000
,
0000
0000
0000
1000
,
1000
1000
0000
0010
,
0000
0100
0000
0001
,
0001
0001
0000
0100
,
0000
0010
0000
1000
,
1000
1000
0000
0001
,
0000
0010
0000
0100
,
0000
0100
0100
0100
,
0100
0200
0000
0000
,
0000
0000
0000
0000
,
0000
0000
0000
0000
,
0000
0000
0000
0300
,
0000
0010
0010
0010
,
0000
0100
0100
0M00
;

//--------------- dance-single - JDDD ----------------
#NOTES:
     dance-single:
     JDDD:
     Easy:
     4:
     0.205,0.331,0.011,0.022,0.103:
0000
2002
0000
0000
,
0000
0000
0000
0000
,
0000
0000
0000
0000
,
0000
0000
0000
0000
,
0000
0000
0000
0000
,
0000
0000
0000
0000
,
0000
0000
0000
3003
,
1000
0100
0000
0100
1000
0000
0010
0000
,
0100
0100
0001
0100
,
0010
1000
0000
1000
0010
0000
0100
0000
,
0001
0010
0100
1000
,
0001
0100
0000
0100
,
0010
0000
1000
0001
,
0100
0000
0001
0010
,
0100
1000
0000
1000
,
0001
0010
0000
0100
,
1000
0001
0000
0100
,
0010
1000
0000
0001
,
0010
0001
0100
0010
,
1000
0001
0000
0100
,
1000
0010
0100
0001
,
0010
0000
0000
0100
,
0100
0100
0100
0100
,
1000
0010
0100
0010
,
0100
0001
0100
0001
,
0100
0010
1000
0100
,
0010
0000
0100
1000
0000
0000
0000
0100
,
0000
0000
0000
0000
,
0000
1000
0000
0001
,
0000
0100
0010
1000
,
0000
1000
0001
0000
,
0001
0100
0010
0000
,
0010
1000
0001
0000
,
0100
0001
0010
0010
,
0000
0100
1000
0000
,
0100
0000
0000
1000
0000
0001
0000
1000
0000
0001
0000
1000
,
0000
0001
0000
1000
0000
0001
0000
1000
0000
0001
0000
1000
,
0000
0001
0000
1000
0000
0001
0000
1000
0001
1000
0001
1000
,
0001
1000
0001
1000
0001
1000
0001
1000
0001
1000
0000
0000
,
0100
1000
0100
0100
,
0010
0001
0100
0000
;

//--------------- dance-single - JDDD ----------------
#NOTES:
     dance-single:
     JDDD:
     Medium:
     7:
     0.339,0.51,0.054,0.316,0.087:
0000
0001
0001
0000
,
1000
1000
1000
1000
1000
0000
0000
0000
,
0000
0000
0000
0000
0000
0000
0000
0000
0000
0000
0000
0002
0000
0000
0000
0000
0000
0000
0000
0003
0000
0000
0000
0000
,
0000
0000
0000
2000
0000
0000
0000
0000
0000
0000
0000
0000
0000
0000
3000
0000
0000
0000
0000
0002
0000
0000
0000
0000
,
0000
0000
0000
0000
,
0000
0000
0000
0000
,
0000
0000
0000
0003
,
1000
0001
0100
0001
0100
0000
0010
0000
,
1000
0000
0100
0000
1000
0100
1000
0000
,
0010
0100
0001
1000
0100
0000
1000
0000
,
0010
0000
0100
0000
0001
0100
0001
0000
,
1000
0000
1000
0000
0010
0000
0100
0001
,
0100
0000
0010
1000
0010
0000
1000
0100
,
0010
0000
0010
0001
0100
0000
1000
0001
,
0100
0010
1000
0001
,
0010
0100
0010
0000
0001
0000
0100
0000
,
0010
1000
0001
0000
0100
0000
0001
0000
,
0100
0010
1010
0000
0001
0000
1000
0000
,
0100
0000
0010
0000
0110
0000
0011
0001
,
0101
0000
0001
0000
0100
0000
0010
1000
,
0001
0000
1000
0001
0100
0000
1000
0001
,
0010
0000
0100
0000
0001
0000
0100
0010
,
1000
0000
1000
0200
0000
0000
0302
2003
,
3200
0000
2300
3200
0000
0000
0320
0230
,
2300
0000
3002
0203
0000
0000
0320
2030
,
3002
0000
0203
0302
0203
0000
0320
2030
,
3002
2003
3200
2300
3000
0001
0000
1000
,
0000
0010
0000
0000
1000
0000
0100
0000
,
1000
1000
0000
0010
,
0100
0001
0001
0000
0010
0000
1000
0000
,
0100
0010
1000
0000
1000
0000
0001
0001
,
1000
0000
0010
0000
0000
0000
0100
0100
,
0001
0000
1000
0000
0000
0000
1000
0010
,
0001
0010
0100
0010
,
0001
0000
1000
0100
1000
0000
0001
0100
,
0100
0000
0000
0010
1000
1000
0000
1000
0001
0100
0000
0100
,
0010
1000
0000
0100
0000
1000
0000
0100
1000
0100
0000
0100
,
1000
0100
0000
0100
1000
0100
0000
0200
0000
0000
0000
0000
,
0000
0000
0000
0000
0000
0000
0000
0000
0000
0000
0000
0000
0000
0000
0000
0000
0000
0300
1000
0000
0000
0000
0000
0000
,
0010
0000
1000
0100
1000
0000
0010
0000
,
0100
0000
0001
0100
0010
2002
3003
0000
;

//--------------- dance-single - JDDD ----------------
#NOTES:
     dance-single:
     JDDD:
     Hard:
     10:
     0.622,0.665,0.403,0.098,0.506:
0000
0000
0000
1000
0100
0010
0001
0000
0000
1000
0100
0010
0001
0000
0000
0000
0000
0000
0000
0000
0000
1000
0100
0010
,
0001
0100
0001
0100
0001
0100
0001
0100
0000
0000
0000
0000
0000
0000
0000
0000
,
0000
0000
0000
0000
0000
0000
0000
0000
0000
0000
0000
0000
0000
0000
0000
0000
0010
0000
1000
0000
0100
0000
0010
0000
0001
0000
0000
0100
0000
0000
0010
0000
0000
1000
0000
0000
0001
0000
0000
0010
0000
0000
0100
0000
1000
0000
0100
0000
,
1000
0100
1000
0100
0000
0000
0000
0000
0000
0000
0000
0000
0000
0000
0000
1000
0100
0010
0001
0010
0100
1000
0000
0000
,
0001
0000
0010
0000
0100
0000
1000
0000
0000
0000
0000
0000
0000
0000
0000
0000
0000
0000
0000
0000
0000
0000
0000
0000
1000
0000
0100
0000
0010
0000
0001
0000
0000
0000
0000
0000
1000
0000
0000
0000
0000
0000
0001
0000
0000
0100
0000
0000
,
0010
0000
0000
1000
0000
0000
0100
0000
1000
0000
0100
0000
1000
0000
0100
0000
1000
0000
0100
0000
0000
0000
0000
0000
0220
0000
0000
0000
0000
0000
0000
0000
0000
0000
0000
0000
0000
0000
0000
0000
0000
0000
0000
0000
0000
0000
0000
0000
,
0330
0000
0000
0000
0000
0000
0000
0000
0000
0000
0000
2002
0000
0000
0000
0000
0000
0000
0000
3003
0000
0000
0000
0000
,
1000
0000
0001
1000
0001
0000
1000
0000
0100
0000
1000
0000
0010
0000
0100
0000
,
0001
0000
1000
0010
1000
0000
0001
0000
0010
0000
0100
0000
1000
0000
0001
0000
,
0100
0000
0010
0100
0010
0000
1000
0000
0001
0000
0010
0000
0100
0000
1000
0000
,
0001
0000
1000
0100
1000
0000
0010
0000
0100
0000
0001
0000
0100
0000
0010
0000
,
1000
0000
0000
0000
0101
0000
0000
0000
1000
0000
0100
0000
0010
0001
0100
0010
,
1000
0000
0000
0010
0000
0000
0110
0000
0000
0100
0000
0000
0010
0000
0000
1000
0000
0000
0100
0000
0010
0000
0001
0000
,
1000
0000
0000
0010
0000
0000
0100
0000
0000
0010
0000
0000
1000
0000
0000
0100
0000
0000
0010
0000
0001
0000
0100
0000
,
0010
0000
0000
0000
0010
0000
1000
0000
0000
0100
0000
0000
1000
0000
0000
0010
0000
0000
0100
0000
0000
0001
0000
0000
,
1001
0000
0100
1000
0010
0000
0100
0000
0110
0000
0010
0000
1000
0000
0100
0000
,
0010
0000
0010
0001
0100
0000
0010
0000
0100
0000
0001
0000
1000
0000
0100
0000
,
0010
0000
0001
1000
0001
0000
0010
0000
0100
0000
1000
0000
0010
0000
0100
0000
,
0001
0000
1000
0000
0001
0010
0100
1000
0001
0010
0100
1000
0001
0010
0100
1000
,
0001
0000
0100
0000
0010
0000
0100
0000
0010
0000
1000
0000
0100
0010
0001
1000
,
0010
0000
0000
0100
0000
0000
0001
0000
0000
0010
0000
0000
0100
0000
0000
1000
0000
0000
0100
0000
0010
0000
0001
0000
,
0100
0010
1000
0001
0010
0100
2000
3200
,
0320
0000
0031
0100
0001
0000
0101
0000
0000
0000
1100
0000
1000
0000
0110
0000
,
0010
0000
0001
0000
0100
0000
0110
0000
0010
1000
0001
0000
1100
0000
0001
0000
,
0101
1000
0010
0110
0101
1001
1100
1010
,
0101
0000
0000
0000
1100
0000
0000
0000
0010
0000
0000
0000
0100
0000
0100
0001
0010
0000
0000
0000
1100
0000
0000
0000
0010
0000
0100
0000
0001
0000
0000
0000
,
1100
0000
0001
0100
0010
1000
0001
0000
1000
0000
0100
0000
1000
0000
0010
0000
,
0100
0001
1000
0100
1000
0100
0010
0001
,
0100
0001
0100
0000
0010
0000
1000
0100
,
1000
0001
0100
0000
0100
0000
0110
0010
,
1000
0001
1000
0000
1100
0000
0010
0100
,
0001
0010
0011
0000
0100
0000
0010
0001
,
0100
0010
1001
0000
1100
0000
1000
0100
,
0010
0100
1001
0000
0100
0000
0010
0001
,
0100
0010
1001
0000
1001
0000
1001
0000
,
1001
0000
0000
1010
0000
0101
0000
1000
0000
0100
0000
0010
,
0001
0100
0000
0010
1000
0100
0000
0100
1000
0001
0000
0100
,
0001
0000
1000
0000
0000
0000
0010
0000
1000
0000
0100
0000
0000
0000
0010
0001
0100
0000
0010
1000
0001
0000
0100
0001
,
1000
0000
0000
0000
0010
0000
0000
0000
1100
0000
0000
0000
0001
0000
0000
0000
0101
0000
0000
0000
1000
0000
0000
0000
0010
0000
0000
0000
0100
0000
0000
0000
0001
0000
0000
0000
1000
0000
0000
0000
0000
0000
0100
0000
0000
1000
0000
0000
,
0100
0000
0010
0000
0001
0000
0100
0000
0010
0000
1000
0001
0100
0000
0100
0000
,
0010
0000
0000
0000
1000
0000
0000
0000
0001
0000
0000
0000
0010
0000
0000
0000
0100
0000
0000
0000
2002
3003
1001
0000
0000
0000
0000
0000
0000
0000
0000
0000
;
