#TITLE:World's End Dancehall;
#SUBTITLE:;
#ARTIST:wowaka-P feat. Hatsune Miku & Luka Megurine;
#TITLETRANSLIT:;
#SUBTITLETRANSLIT:;
#ARTISTTRANSLIT:;
#GENRE:;
#CREDIT:;
#BANNER:World's End Dancehall - bn.png;
#BACKGROUND:World's End Dancehall - bg.png;
#LYRICSPATH:;
#CDTITLE:cdtitlegpop.png;
#MUSIC:World's End Dancehall.ogg;
#OFFSET:0.423;
#SAMPLESTART:83.814;
#SAMPLELENGTH:22.455;
#SELECTABLE:YES;
#DISPLAYBPM:171.000;
#BPMS:0.000=85.500,7.521=171.000,294.000=85.500,295.000=171.000;
#STOPS:7.500=0.183
;
#BGCHANGES:1.500=World's End Dancehall.avi=1.000=1=0=1=Format3==CrossFade==,
99999=-nosongbg-=1.000=0=0=0 // don't automatically add -songbackground-
;
#KEYSOUNDS:;

//---------------dance-single - ----------------
#NOTES:
     dance-single:
     :
     Challenge:
     10:
     0.915,0.904,1.000,1.000,0.388:
0000
0000
0000
0000
,
0000
0000
0000
0000
0000
0000
0000
MMMM
,
1001
0000
0000
1100
0000
0000
2002
0000
3000
0000
0103
0000
0010
0000
1000
0000
,
1100
0000
0000
0110
0000
0000
0022
0000
0030
0000
1003
0000
2100
0000
0000
0000
,
3001
0000
0000
1001
0000
0000
2200
0000
3000
0000
0310
0000
0001
0000
1000
0000
,
1010
0000
0000
1001
0000
0000
0202
0000
0003
0000
0310
0000
1020
0000
0000
0000
,
0130
0000
0000
0101
0000
0000
2002
0000
0003
0000
3100
0000
0010
0000
0100
0000
,
1100
0000
0000
0101
0000
0000
2002
0000
0003
0000
3010
0000
0210
0000
0000
0000
,
0301
0000
0000
0011
0000
0000
2020
0000
3000
0000
0130
0000
0001
0000
1000
0000
,
1100
0000
0000
0011
0000
0000
2002
0000
3000
0000
0103
0010
1000
0010
0100
0001
,
2000
0000
0000
3020
0000
0000
2030
0000
0000
0000
3001
0000
0100
0000
0010
0000
,
0200
0000
0000
0302
0000
0000
0203
0000
0000
0000
0310
0000
1000
0000
0001
0000
,
0020
0000
0000
0032
0000
0000
0023
0000
0000
0000
0130
0000
1000
0000
0001
0000
,
0200
0000
0000
0320
0000
0000
0230
0000
0000
0000
0301
0000
1000
0000
0010
0000
,
2100
0000
0000
3200
0000
0000
2300
0000
0000
0000
3001
0000
1000
0000
0001
0000
,
0200
0000
0000
2300
0000
0000
3200
0000
0000
0000
0301
0000
1000
0000
0001
0000
,
0020
0000
0000
2030
0000
0000
3020
0000
0000
0000
0031
0000
0100
0000
0010
0000
,
2000
0000
0000
3002
0000
0000
2003
0000
0000
0000
3001
0000
0202
0000
0303
0000
,
1001
0000
0000
1000
0000
0000
0020
0000
0000
0000
0130
0000
0001
0000
1000
0000
,
0010
0000
0000
1000
0000
0000
0020
0000
0030
0000
0000
0000
0200
0000
0000
0000
,
0301
0000
0000
0001
0000
0000
2000
0000
0000
0000
3100
0000
0010
0000
0100
0000
,
1000
0000
0000
0010
0000
0000
2000
0000
0000
0000
3001
0000
0101
0000
0000
0000
,
1001
0000
0000
1000
0000
0000
0020
0000
0000
0000
0130
0000
0001
0000
1000
0000
,
0100
0000
0000
0010
0000
0000
0200
0000
0300
0000
0000
0000
2000
0000
0000
0000
,
3001
0000
0000
0100
0000
0000
0002
0000
0000
0000
1003
0000
0100
0000
0010
0000
,
0002
0023
2030
3200
,
0301
0000
0000
0101
0000
0000
2001
0000
0000
0000
3010
0000
0100
0000
0001
0000
,
1000
0000
0000
1100
0000
0000
0201
0000
0300
0000
0000
0000
0020
0000
0000
0000
,
1030
0000
0000
0010
0000
0000
2000
0000
0000
0000
3001
0000
0010
0000
0001
0000
,
0100
0M00
0010
00M0
1100
0100
0020
0000
,
0031
0000
0000
0101
0000
0000
2001
0000
0000
0000
3100
0000
0010
0000
0100
0000
,
1000
0000
0000
1010
0000
0000
1200
0000
0000
0000
0310
0000
0002
0000
0000
0000
,
1003
0000
0000
1001
0000
0000
0201
0000
0000
0000
0310
0000
1000
0000
0001
0000
,
2000
3200
0302
0023
,
1030
0000
0000
1010
0000
0000
1001
0000
0000
0000
1000
0000
0002
0000
0000
0000
,
0103
0000
0000
0110
0000
0000
1010
0000
0000
0000
1000
0100
0010
0100
1000
0001
,
0100
0000
0000
0110
0000
0000
1010
0000
0000
0000
1000
0000
0020
0000
0000
0000
,
0130
0000
0000
0101
0000
0000
1100
0000
0000
0000
1000
0001
1000
0001
1000
0001
,
0010
0000
0000
0011
0000
0000
0110
0000
0000
0000
0100
0000
1002
0000
0000
0000
,
0103
0000
0000
0110
0000
0000
1010
0000
0000
0000
0010
1000
0010
0100
0001
0010
,
0100
0000
0000
1100
0000
0000
0101
0000
0000
0000
0010
0000
1200
0000
0000
0000
,
0310
0000
0000
0011
0000
0000
1100
0000
0000
0000
0001
0100
0010
0100
0001
1000
,
0100
0000
0010
0100
0000
0000
2000
0000
0000
0000
3001
0000
0100
0000
0010
0000
,
0200
0000
0000
0301
0000
0000
0200
0000
0000
0000
0310
0000
2000
0000
0000
0000
,
3001
0000
0000
0100
0001
0000
2000
0000
0000
0000
3100
0000
0010
0000
0100
0000
,
0020
0000
0000
0031
0000
0000
2001
0000
0000
0000
3010
0000
0102
0000
0000
0000
,
2003
0000
0000
3100
0000
0000
1002
0000
0000
0000
0103
0000
0010
0000
0100
0000
,
0001
0000
0000
1000
0000
0000
0002
0000
0000
0000
0003
0000
2000
0000
0000
0000
,
3020
0000
0000
0130
0000
0000
0020
0000
0000
0000
1030
0000
0001
0000
0100
0000
,
0002
0103
0101
1101
,
1000
0001
0100
0000
0001
0010
0100
1000
0100
1000
0010
0000
0200
0000
0302
0000
,
1003
0000
1000
0000
0001
0010
0001
0100
0010
1000
0001
0000
0100
0010
0100
0000
,
0001
1000
0100
1000
0001
0000
0100
0010
0100
0001
1000
0000
0001
1000
0001
0100
,
0020
0032
2003
3002
,
0013
0000
0010
1000
0001
0010
0001
1000
0100
0000
0100
0000
0100
0000
0000
0000
,
1000
0001
0100
0010
0100
0001
1000
0100
0010
0000
0010
0000
0010
0000
0000
0000
,
0022
0003
0130
1000
2002
3000
0103
0010
,
1010
0110
0101
1001
2200
0000
0001
3300
,
1100
0000
0001
0100
1010
M0M0
1000
0001
,
0011
0010
0001
1000
0010
00M0
0200
0000
,
1301
M00M
1000
0100
0011
00MM
0001
0010
,
1100
1000
0001
0100
0001
0000
0101
0000
,
1001
M00M
1000
0010
0101
0M0M
0001
1000
,
0110
0001
1000
0100
0010
0000
0200
0000
,
1301
M00M
1000
0001
0110
0MM0
0001
1000
,
1100
0000
0100
0000
1000
0000
0001
0000
0100
0000
0010
1000
0010
0100
0001
1000
,
0100
0M00
0010
0001
1100
MM00
1000
0001
,
1100
1000
0001
0100
0010
00M0
2000
0000
,
3011
00MM
1000
0010
0101
0100
0001
1000
,
0200
0000
1300
0001
0200
0000
0320
0000
,
1031
M00M
0110
0MM0
1001
M00M
0110
0MM0
,
1001
1000
0110
0010
0200
0000
0320
0000
,
1031
0000
1000
0010
1100
0000
0001
0010
,
1100
0000
1001
0000
0101
0000
1001
0000
M2MM
0000
0000
0000
13M1
0000
0000
1100
,
0000
0000
2002
0000
3000
0000
0103
0000
0010
0000
1000
0000
1001
0000
0000
1100
,
0000
0000
2002
0000
0003
0000
3100
0000
0021
0000
0000
0000
0130
0000
0000
1100
,
0000
0000
2002
0000
3000
0000
0103
0000
0010
0000
0100
0000
0101
0000
0000
0011
,
0000
0000
2002
0000
0003
0000
3010
0000
0102
0000
0000
0000
1003
0000
0000
1100
,
0000
0000
0202
0000
0003
0000
0310
0000
1000
0000
0001
0000
0011
0000
0000
0110
,
0000
0000
2200
0000
3000
0000
0310
0000
1002
0000
0000
0000
0103
0000
0000
0110
,
0000
0000
2020
0000
3000
0000
0130
0000
0001
0000
1000
0000
1100
0000
0000
0101
,
0000
2002
3000
0103
0110
1001
0000
0000
;

//---------------dance-single - ----------------
#NOTES:
     dance-single:
     :
     Hard:
     8:
     0.616,0.626,0.375,0.136,0.136:
0000
0000
0000
0000
,
0000
0000
0000
0000
,
1001
0000
0000
1000
0000
0000
0020
0000
0000
0000
0130
0000
0001
0000
0000
0000
,
1000
0000
0000
1000
0000
0000
0002
0000
0000
0000
0103
0000
0010
0000
0000
0000
,
0100
0000
0000
0100
0000
0000
0002
0000
0000
0000
0013
0000
0100
0000
0000
0000
,
1000
0000
0000
1000
0000
0000
0020
0000
0000
0000
0100
0000
0130
0000
0000
0000
,
1001
0000
0000
0001
0000
0000
0200
0000
0000
0000
0310
0000
1000
0000
0000
0000
,
0010
0000
0000
0010
0000
0000
0200
0000
0000
0000
0301
0000
0010
0000
0000
0000
,
0100
0000
0000
0100
0000
0000
2000
0000
0000
0000
3010
0000
0100
0000
0000
0000
,
0001
0000
0000
0001
0000
0000
2000
0000
0000
0000
0100
0000
3100
0000
0000
0000
,
1000
0000
0000
0001
0000
0000
1000
0000
0000
0000
0010
0000
0100
0000
0010
0000
,
0100
0000
0000
0001
0000
0000
0100
0000
0000
0000
0010
0000
1000
0000
0001
0000
,
0100
0000
0000
0001
0000
0000
0100
0000
0000
0000
0010
0000
1000
0000
0001
0000
,
0010
0000
0000
0100
0000
0000
0010
0000
0000
0000
0001
0000
1000
0000
0000
0000
,
0001
0000
0000
0100
0000
0000
0001
0000
0000
0000
1000
0000
0100
0000
1000
0000
,
0010
0000
0000
0100
0000
0000
0010
0000
0000
0000
1000
0000
0100
0000
0010
0000
,
0001
0000
0000
0010
0000
0000
0001
0000
0000
0000
0010
0000
0100
0000
1000
0000
,
0010
0000
0000
1000
0000
0000
0010
0000
0000
0000
0100
0000
1001
0000
0000
0000
,
1000
0000
0010
0000
0100
0001
1000
0100
,
1000
0001
0010
0110
,
1001
0000
1000
0000
0010
0100
0010
1000
,
0001
0100
0002
0103
,
1100
0000
0100
0000
1000
0010
0100
0010
,
1000
0001
0010
0011
,
1100
0000
0001
0000
0100
0010
1000
0001
,
0200
0010
1000
0301
,
1001
0000
0100
0000
0010
1000
0001
0100
,
0001
1000
0100
0110
,
1001
0000
0001
0000
0100
0010
1000
0001
,
0100
0000
0100
0000
0010
1000
0010
0000
,
1001
0000
1000
0000
0001
0010
0001
1000
,
0100
0010
0001
1010
,
0101
0000
0001
0000
1000
0100
1000
0001
,
0020
1000
0001
0130
,
1001
0000
0000
1000
0000
0000
1000
0000
0000
0000
0001
0000
0100
0000
0000
0000
,
0010
0000
0000
0010
0000
0000
0010
0000
0000
0000
1000
0000
0001
0000
0100
0000
,
0001
0000
0000
0001
0000
0000
0001
0000
0000
0000
1000
0000
0010
0000
0000
0000
,
0100
0000
0000
0100
0000
0000
0100
0000
0000
0000
0001
0000
1000
0000
0001
0000
,
0010
0000
0000
0010
0000
0000
0010
0000
0000
0000
0100
0000
1000
0000
0000
0000
,
0100
0000
0000
0100
0000
0000
0100
0000
0000
0000
1000
0000
0010
0000
0100
0000
,
0001
0000
0000
0001
0000
0000
0001
0000
0000
0000
0100
0000
0010
0000
0000
0000
,
1000
0000
0000
1000
0000
0000
1000
0000
0000
0000
0001
0000
0100
0000
0001
0000
,
1001
0000
0100
0000
0010
1000
0010
0100
,
0001
0000
0010
0000
0100
1000
0001
0000
,
0100
0000
0100
0000
0010
1000
0001
0100
,
0001
0000
1000
0010
0100
0000
0011
0000
,
1001
0000
1000
0000
0010
0100
0010
1000
,
0001
0000
0100
0001
1000
0000
0010
0000
,
0100
0000
0001
0000
1000
0100
0010
0001
,
1000
0101
0010
1001
,
1000
0001
0100
0001
1000
0010
0100
0100
,
0001
0001
1000
0100
1000
0010
0100
0001
,
0010
0100
0010
0100
1000
0001
0100
0001
,
2000
0010
0100
3001
,
1000
1000
0010
0100
0001
0001
0001
0000
,
0100
0010
1000
0001
1000
1000
1000
0000
,
0102
0000
1003
0100
0020
0000
0130
1000
,
2001
0001
0001
0001
3001
0000
0110
0000
,
1001
0000
1000
0010
0100
0000
0100
0001
,
0010
0100
0010
0100
1000
0000
0101
0000
,
1100
0000
1000
0001
0100
0000
0100
0010
,
1000
0001
1000
0001
0100
0000
0110
0000
,
1001
0000
0001
0010
0100
0000
0100
1000
,
0001
0100
0001
1000
0100
0000
0110
0000
,
1001
0000
1000
0001
0010
0000
0010
0100
,
1000
0100
1000
0001
0100
0000
0110
0000
,
1001
0000
1000
0100
0001
0000
1000
0100
,
0001
1000
0010
0100
0001
0000
0011
0000
,
1100
0000
0001
0010
1000
0010
0001
0100
,
0010
0000
1000
0100
1000
0000
1010
0000
,
0110
1001
0110
1001
,
1000
0001
0100
0001
1000
0000
1100
0000
,
0101
0000
0001
0010
1000
0000
0001
0010
,
1000
0000
0001
0000
0100
0000
0001
0000
2000
0000
0000
0000
3001
0000
0000
0001
,
0000
0000
0001
0000
0000
0000
0100
0000
0010
0000
1000
0000
0010
0000
0000
0010
,
0000
0000
0010
0000
0000
0000
0100
0000
0001
0000
0000
0000
1000
0000
0000
1000
,
0000
0000
1000
0000
0000
0000
0100
0000
0010
0000
0100
0000
0010
0000
0000
0010
,
0000
0000
0010
0000
0000
0000
0001
0000
1000
0000
0000
0000
0101
0000
0000
0100
,
0000
0000
0100
0000
0000
0000
0010
0000
1000
0000
0001
0000
1000
0000
0000
1000
,
0000
0000
1000
0000
0000
0000
0001
0000
0010
0000
0000
0000
0001
0000
0000
0001
,
0000
0000
0001
0000
0000
0000
0100
0000
0001
0000
1000
0000
0010
0000
0000
0010
,
0000
0010
0000
0100
1001
1001
0000
0000
;

//---------------dance-single - ----------------
#NOTES:
     dance-single:
     :
     Medium:
     6:
     0.481,0.487,0.230,0.111,0.000:
0000
0000
0000
0000
,
0000
0000
0000
0000
,
1000
0000
0001
0000
0100
0010
1000
0000
,
0001
0000
0010
0000
0001
1000
0010
0000
,
0100
0000
0001
0000
0010
0100
1000
0000
,
0100
0000
0010
0000
0001
1000
0010
0000
,
0100
0000
0001
0000
1000
0001
0100
0000
,
0010
0000
1000
0000
0100
0010
0001
0000
,
0010
0000
0100
0000
1000
0001
0010
0000
,
0001
0000
0100
0000
0010
1000
0001
0000
,
2000
0000
0010
0000
3001
0100
0010
0000
,
0200
0000
0001
0000
0310
1000
0001
0000
,
0020
0000
0100
0000
0031
1000
0010
0000
,
0200
0000
0001
0000
0310
1000
0001
0000
,
0012
0000
0100
0000
1003
0010
0100
0000
,
0020
0000
1000
0000
0130
0001
1000
0000
,
0200
0000
0010
0000
1300
0001
0010
0000
,
0002
0000
0100
0000
1003
0100
0100
0000
,
1001
0100
0010
0000
,
0010
1000
0001
0000
,
0010
0100
1000
0000
,
0001
0100
0001
0000
,
1000
0100
0010
0000
,
0100
1000
0001
0000
,
0100
0010
1000
0000
,
0001
0001
1000
1000
,
0101
0100
0010
1000
,
0001
0000
0000
0001
0000
0000
1000
0000
,
0100
1000
0001
0100
,
0010
0010
1000
1000
,
0001
0100
0001
1000
,
0010
0000
0000
0010
0000
0000
0100
0000
,
0001
0001
1000
0100
,
0010
0010
0001
0001
,
1000
0000
0000
1000
0000
0001
0100
0000
,
0010
0000
0000
0010
0000
1000
0001
0000
,
0100
0000
0000
0100
0000
0010
1000
0000
,
0001
0000
0000
0001
0000
0010
0100
0000
,
1000
0000
0000
0001
0000
0100
0010
0000
,
1000
0000
0000
0001
0000
1000
0010
0000
,
0100
0000
0000
0001
0000
1000
0010
0000
,
0100
0000
0000
0001
0000
0010
0100
0000
,
1001
1000
0010
0100
,
0010
0000
0000
0010
0000
0000
1000
0000
,
0001
0001
0010
0100
,
0010
0000
0000
0010
0000
0000
0001
0000
,
1000
1000
0010
0100
,
0001
0000
0000
0001
0000
0000
0100
0000
,
0010
0010
1000
0001
,
0110
0110
1001
1001
,
1000
0001
0100
0000
0010
1000
0001
0000
,
0010
0100
0010
0000
0001
1000
0001
0000
,
0100
0010
1000
0000
0001
0010
0100
0000
,
2000
3002
0203
0320
,
1030
0001
0100
0000
0010
0010
0100
0000
,
0001
0010
0100
0000
1000
1000
0001
0000
,
1100
0001
0101
0010
,
1000
0001
1000
0001
1000
0000
0000
0000
,
1001
0010
1100
0001
,
0100
0010
0100
0010
0100
0000
0001
0000
,
1100
0000
0000
0001
1000
0000
0000
1000
,
0001
0000
0100
0010
1000
0000
0101
0000
,
1001
0100
0011
1000
,
0001
0100
0010
0100
0001
0000
1100
0000
,
0101
0000
0000
1000
0100
0000
0000
0001
,
0100
0000
1000
0001
0100
0000
0110
0000
,
1001
0010
1100
0001
,
1000
0010
0100
0010
1000
0000
0001
0000
,
0110
0000
0000
0100
0010
0000
1000
0001
,
0100
0000
0010
1000
0001
0000
0100
0000
,
0110
1001
0110
1001
,
0001
1000
0001
0000
0100
0000
0010
0000
,
1001
0000
0000
1000
0001
0000
0000
0001
,
1000
0000
0010
0100
0020
0000
1030
0000
,
0001
0000
0100
0010
1000
0000
0001
0000
,
0010
0000
0100
0010
0001
0000
1000
0000
,
0001
0000
0100
0010
1000
0000
0001
0000
,
0010
0000
0100
1000
0001
0000
0100
0000
,
0010
0000
1000
0001
0010
0000
0100
0000
,
1000
0000
0001
0100
0010
0000
1000
0000
,
0001
0000
0010
0100
1000
0000
0001
0000
,
0100
0000
0010
1000
0001
0001
0000
0000
;

//---------------dance-single - ----------------
#NOTES:
     dance-single:
     :
     Easy:
     3:
     0.325,0.347,0.230,0.077,0.000:
0000
0000
0000
0000
,
0000
0000
0000
0000
,
1001
0000
0010
1000
,
0001
0000
0010
0100
,
1000
0000
0001
0100
,
0001
0000
1000
0010
,
0100
0000
0001
0010
,
0100
0000
1000
0100
,
0010
0000
0001
1000
,
0010
0000
0100
0001
,
2000
0000
3000
0001
,
0020
0000
0030
0100
,
2000
0000
3000
0010
,
0200
0000
0300
0010
,
0002
0000
0003
0010
,
0200
0000
0300
1000
,
0020
0000
0030
0100
,
0002
0000
0003
1000
,
1001
0000
1000
0000
,
0010
0100
0001
0000
,
0010
0000
0100
0000
,
1000
0001
0100
0000
,
0010
0000
1000
0000
,
0001
0010
0100
0000
,
1000
0000
0001
0000
,
0100
0100
0010
0010
,
1000
0000
0001
0000
,
0010
0100
1000
0000
,
0001
0000
0100
0000
,
0010
0010
1000
1000
,
0001
0000
0010
0000
,
0100
1000
0001
0000
,
0100
0000
0010
0000
,
1000
1000
0001
0001
,
1100
0100
1000
0000
,
0001
0100
0001
0000
,
0100
0010
1000
0000
,
0001
0010
0100
0000
,
1000
0100
0010
0000
,
0001
1000
0010
0000
,
0100
0001
1000
0000
,
0001
0010
0100
1000
,
1001
0000
0001
0000
,
0100
0010
1000
0010
,
0100
0000
0001
0000
,
0010
0010
0100
1000
,
0001
0000
0100
0000
,
0010
1000
0010
0100
,
0001
0000
0010
0000
,
0100
0100
0010
0010
,
1001
1000
0001
0100
,
0001
0100
0010
0100
,
0010
1000
0010
1000
,
0001
0001
0001
0001
,
0100
0010
1000
1000
,
0001
0010
0100
0100
,
0110
0000
1001
0000
,
0110
0110
1001
0000
,
1001
0000
0110
0000
,
1000
0001
0100
0001
,
1100
0000
0101
0000
,
1000
0001
0010
0010
,
0110
0000
1100
0000
,
0001
0100
0010
0010
,
0110
0000
1001
0000
,
1000
0001
0100
0100
,
0011
0000
1001
0000
,
1000
0010
0100
0100
,
0011
0000
1001
0000
,
1000
0001
0010
0010
,
1100
0000
0101
0000
,
1000
0001
0100
0100
,
0011
0000
1100
0000
,
0001
0100
0020
0030
,
0000
1000
0001
0010
,
0000
0100
1000
0001
,
0000
0100
0010
1000
,
0000
0001
0010
0100
,
0000
1000
0001
0100
,
0000
0010
1000
0001
,
0000
0100
0010
1000
,
0000
0001
1001
0000
;

//---------------dance-single - ----------------
#NOTES:
     dance-single:
     :
     Beginner:
     1:
     0.166,0.174,0.026,0.068,0.000:
0000
0000
0000
0000
,
0000
0000
0000
0000
,
1000
0000
0000
0000
,
0001
0000
0000
0000
,
0100
0000
0000
0000
,
0010
0000
0000
0000
,
1000
0000
0000
0000
,
0001
0000
0000
0000
,
0100
0000
0000
0000
,
0010
0000
0000
0000
,
2000
0000
3000
0000
,
0002
0000
0003
0000
,
0200
0000
0300
0000
,
0020
0000
0030
0000
,
0200
0000
0300
0000
,
0002
0000
0003
0000
,
2000
0000
3000
0000
,
0002
0000
0003
0000
,
1001
0000
0000
0000
,
0100
0000
0100
0000
,
0010
0000
0000
0000
,
1000
0000
1000
0000
,
0001
0000
0000
0000
,
0010
0000
0010
0000
,
0100
0000
0000
0000
,
1000
0000
1000
0000
,
0001
0000
0000
0000
,
0100
0000
0100
0000
,
0010
0000
0000
0000
,
1000
0000
0001
0000
,
0100
0000
0000
0000
,
0010
0000
0010
0000
,
1000
0000
0000
0000
,
0001
0000
0001
0000
,
1000
0000
0000
0001
,
0001
0000
0000
0100
,
0100
0000
0000
0010
,
0010
0000
0000
1000
,
1000
0000
0000
0100
,
0100
0000
0000
0010
,
0010
0000
0000
0001
,
0001
0000
0000
1000
,
1000
0000
0000
0000
,
0001
0000
0001
0000
,
0100
0000
0000
0000
,
0010
0000
0010
0000
,
1000
0000
0000
0000
,
0100
0000
0100
0000
,
0010
0000
0000
0000
,
0001
0000
1000
0000
,
0001
0000
0001
0000
,
0100
0000
0100
0000
,
0010
0000
0010
0000
,
1000
0000
1000
0000
,
0001
0000
0100
0000
,
0010
0000
1000
0000
,
0001
0000
0001
0000
,
0001
0001
0001
0000
,
1001
0000
1000
0000
,
0001
0000
0001
0000
,
0100
0000
0100
0000
,
0010
0000
0010
0000
,
1000
0000
1000
0000
,
0001
0000
0001
0000
,
0010
0000
0010
0000
,
0100
0000
0100
0000
,
1000
0000
0001
0000
,
1000
0000
0001
0000
,
0100
0000
0010
0000
,
0100
0000
0010
0000
,
1000
0000
0100
0000
,
0010
0000
0001
0000
,
0010
0000
0100
0000
,
1000
0000
0001
0000
,
0000
0000
0000
0001
,
0000
0000
0000
0100
,
0000
0000
0000
0010
,
0000
0000
0000
1000
,
0000
0000
0000
0001
,
0000
0000
0000
0100
,
0000
0000
0000
0010
,
0000
0000
1001
0000
;
