#TITLE:World Is Mine;
#SUBTITLE:;
#ARTIST:Supercell feat. Hatsune Miku;
#TITLETRANSLIT:;
#SUBTITLETRANSLIT:;
#ARTISTTRANSLIT:;
#GENRE:;
#CREDIT:;
#BANNER:World is Mine - bn.png;
#BACKGROUND:World is Mine - bg.png;
#LYRICSPATH:Hatsune Miku - World is Mine.lrc;
#CDTITLE:cdtitlegpop.png;
#MUSIC:Hatsune Miku - World is Mine.ogg;
#OFFSET:0.204;
#SAMPLESTART:67.685;
#SAMPLELENGTH:23.272;
#SELECTABLE:YES;
#DISPLAYBPM:110.000:165.000;
#BPMS:0.000=165.000
,30.500=150.000
,33.000=145.000
,35.000=120.000
,37.000=100.000
,38.500=80.000
,39.500=60.000
,40.500=50.000
,41.000=40.000
,41.500=100.000
,42.000=165.000
,267.500=145.000
,269.000=140.000
,273.000=110.000
;
#STOPS:41.500=0.244
;
#BGCHANGES:3.875=World is Mine.avi=1.000=1=0=1=Format3==CrossFade==,
99999=-nosongbg-=1.000=0=0=0 // don't automatically add -songbackground-
;
#KEYSOUNDS:;
#ATTACKS:;

//---------------dance-single - ----------------
#NOTES:
     dance-single:
     :
     Challenge:
     9:
     0.690,0.949,0.659,0.625,0.173,409.000,76.000,72.000,33.000,2.000,3.000,0.690,0.949,0.659,0.625,0.173,409.000,76.000,72.000,33.000,2.000,3.000:
0000
0000
0000
0000
,
0000
0000
0000
0000
,
0000
0000
0000
0000
,
0000
0000
0000
0000
,
0000
0000
0000
0000
,
0000
0000
0000
2000
,
0000
3001
0100
0010
,
0010
0000
1000
0000
0000
0001
0200
0000
,
0000
0020
0000
2000
,
0000
0002
0000
0000
,
0000
0000
3333
MMMM
0100
0010
1002
1000
,
1003
0000
2200
0000
3300
1002
0000
0100
,
0103
0000
0120
0000
1030
0000
2100
0001
,
3001
0000
0202
0000
0303
2001
0000
0100
,
3100
0000
0120
0200
0000
0330
0012
0010
,
0013
0000
2002
0000
3003
1020
0000
0100
,
0130
0000
0102
0000
2003
0000
3100
0010
,
0001
0010
0100
1000
0100
1000
0001
0100
,
0010
1000
0010
0100
0001
0001
1001
1000
,
0000
0100
0010
0000
0001
1000
0000
1000
,
0010
0000
0210
0000
0302
0000
1003
1000
,
0100
0020
0000
0030
0002
0000
1003
1000
,
0010
0100
0M00
0101
0M0M
1000
1100
0100
,
0010
0001
0001
1000
0000
0020
0000
0230
,
0000
0302
0000
2003
0000
3100
0110
0000
,
0010
0000
0002
0000
1000
0000
2003
0000
0000
0000
3020
0000
0100
0000
0130
0001
,
1000
0001
000M
0001
000M
1000
1100
0100
,
1000
0000
0000
0000
0010
0100
0001
0000
1000
0000
0100
0000
1000
0000
0001
0000
,
0100
0010
1000
0001
0100
0000
0110
0200
,
0000
0000
0301
0000
1000
0000
0100
0000
1000
0000
0010
0100
0001
0000
0000
0000
,
1001
00M0
1100
M100
0010
0M01
1001
0000
,
1100
0000
0102
1000
1003
0000
1020
0100
,
0130
0000
0102
0010
0013
0100
1100
1000
,
0001
0000
0101
0100
0010
2000
0000
3001
,
0100
0000
0001
1000
0010
0100
0010
0000
0100
0000
0000
0000
1001
0000
0000
0000
,
1001
0000
1100
0100
0010
0001
1001
0100
,
1001
0000
0101
0100
0040
0000
1030
1000
,
0001
0200
0000
0302
0000
2003
0000
3100
,
0010
0100
0020
0000
0031
0100
0110
0000
,
0110
0000
1010
1000
0001
0100
0101
0010
,
0101
0000
1001
1000
0100
0010
0012
0000
,
2003
3020
0230
0302
,
1003
0000
0100
0010
0001
0000
1000
0000
0010
0000
0000
0000
M11M
0000
M11M
0000
,
M11M
0000
M1M1
0000
1MM1
1MM1
0000
11MM
,
11MM
0000
1MM1
0000
M1MM
0000
1001
1000
,
0100
0010
0001
0100
0010
0100
0001
0010
,
0100
1000
0001
0100
0001
0010
0001
0100
,
1000
0100
0010
0100
1000
0100
0002
0000
,
0010
0000
0100
0000
1003
0000
1001
0001
,
0100
0001
1000
0100
0010
0100
1000
0001
,
0100
0001
1000
0100
0010
0001
0011
0000
,
0001
0000
1000
0000
1010
0000
0000
0000
0001
0000
0100
0000
0001
0100
0001
1000
,
0100
0000
0010
0001
1000
0100
0000
0100
0010
0000
0000
0000
1001
0000
0001
0000
,
0100
0001
0010
0100
1000
0010
0100
0001
,
0100
0001
0010
0100
1000
0100
1000
0100
,
0001
0100
0010
0100
1000
0100
0020
0000
,
0001
0000
1000
0000
0130
0000
1001
0001
,
0100
0001
1000
0100
0010
0100
1000
0001
,
0100
0000
0001
0000
0010
0000
0100
0000
1000
0000
0001
0000
0011
0000
0000
0001
,
0000
0000
1000
0000
1010
0000
0000
0000
1000
0000
0001
0000
1001
0000
1000
0100
,
0010
0000
0001
0100
0001
1000
0000
1000
0010
0100
0010
0000
0110
0000
0000
0000
,
0002
0000
0203
0000
0320
0000
1030
0001
,
0100
0001
1000
0100
1001
0100
1002
0100
,
0103
0000
0220
0000
0330
2010
0000
0001
,
3001
0000
0102
0000
2000
3003
1200
0010
,
0310
0000
0022
0000
0033
2001
0000
0010
,
3010
0000
0210
0002
0000
0303
2001
0010
,
3001
0000
0202
0000
0303
0120
0000
1000
,
0130
0110
2010
0004
,
0000
0000
0000
0000
0000
3003
1001
0000
,
1000
0000
0000
0000
0000
0000
0000
0000
0000
0000
0000
0000
0000
0000
0000
0000
0000
0000
0000
0000
0000
0000
0000
0000
0001
0000
0000
0000
0000
0000
0000
0000
0000
0000
0000
0000
0000
0000
0000
0000
0100
0000
0000
0000
0000
0000
0000
0000
0000
0000
0000
0000
0000
0000
0000
0000
0000
0000
0000
0000
0010
0000
0000
0000
0100
0000
0000
0000
0000
0000
0000
0000
0000
0000
0000
0000
0000
0000
0001
0000
0000
0000
0000
0000
0000
0000
0000
0000
0000
0000
0000
0000
0100
0000
0000
0000
0010
0000
0000
0000
0000
0000
0000
0000
0000
0000
0000
0000
0100
0000
0000
0000
0010
0000
0000
0000
2000
0000
0000
0000
0000
0000
0000
0000
0000
0000
0000
0000
0000
0000
0000
0000
0000
0000
0000
0000
0000
0000
0000
0000
0000
0000
0000
0000
0000
0000
0000
0000
0000
0000
0000
0000
0000
0000
0000
0000
0000
0000
0000
0000
3001
0000
0000
0000
0000
0000
0000
0000
0000
0000
0000
0000
0000
0000
0000
0000
0000
0100
0000
0000
0000
0000
0000
0000
0000
0000
0000
0000
0010
0000
0000
0000
,
1000
0000
0000
0000
0000
0000
0000
0000
0000
0000
0000
0000
0010
0000
0000
0000
1000
0000
0000
0000
0020
0000
0000
0000
0000
0000
0000
0000
0000
0000
0000
0000
0000
0000
0000
0000
0000
0000
0000
0000
0000
0000
0000
0000
0130
0000
0000
0000
0001
0000
0000
0000
0000
0000
0000
0000
0000
0000
0000
0000
0100
0000
0000
0000
0001
0000
0000
0000
0000
0000
0000
0000
1000
0000
0000
0000
0000
0000
0000
0000
0000
0100
0000
0000
0000
0000
0000
0000
0000
0000
0010
0000
0000
0000
0000
0000
0000
0000
0000
0001
0000
0000
0000
0000
0000
0000
0000
0000
0000
0000
0000
0000
2000
0000
0000
0000
0000
0000
0000
0000
0000
0000
0000
0000
0000
0000
0000
0000
0000
0000
0000
0000
0000
0000
0000
0000
0000
0000
0000
0000
0000
0000
0000
0000
0000
0000
0000
0000
0000
0000
0000
0000
0000
0000
0000
0000
0000
0000
0000
0000
0000
0000
0000
0000
0000
0000
0000
0000
0000
0000
0000
0000
0000
0000
0000
0000
0000
0000
0000
0000
0000
0000
0000
0000
0000
0000
0000
0000
0000
0000
0000
0000
,
0000
0000
0000
0000
0000
0000
0004
0000
0000
0000
0000
0000
0000
0000
0000
3003
0000
1001
0000
0000
0000
0000
0010
0000
;

//---------------dance-single - ----------------
#NOTES:
     dance-single:
     :
     Hard:
     7:
     0.485,0.505,0.451,0.208,0.009,315.000,52.000,24.000,0.000,0.000,0.000,0.485,0.505,0.451,0.208,0.009,315.000,52.000,24.000,0.000,0.000,0.000: // measure 0
0000
0000
0000
0000
,  // measure 1
0000
0000
0000
0000
,  // measure 2
0000
0000
0000
0000
,  // measure 3
0000
0000
0000
0000
,  // measure 4
0000
0000
0000
0000
,  // measure 5
0000
0000
0000
0000
,  // measure 6
0000
0000
0000
0000
,  // measure 7
0000
0000
0000
0000
,  // measure 8
0000
0000
0000
0000
,  // measure 9
0000
0000
0000
0000
,  // measure 10
0000
0000
0000
0000
0000
0000
1001
1000
,  // measure 11
0001
0000
0102
0000
0000
1003
0000
0100
,  // measure 12
0100
0000
0012
0000
1003
0000
1010
0010
,  // measure 13
0100
0000
0102
0000
0000
0013
0000
0100
,  // measure 14
1000
0000
1001
1001
0000
0000
0101
0001
,  // measure 15
1000
0000
1200
0000
0000
0310
0000
0001
,  // measure 16
1000
0000
1020
0000
0230
0000
0301
1000
,  // measure 17
0001
1000
0100
1000
0100
1000
0100
0010
,  // measure 18
0100
0010
0001
0010
0001
1000
0010
0010
,  // measure 19
0000
0100
0100
0000
0001
0001
0000
1000
,  // measure 20
1000
0000
0010
0000
0100
0000
0001
0010
,  // measure 21
0100
1000
0000
0000
0001
0000
1000
0100
,  // measure 22
0010
0001
0000
0001
0000
1000
1010
0000
,  // measure 23
0100
0001
1000
1000
0000
0001
0000
1010
,  // measure 24
0000
0100
0000
0011
0000
0001
1000
0000
,  // measure 25
1000
0100
0000
0110
0000
0001
0000
1010
,  // measure 26
0000
1001
0000
1001
0000
1000
0001
0001
,  // measure 27
0100
0000
0000
0010
1000
0010
0100
0001
,  // measure 28
0100
0010
0100
0010
1000
0000
1001
1000
,  // measure 29
0000
0100
0010
0001
0010
0001
1000
0000
,  // measure 30
1010
0000
0100
0001
1000
0001
0101
0000
,  // measure 31
1000
0002
0010
0100
,  // measure 32
1000
0000
1003
0000
1000
0010
0100
0100
,  // measure 33
0001
0100
0001
1000
0100
0020
0000
0030
,  // measure 34
0001
1000
0001
0100
0010
0000
0110
0000
,  // measure 35
0110
0000
1000
1000
0001
0000
0101
0000
,  // measure 36
0101
0000
0001
0001
2000
0000
3100
0100
,  // measure 37
0010
0001
0000
1000
0000
0010
0000
0010
,  // measure 38
0100
0001
1000
0000
0001
1000
1100
0000
,  // measure 39
1100
0000
0100
0100
0010
0000
0011
0000
,  // measure 40
0011
0000
0001
1000
0010
0000
0110
0100
,  // measure 41
0001
0000
1000
1000
0100
0000
0010
0010
,  // measure 42
0001
0000
1000
0010
0100
0000
1001
0001
,  // measure 43
0001
0000
1100
0000
1010
0010
0000
0110
,  // measure 44
0100
0000
0101
0000
0000
0000
1001
1000
,  // measure 45
0100
0000
0010
0001
1000
0000
0010
0100
,  // measure 46
0001
0010
0100
0000
1000
0100
0020
0000
,  // measure 47
0001
1000
0001
0230
,  // measure 48
0010
0000
0010
0000
0310
0000
1001
0001
,  // measure 49
0100
0000
0010
1000
0001
0000
1000
0100
,  // measure 50
0010
0010
0001
1000
0100
1000
0010
0000
,  // measure 51
0100
0001
1000
0000
0001
0010
0100
0000
,  // measure 52
1000
0001
0100
0000
0110
0000
1001
1000
,  // measure 53
0100
0000
0010
0001
1000
0100
1000
1000
,  // measure 54
0001
0100
0010
0000
1000
0001
0200
0000
,  // measure 55
1000
0010
0001
0320
,  // measure 56
0100
0000
0100
0000
0130
0000
1001
1000
,  // measure 57
0100
0000
0010
0001
1000
1000
0010
0000
,  // measure 58
0100
0000
0001
0000
1000
0000
0000
0000
0001
0000
0100
0000
0001
0000
0000
0001
,  // measure 59
0000
0001
1000
0000
0010
0100
0002
0000
,  // measure 60
1000
1000
2000
0000
3003
0000
1001
0000
,  // measure 61
1000
0000
0100
0000
0010
0000
0001
0010
,  // measure 62
0001
0010
0100
1000
0100
0000
1001
1000
,  // measure 63
0010
0000
0210
0000
0000
0301
0000
1000
,  // measure 64
1000
0000
2100
0000
3001
0000
0101
0100
,  // measure 65
0010
0000
1020
0000
0000
0130
0000
0001
,  // measure 66
0001
0000
1001
0100
0000
0000
1200
1000
,  // measure 67
1300
0000
1002
0000
0000
0103
0000
0010
,  // measure 68
1000
0110
2002
0000
,  // measure 69
0000
0000
3003
2200
,  // measure 70
0000
0000
0000
0000
,  // measure 71
0000
0000
0000
0000
,  // measure 72
0000
0000
0000
0000
0000
0000
0000
0000
0000
0000
0000
0000
3300
0000
0000
0000
0000
1001
0000
0000
0000
0000
0000
0000
;

//---------------dance-single - ----------------
#NOTES:
     dance-single:
     :
     Medium:
     5:
     0.369,0.410,0.330,0.052,0.004,254.000,38.000,6.000,0.000,0.000,0.000,0.369,0.410,0.330,0.052,0.004,254.000,38.000,6.000,0.000,0.000,0.000:
0000
0000
0000
0000
,
0000
0000
0000
0000
,
0000
0000
0000
0000
,
0000
0000
0000
0000
,
0000
0000
0000
0000
,
0000
0000
0000
0000
,
0000
0000
0000
0000
,
0000
0000
0000
0000
,
0000
0000
0000
0000
,
0000
0000
0000
0000
,
0000
0000
0000
0000
0000
0000
0001
0001
,
0001
0000
0100
0000
0000
0010
0000
0010
,
0010
0000
1001
0000
1001
0000
0100
0100
,
0100
0000
0010
0000
0000
1000
0000
1000
,
1000
0000
0001
0001
0000
0000
1000
1000
,
1000
0000
0010
0000
0000
0100
0000
0100
,
0100
0101
1100
1001
,
0001
0100
0001
1000
,
0100
0000
0010
0000
0001
1000
0010
0000
,
0000
0100
0000
0000
0001
0000
0000
1000
,
0000
1100
0101
0001
,
0100
0010
0000
0000
1000
0000
0100
0000
,
0010
0001
0000
0001
0000
1000
0001
0000
,
0100
0010
1000
0001
,
1000
0000
0100
0000
0010
0001
1000
0000
,
0010
0101
0010
1100
,
0001
1000
0000
1000
0000
0001
1000
0000
,
1000
0000
0000
0010
0100
0000
0001
0000
,
1000
0000
0100
0010
0001
0000
1000
0000
,
0010
0000
0100
0000
0001
1000
0100
0000
,
0100
0000
0010
0001
1000
0000
0101
0000
,
0010
1000
1000
1000
,
0001
0000
0100
0000
0010
1000
0001
0000
,
0100
0011
1000
0101
,
0010
1100
0010
1001
,
1001
0000
1000
1000
0001
0000
0101
0000
,
0101
0010
0100
1100
,
1000
0001
0100
0001
,
0010
0100
1000
0000
0001
0000
0011
0000
,
0011
0000
0100
0100
0010
0000
1010
0000
,
1010
0000
1000
0001
1000
0000
0110
0000
,
0100
0001
0001
1000
,
1000
0000
0100
0000
0100
0000
0010
0010
,
0010
0000
0010
0000
0010
0010
0000
0010
,
0010
0010
0000
1001
,
0001
0100
0010
1000
,
0100
0010
0001
0000
1000
0010
0200
0000
,
0010
0010
0010
0310
,
1000
0001
0100
1001
,
1000
0000
0100
0000
0010
0001
1000
0000
,
0010
0100
0001
0000
1000
0000
1100
0000
,
0001
0101
0100
0110
,
0010
0000
1000
0001
0100
0000
1001
0000
,
1000
0000
0100
0000
0010
0001
1000
0000
,
0010
0100
0001
0000
1000
0000
0020
0000
,
0100
0100
0100
0130
,
0001
1000
0010
0101
,
1000
0000
0001
0000
0010
0100
1000
0000
,
0001
0000
0001
0000
0100
0010
1000
0000
,
0001
0000
0100
0000
0010
1000
0001
0000
,
0100
0011
1000
0110
,
0000
0000
0000
0000
,
0000
0000
0000
0000
0000
0000
1000
1000
,
1000
0000
0001
0000
0000
0100
0000
0100
,
0100
0000
0110
0000
1001
0000
0001
0001
,
0001
0000
1000
0000
0000
0010
0000
0010
,
0010
0000
0100
0100
0000
0000
0010
0100
,
0010
0000
1000
0000
0000
0001
0000
1000
,
0100
0011
2200
0000
,
0000
0000
3300
2002
,
0000
0000
0000
0000
,
0000
0000
0000
0000
,
0000
0000
0000
0000
0000
0000
0000
0000
0000
3003
0000
0000
0000
0000
0000
0000
0000
1001
0000
0000
0000
0000
0000
0000
;

//---------------dance-single - ----------------
#NOTES:
     dance-single:
     :
     Easy:
     3:
     0.260,0.315,0.252,0.052,0.004,175.000,29.000,6.000,0.000,0.000,0.000,0.260,0.315,0.252,0.052,0.004,175.000,29.000,6.000,0.000,0.000,0.000:
0000
0000
0000
0000
,
0000
0000
0000
0000
,
0000
0000
0000
0000
,
0000
0000
0000
0000
,
0000
0000
0000
0000
,
0000
0000
0000
0000
,
0000
0000
0000
0000
,
0000
0000
0000
0000
,
0000
0000
0000
0000
,
0000
0000
0000
0000
,
0000
0000
0000
1001
,
0000
0000
0001
0000
0000
0100
0000
0000
,
0100
0010
0010
1000
,
0000
0000
1000
0000
0000
0001
0000
0000
,
0001
0110
0000
1001
,
0000
0000
0100
0000
0000
0010
0000
0000
,
0010
1000
1000
0001
,
0100
0010
1000
0100
,
0010
0001
0100
1001
,
0000
1000
0000
0010
,
0000
0100
0000
0001
,
1000
1000
0000
0100
,
0010
0001
0000
1000
,
0000
0010
0000
0100
,
0001
1000
0000
0001
,
0000
1000
0000
0010
,
0000
0010
0000
0010
0000
0000
0100
0000
,
0100
0000
0001
0000
,
1000
0000
0100
0010
,
0000
0001
0000
1000
,
0001
0100
0000
0010
,
0000
1000
1000
0001
,
0001
0100
0000
0010
,
0000
1000
0000
0001
,
0000
0100
0010
0110
,
0110
1000
0000
0101
,
0101
0010
0000
1000
,
0000
0001
0000
0010
,
0100
1000
0001
0011
,
0011
0100
0000
1010
,
1010
0001
0000
1000
,
1000
0001
0001
0100
,
0010
1000
0001
0100
,
0000
0000
0100
0000
0000
0100
0000
0000
,
0100
0100
0000
1001
,
1000
0001
0100
0001
,
1000
0100
0010
0001
,
0001
0001
0001
0002
,
1000
1000
1003
1001
,
0001
0100
0001
1000
,
0100
0010
0001
0011
,
0000
1010
0000
0101
,
0000
1001
0100
1001
,
1000
0001
0100
0010
,
1000
0001
0100
0010
,
0010
0010
0010
0020
,
0100
0100
0130
0110
,
1000
0001
0100
0001
,
1000
0100
0010
0011
,
0000
1010
0000
1100
,
0000
0101
0000
1001
,
0000
0000
0000
0000
,
0000
0000
0000
1001
,
0000
0000
1000
0000
0000
1000
0000
0000
,
1000
0001
0001
0100
,
0000
0000
0010
0000
0000
0010
0000
0000
,
0010
1100
0000
0001
,
0000
0000
0100
0000
0000
0100
0000
0000
,
0100
0010
0020
0200
,
0000
0000
0330
2002
,
0000
0000
0000
0000
,
0000
0000
0000
0000
,
0000
0000
0000
0000
0000
0000
3003
0000
0000
0000
0000
0000
0000
0000
0000
0000
0000
1001
0000
0000
0000
0000
0000
0000
;

//---------------dance-single - ----------------
#NOTES:
     dance-single:
     :
     Beginner:
     1:
     0.116,0.221,0.078,0.009,0.004,84.000,9.000,1.000,0.000,0.000,0.000,0.116,0.221,0.078,0.009,0.004,84.000,9.000,1.000,0.000,0.000,0.000:
0000
0000
0000
0000
,
0000
0000
0000
0000
,
0000
0000
0000
0000
,
0000
0000
0000
0000
,
0000
0000
0000
0000
,
0000
0000
0000
0000
,
0000
0000
0000
0000
,
0000
0000
0000
0000
,
0000
0000
0000
0000
,
0000
0000
0000
0000
,
0000
0000
0000
1000
,
0000
0000
0000
0000
,
0000
0000
0000
0001
,
0000
0000
0000
0000
,
0000
0000
0000
0100
,
0000
0000
0000
0000
,
0000
0000
0000
0010
,
0000
0000
0000
0100
,
0000
0000
0000
0001
,
0000
0001
0000
1000
,
0000
0000
0000
0100
,
0000
0000
0000
0010
,
0000
0000
0000
0001
,
0000
0001
0000
0100
,
0000
0100
0000
0010
,
0000
0000
0000
1000
,
0000
0000
0000
0001
,
0000
0000
0000
0001
,
0000
0001
0000
0010
,
0000
0000
0000
0100
,
0000
0000
0000
1000
,
0000
1000
0000
0001
,
0000
0001
0000
0100
,
0000
0000
0000
0010
,
0000
0000
0000
1000
,
1000
0000
0000
0001
,
0001
0000
0000
0100
,
0000
0000
0000
0010
,
0000
0000
0000
0100
,
0100
0000
0000
0010
,
0010
0000
0000
1000
,
0000
1000
0000
0001
,
0000
0001
0000
0110
,
0000
0110
0000
0110
,
0000
0110
0000
1001
,
0000
1000
0000
0001
,
0000
0001
0000
0100
,
0000
0100
0000
0010
,
0000
0010
0000
1000
,
0000
1000
0000
0001
,
0000
0001
0000
0010
,
0000
0010
0000
0100
,
0000
0100
0000
1000
,
0000
0100
0000
0010
,
0000
0001
0000
0100
,
0000
0010
0000
1000
,
0000
1000
0000
0001
,
0000
0100
0000
0001
,
0000
0010
0000
0100
,
0000
0100
0000
1000
,
0000
1000
0000
0110
,
0000
0000
0000
0000
,
0000
0000
0000
1001
,
0000
0000
0000
0000
,
0000
0000
0000
1000
,
0000
0000
0000
0000
,
0000
0000
0000
0001
,
0000
0000
0000
0000
,
0000
0000
0000
0200
,
0000
0300
0000
0110
,
0000
0000
0000
0000
,
0000
0000
0000
0000
,
0000
0000
0000
0000
0000
0000
0000
0000
0000
0000
0000
0000
0000
0000
0000
0000
0000
1001
0000
0000
0000
0000
0000
0000
;
