#VERSION:0.83;
#TITLE:Baten Kaitos Origins;
#SUBTITLE:- The Valedictory Elegy;
#ARTIST:Motoi Sakuraba;
#TITLETRANSLIT:;
#SUBTITLETRANSLIT:;
#ARTISTTRANSLIT:;
#GENRE:;
#ORIGIN:;
#CREDIT:;
#BANNER:Valedictory Elegy.png;
#BACKGROUND:Valedictory Elegy-bg.png;
#PREVIEWVID:;
#JACKET:;
#CDIMAGE:;
#DISCIMAGE:;
#LYRICSPATH:;
#CDTITLE:;
#MUSIC:Baten Kaitos Origins - Battle Theme The Valedictory Elegy.mp3;
#OFFSET:0.200000;
#SAMPLESTART:28.146896;
#SAMPLELENGTH:19.732784;
#SELECTABLE:YES;
#BPMS:0.000=194.600,
52.000=194.900,
92.000=194.600,
156.000=197.000,
188.000=195.000,
208.000=194.000,
220.000=193.000,
252.000=194.000,
300.000=195.000,
340.000=194.000,
388.000=195.000,
404.000=197.500,
436.000=194.500;
#STOPS:;
#DELAYS:;
#WARPS:;
#TIMESIGNATURES:0.000=4=4;
#TICKCOUNTS:0.000=4;
#COMBOS:0.000=1;
#SPEEDS:0.000=1.000=0.000=0;
#SCROLLS:0.000=1.000;
#FAKES:;
#LABELS:0.000=Song Start;
#BGCHANGES:;
#KEYSOUNDS:;
#ATTACKS:
;

//---------------dance-single - ----------------
#NOTEDATA:;
#CHARTNAME:;
#STEPSTYPE:dance-single;
#DESCRIPTION:;
#CHARTSTYLE:;
#DIFFICULTY:Easy;
#METER:3;
#RADARVALUES:0.232979,0.349469,0.011948,0.256874,0.000000,273.000000,271.000000,2.000000,43.000000,0.000000,0.000000,0.000000,0.000000,0.000000,0.232979,0.349469,0.011948,0.256874,0.000000,273.000000,271.000000,2.000000,43.000000,0.000000,0.000000,0.000000,0.000000,0.000000;
#CREDIT:;
#NOTES:
0000
0000
0000
0000
,
0200
0000
0000
0300
,
0020
0000
0000
0030
,
2000
0000
0000
3000
,
0002
0000
0000
0003
,
1000
0000
0100
0000
,
0001
0000
0100
0000
,
1000
0000
0100
0000
,
0100
0000
0001
0000
,
0010
0000
1000
0000
,
0010
0000
1000
0000
,
0010
0000
1000
0000
,
0001
0000
0100
0000
,
0200
0000
0000
0300
,
0002
0000
0000
0003
,
2000
0000
0000
3000
,
1000
0000
0100
0000
,
0002
0000
0000
0003
,
0200
0000
0000
0300
,
0020
0000
0000
0030
,
0020
0000
0000
0030
,
2000
0000
0000
3000
,
0002
0000
0000
0003
,
0001
0000
0100
0000
,
1000
0000
0001
0100
,
0001
0000
1000
0000
,
0001
0000
0010
1000
,
0010
0100
0010
0100
,
0001
1000
0001
1000
,
1000
1000
0001
0001
,
0200
0300
0020
0030
,
2000
0000
0000
3000
,
0200
0000
0000
0300
,
0020
0000
0000
0030
,
0002
0003
0200
0300
,
0020
0000
0000
0030
,
2000
0000
0000
3000
,
0002
0000
0000
0003
,
2000
0000
0000
3000
,
0100
0000
1000
0000
,
0010
0000
1000
0100
,
0010
0000
0001
0000
,
0001
0000
0010
0100
,
1000
0000
0100
0000
,
1000
0000
0001
0100
,
0001
0000
0010
0000
,
0100
0000
0001
0000
,
1000
0000
0100
0001
,
0010
0000
1000
0001
,
0010
0000
0001
0100
,
1000
0000
0001
0100
,
0010
0000
1000
0001
,
0100
0000
0010
0100
,
0010
0000
0001
1000
,
1000
0000
0010
0000
,
0010
0000
1000
0000
,
0100
0000
0001
0000
,
0010
0000
1000
0000
,
0100
0000
0001
0000
,
0001
0000
0010
0000
,
1000
0000
0001
0000
,
0010
0000
1000
0000
,
0100
0000
1000
0000
,
0100
0000
1000
0100
,
0001
0000
0001
0000
,
1000
0000
0010
0001
,
0100
0000
0010
0000
,
0100
0000
1000
0100
,
0001
0000
0001
0000
,
2000
0000
0000
3000
,
0002
0000
0000
0003
,
0200
0000
0000
0300
,
0020
0000
0000
0030
,
0200
0000
0000
0300
,
0020
0000
0000
0030
,
0100
0100
0010
0010
,
1000
1000
0001
0001
,
0100
0010
0100
0010
,
0001
1000
0001
1000
,
0100
0001
0100
0001
,
0010
1000
0010
1000
,
1000
0100
0010
0001
,
0001
0010
0100
1000
,
1000
0000
0100
0000
,
0010
0000
0001
0000
,
0002
0000
0000
0000
,
0100
0000
0000
0003
,
2000
0000
0000
0000
,
0010
0000
0000
3000
,
0200
0000
0000
0000
,
0010
0000
0000
0300
,
0002
0000
0000
0000
,
0100
0000
0000
0003
,
0020
0000
0000
0000
,
1000
0000
0000
0030
,
2000
0000
0000
0000
,
0100
0000
0000
3000
,
0200
0000
0000
0000
,
0001
0000
0000
0300
,
0002
0000
0000
0000
,
0100
0000
0000
0003
,
0100
0000
0000
0000
,
0100
0000
1000
0010
,
0100
0000
0001
1000
,
0001
0000
0010
0100
,
0010
0000
0001
0010
,
0100
0000
1000
1000
,
0010
0000
0010
1000
,
0100
0000
0010
0001
,
0100
0000
1000
0100
,
0010
0000
0001
0010
,
0100
0000
1000
0100
,
0010
0000
0001
0010
,
0100
0000
1000
0100
,
0010
0000
0001
0010
,
0100
0000
0100
0000
,
0110
0000
1000
0000
,
0010
0000
0001
0000
,
0100
0000
0010
0000
,
0010
0000
1000
0000
,
0100
1000
0001
0100
,
0010
0001
0100
0010
,
0100
1000
0010
0100
,
0010
0001
0010
1000
,
0100
1000
0100
0010
,
0020
0000
0000
0030
,
0200
0000
0000
0300
,
0200
0000
0000
0300
,
0010
0000
1000
0000
,
2020
0000
0000
0000
,
3030
0000
0000
0000
;

//---------------dance-single - ----------------
#NOTEDATA:;
#CHARTNAME:;
#STEPSTYPE:dance-single;
#DESCRIPTION:;
#CHARTSTYLE:;
#DIFFICULTY:Medium;
#METER:5;
#RADARVALUES:0.336241,0.388298,0.047791,0.424141,0.005974,394.000000,386.000000,8.000000,71.000000,0.000000,0.000000,0.000000,0.000000,0.000000,0.336241,0.388298,0.047791,0.424141,0.005974,394.000000,386.000000,8.000000,71.000000,0.000000,0.000000,0.000000,0.000000,0.000000;
#CREDIT:;
#NOTES:
0000
0000
0000
0000
,
0200
0000
0001
0300
,
0020
0000
1000
0030
,
2000
0000
0010
3000
,
0002
0000
0100
0003
,
1000
0001
0100
1000
,
0002
0003
0100
0001
,
2000
3000
0100
0010
,
0100
1000
0001
0100
,
1000
0001
1000
0010
,
0100
0001
0001
0100
,
0010
1000
1000
0010
,
0001
1000
0100
0010
,
0200
0000
0001
0310
,
0002
0000
0100
0013
,
2000
0000
0001
3010
,
1010
0000
0101
0000
,
0002
0000
1000
0103
,
0200
0000
0001
0301
,
0020
0000
1000
0031
,
0020
0000
0100
1030
,
2000
0000
0001
3010
,
0002
0000
1000
0103
,
0001
1000
0100
0001
,
1000
0100
0001
0100
,
0002
0003
1000
0010
,
0001
1000
0010
1000
,
0010
0100
0010
0100
,
0001
1000
0001
0100
,
0001
1000
0010
0100
,
0220
0330
0020
0030
,
2000
0000
0001
3001
,
0200
0000
0010
0310
,
0020
0000
0100
0130
,
0002
0003
0200
0300
,
0020
0000
1000
1030
,
2000
0000
0001
3100
,
0002
0000
1000
0013
,
2000
0000
0001
3010
,
0100
0000
0000
0100
0000
0010
0000
0100
,
0000
0000
1000
0100
,
0010
0000
0000
0100
0000
1000
0000
0001
,
0000
0000
0010
0100
,
1000
0000
0000
0010
0000
0001
0000
1000
,
0000
0000
0001
0100
,
0001
0000
0000
0010
0000
0000
1000
0000
,
0100
0000
0101
0000
,
1000
0010
0000
1000
0000
0001
0000
0100
,
0000
0000
1000
0001
,
0010
1000
0000
0100
0000
0010
0000
0001
,
0000
0000
0001
0100
,
0010
1000
0000
0001
0000
1000
0000
0001
,
0000
0000
0010
0100
,
0010
0000
0000
0001
0000
0000
1000
0000
,
0002
0003
2000
3000
,
0010
0001
1000
0010
,
0100
1000
0001
0100
,
0010
0001
1000
0010
,
0100
0010
0001
0010
,
0001
0100
0010
0100
,
1000
0100
0001
0100
,
0010
0100
1000
0010
,
0100
0100
1000
0001
,
0100
0000
0000
0000
1000
0100
1000
0100
,
0000
0000
0000
0001
0000
0000
0000
0000
,
1000
0000
0000
0000
0010
0001
0001
0010
,
0000
0000
0010
1000
,
0100
0000
0000
0000
1000
0010
0100
0001
,
0000
0000
0001
0010
,
2000
0000
0000
0000
0000
0000
3000
0002
,
0000
0000
0000
0003
,
0200
0000
0000
0000
0000
0000
0300
0020
,
0000
0000
0000
0030
,
0200
0000
0000
0000
0000
0000
0300
0020
,
0000
0000
0000
0030
,
0100
1000
0000
0001
0000
0010
0000
0100
,
1000
0100
0010
0001
,
0100
0010
0100
0010
,
2020
0000
0000
3030
0202
0000
0000
0303
,
1000
1000
0000
0100
0000
0010
0000
0001
,
0010
1000
0010
1000
,
1000
0100
0010
0001
,
0001
0010
0100
1000
,
2000
0000
0000
0000
0100
0000
0000
3000
,
0020
0000
0000
0000
0001
0000
0000
0030
,
0002
0000
1000
0000
,
0100
0000
0010
0003
,
2000
0000
0001
0000
,
0010
0000
0100
3000
,
0200
0000
0001
0000
,
0010
0000
0000
0000
1000
0000
0000
0300
,
0002
0000
0100
0000
,
0100
0000
1000
0003
,
0020
0000
0001
0000
,
1000
0000
0100
0030
,
2000
0000
0001
0000
,
0100
0000
0010
3000
,
0200
0000
1000
0000
,
0001
0000
0010
0300
,
0002
0000
0010
0000
,
0100
0000
1000
0003
,
0100
0000
0000
1000
0000
0000
0010
0000
,
0100
0000
0000
0001
0000
0000
1000
0000
,
0100
0000
0000
1000
0000
0000
0010
0000
,
0001
0000
0000
1000
0000
0000
0100
0000
,
0010
0000
0000
1000
0000
0000
0001
0000
,
1000
0000
0000
1000
0000
0000
0010
0000
,
0001
0000
0000
0100
0000
0000
0001
0000
,
0100
0000
0000
1000
0000
0000
0001
0000
,
0200
0000
0300
1000
0000
0000
0001
0000
,
2000
0000
3000
0010
0000
0000
0010
0000
,
0200
0000
0300
0010
0000
0000
1000
0000
,
0020
0000
0030
0001
0000
0000
0010
0000
,
0200
0000
0300
1000
0000
0000
0100
0000
,
0020
0000
0001
0030
0200
0000
1000
0300
,
0020
0000
0001
0030
0200
0000
1000
0300
,
0002
0000
1000
0003
2000
0000
0001
3000
,
1001
0010
0001
0100
,
1000
0100
0010
0001
,
0020
0000
0000
0030
1000
0010
0001
0001
,
0000
0000
0010
0002
0000
0000
0000
0003
,
1000
0001
0100
0010
,
0100
1000
0010
0100
,
0010
0001
0010
1000
,
0200
0000
0000
1000
0000
0000
0301
0000
0010
0000
0100
0000
,
0020
0000
1000
0030
,
0200
0000
0001
0300
,
0200
0000
1000
0300
,
0020
0030
2000
3000
,
2020
0000
0000
0000
,
3030
0000
0000
0000
;

//---------------dance-single - ----------------
#NOTEDATA:;
#CHARTNAME:;
#STEPSTYPE:dance-single;
#DESCRIPTION:;
#CHARTSTYLE:;
#DIFFICULTY:Hard;
#METER:7;
#RADARVALUES:0.439503,0.698937,0.322586,0.675042,0.035843,515.000000,461.000000,54.000000,113.000000,0.000000,0.000000,0.000000,0.000000,0.000000,0.439503,0.698937,0.322586,0.675042,0.035843,515.000000,461.000000,54.000000,113.000000,0.000000,0.000000,0.000000,0.000000,0.000000;
#CREDIT:;
#NOTES:
0000
0000
0000
0000
,
1000
0010
0000
1000
0000
0010
0000
0000
,
0010
0001
0000
1000
0000
0010
0000
0000
,
1000
0010
0000
0100
0000
0001
0000
0000
,
1000
0100
0010
0100
,
1000
0010
0001
0020
0030
0100
1000
0010
,
0002
0000
0003
1000
0100
0010
0000
0100
,
2000
0000
3000
0000
0100
1000
0100
2000
,
0000
3000
0010
0200
0000
0000
0000
0300
,
1000
0100
1000
0100
0010
0001
0010
0001
,
0100
0010
0100
0010
0010
0100
0010
0100
,
0001
0010
0100
1000
1000
0100
0010
0001
,
0002
0000
0000
0000
0000
0000
0000
0000
0000
0003
0000
0000
0100
0000
0000
0000
0001
0000
0000
0000
0001
0000
0000
0000
,
0200
0000
0000
0000
0001
1000
0310
0002
,
0000
0000
0000
0100
0000
0000
0013
0000
,
2000
0000
0000
3000
,
2020
3030
0202
0303
,
0002
0000
0000
0000
1000
0100
0013
0200
,
0000
0000
0000
0002
0003
0000
0301
0000
,
0020
0000
0000
2000
0000
0000
3030
0000
,
0020
0000
0000
0002
0000
0000
0033
0000
,
2000
0000
0000
0000
0000
0000
0000
3000
,
0002
0000
0000
0003
,
0001
0010
1000
0200
0300
0010
0001
0010
,
2000
0000
0000
0000
0000
0000
3000
0000
0000
0010
0000
0000
0001
0000
0000
0000
0010
0000
0000
0000
0100
0000
0000
0000
,
0002
0000
0003
0000
1000
0100
0010
0002
,
0000
0003
1000
0200
0000
0000
0000
0300
,
1000
1000
0100
0100
0010
0010
0001
0001
,
0001
1000
0010
1000
0100
1000
1000
1000
,
0001
0010
1000
0100
0010
0001
0100
1000
,
0220
0000
0000
0330
0000
0000
0010
0000
1000
0000
0001
0000
,
0200
0000
0000
0000
0001
0010
0301
2000
,
0000
0000
0000
0010
0000
0000
0010
3000
,
0020
0000
0000
0030
,
2002
3003
0220
0330
,
0020
0000
0000
0000
1000
0001
0130
2000
,
0000
0000
0000
0010
0000
0000
3100
0000
,
0002
0000
0000
0003
,
2000
0000
0001
3010
,
0100
0001
0000
0100
0000
0010
0000
0200
,
0000
0300
1000
0100
,
0010
1000
0000
0100
0000
1000
0000
0002
,
0000
0003
0010
0100
,
1000
0100
0000
0010
0000
0001
0000
2000
,
0000
3000
0001
0100
,
0002
0003
0000
0020
0030
0000
1000
0000
,
0200
0300
0202
0303
,
1000
0010
0000
1000
0000
0001
0000
0200
,
0000
0300
1000
0001
,
0010
1000
0000
0100
0000
0010
0000
0002
,
0000
0003
0001
0100
,
0010
1000
0000
0001
0000
1000
0000
0002
,
0000
0003
0010
0100
,
0010
0000
0000
0001
0000
0000
1000
0000
,
0002
0003
2000
3000
,
1010
0001
1000
0010
,
0110
1000
0001
0100
,
1010
0001
1000
0010
,
0101
0010
0001
0010
,
1001
0100
0010
0100
,
1010
0100
0001
0100
,
0011
0100
1000
0010
,
0101
0100
1000
0001
,
0202
0000
0303
0000
1000
0100
1000
0200
,
0000
0000
0300
0002
0000
0000
0003
0000
,
2000
0000
3000
0000
0010
0001
0001
0020
,
0000
0030
0010
1000
,
0200
0000
0300
0000
1000
0010
0100
0002
,
0000
0003
0001
0010
,
2020
0000
0000
0000
0000
0000
3030
0202
,
0000
0000
0000
0303
,
0220
0000
0000
0000
0000
0000
0330
2020
,
0000
0000
0000
3030
,
0202
0000
0000
0000
0000
0000
0303
2020
,
0000
0000
0000
3030
,
0100
1000
0000
0001
0000
0010
0000
0100
,
1000
0100
1000
0100
0000
0001
0000
1000
,
0100
0001
0010
1000
0000
0010
0000
0010
,
2020
0000
0000
3030
0202
0000
0000
0303
,
1000
1000
0000
0100
0000
0010
0000
0001
,
0010
0100
1000
0001
0000
0010
0000
0001
,
1000
0000
0100
0000
0010
0000
1000
0000
0010
0000
0100
0000
,
0002
0000
0003
1000
0000
0000
0010
0000
,
2000
0000
0000
0000
0100
0000
0000
3000
,
0020
0000
0000
0000
0001
0000
0000
0030
,
0002
0000
0000
0000
,
0100
0000
0010
0003
,
2000
0000
0001
0000
,
0010
0000
0100
3000
,
0200
0000
0000
0010
0000
0000
0010
0000
,
0000
1000
0000
0000
1000
0000
1300
0000
,
0102
0000
0000
0100
0000
0000
0000
0000
,
0000
0000
0000
0003
,
0120
0000
0000
0100
0001
0000
0100
0000
,
1000
0100
0000
0000
0100
0000
0030
0000
,
2100
0000
0000
0100
0001
0000
0100
0000
,
0100
0100
0000
0000
0010
0000
3000
0000
,
0200
0000
1000
0010
,
0001
1000
0000
0000
0010
0000
0310
0000
,
1002
0000
0000
1000
0010
0000
1000
0000
,
0100
1000
0000
0010
0000
0100
0003
1000
,
0100
0000
0000
1010
0000
0000
1010
0000
,
0101
0000
0000
0011
0000
0000
1001
0000
,
0110
0000
0000
1010
0000
0000
1010
0000
,
0011
0000
0000
1010
0000
0000
0101
0000
,
1010
0000
0000
1010
0000
0000
0011
0000
,
1100
0000
0000
1010
0000
0000
0110
0000
,
0011
0000
0000
0101
0000
0000
1001
0000
,
0110
0000
0000
1010
0000
0000
1001
0000
,
0200
0000
0300
1000
0000
0000
0001
0000
,
2000
0000
3000
0010
0000
0000
0010
0000
,
0200
0000
0300
0010
0000
0000
1000
0000
,
0020
0000
0030
0001
0000
0000
0010
0000
,
0200
0000
0300
1000
0000
0000
0100
0000
,
0020
0000
0001
0030
0200
0000
1000
0300
,
0020
0000
0001
0030
0200
0000
1000
0300
,
0002
0000
1000
0003
2000
0000
0001
3000
,
1001
0100
0010
2000
3000
0010
0100
0100
,
2000
0000
3000
0100
0010
0100
0000
0001
,
0020
0000
0000
0030
1000
0010
0001
0001
,
0000
0000
0010
0002
0000
0000
0000
0003
,
1000
0100
0010
0001
1000
0010
0100
0100
,
0001
0001
0010
1000
0010
0001
0010
1000
,
0010
0100
0001
1000
0010
0010
1000
0001
,
0200
0000
0000
0000
0000
0000
0301
0000
0010
0000
0100
0000
,
0020
0000
0000
0000
1000
0100
1000
0230
,
0000
0000
0000
0010
0000
0000
1300
0000
,
0200
0000
0000
0300
,
0220
0330
2002
3003
,
2020
0000
0000
0000
,
3030
0000
0000
0000
;

//---------------dance-single - ----------------
#NOTEDATA:;
#CHARTNAME:;
#STEPSTYPE:dance-single;
#DESCRIPTION:;
#CHARTSTYLE:;
#DIFFICULTY:Challenge;
#METER:8;
#RADARVALUES:0.554712,0.698265,0.758675,0.716859,0.059738,650.000000,523.000000,127.000000,120.000000,0.000000,0.000000,0.000000,0.000000,0.000000,0.554712,0.698265,0.758675,0.716859,0.059738,650.000000,523.000000,127.000000,120.000000,0.000000,0.000000,0.000000,0.000000,0.000000;
#CREDIT:;
#NOTES:
// measure 0
0000
0000
0000
0000
,  // measure 1
0101
0010
0000
1000
0000
0010
0000
1000
,  // measure 2
0110
0001
0000
1000
0000
0010
0000
0100
,  // measure 3
0101
0010
0000
1000
0000
0001
0000
0010
,  // measure 4
1000
0001
1000
0010
,  // measure 5
1000
0100
0001
0020
0030
0010
1000
0001
,  // measure 6
0200
0000
0300
0001
0100
0010
0000
0001
,  // measure 7
2000
0000
3000
0000
0010
0001
0100
2000
,  // measure 8
0000
3000
0001
0200
0000
0000
0000
0300
,  // measure 9
1000
0010
0100
0001
1000
0100
0001
0010
,  // measure 10
1000
0010
0010
0100
1000
0001
0010
0100
,  // measure 11
0010
0001
0010
1000
0100
1000
0010
0001
,  // measure 12
0020
0000
0000
0000
0000
0000
0000
0000
0000
0030
0000
0000
0100
0000
0000
0000
1000
0000
0000
0000
0010
0000
0000
0000
,  // measure 13
0201
0000
0000
0000
0001
1000
0310
0002
,  // measure 14
0000
0000
0000
0100
0000
0000
0013
0000
,  // measure 15
2000
0000
0000
3000
,  // measure 16
2020
3030
0202
0303
,  // measure 17
1002
0000
0000
0000
1000
0100
0013
0200
,  // measure 18
0000
0000
0000
0002
0003
0000
0301
0000
,  // measure 19
0020
0000
0000
2000
0000
0000
3030
0000
,  // measure 20
0020
0000
0000
0002
0000
0000
0033
0000
,  // measure 21
2010
0000
0100
0000
0010
0000
0001
3000
,  // measure 22
0012
0100
1000
0103
,  // measure 23
0001
0010
1000
0200
0300
0010
0001
0010
,  // measure 24
2000
0000
0000
0000
0000
0000
3000
0000
0000
0010
0000
0000
0001
0000
0000
0000
0010
0000
0000
0000
0100
0000
0000
0000
,  // measure 25
0002
0000
0003
0000
0100
0001
1000
0002
,  // measure 26
0000
0003
1000
0020
0000
0000
0000
0030
,  // measure 27
1000
0001
0100
1000
0010
0100
0001
0010
,  // measure 28
0001
0001
0010
1000
0100
0100
1000
0010
,  // measure 29
0001
0100
1000
0100
0010
0001
0100
1000
,  // measure 30
0220
0000
0000
0330
0000
0000
0010
0000
1000
0000
0001
0000
,  // measure 31
1200
0000
0000
0000
0001
0010
0301
2000
,  // measure 32
0000
0000
0000
0010
0000
0000
0010
3000
,  // measure 33
0020
0000
0000
0030
,  // measure 34
2002
3003
0220
0330
,  // measure 35
0021
0000
0000
0000
1000
0001
0130
2000
,  // measure 36
0000
0000
0000
0010
0000
0000
3100
0000
,  // measure 37
0002
0000
0000
0003
,  // measure 38
2000
0000
0001
3010
,  // measure 39
1100
0011
0000
0101
0000
0110
0000
0201
,  // measure 40
0000
0300
1010
0101
,  // measure 41
0011
1100
0000
0110
0000
1100
0000
1002
,  // measure 42
0000
0003
1010
0110
,  // measure 43
1001
0110
0000
0110
0000
1001
0000
2010
,  // measure 44
0000
3000
0101
0110
,  // measure 45
0002
0003
0000
0020
0030
0000
1000
0000
,  // measure 46
0200
0300
0202
0303
,  // measure 47
1010
0011
0000
1010
0000
0011
0000
1200
,  // measure 48
0000
0300
1001
0101
,  // measure 49
0011
1100
0000
0110
0000
0011
0000
1002
,  // measure 50
0000
0003
0101
0110
,  // measure 51
0110
1001
0000
0101
0000
1010
0000
0012
,  // measure 52
0000
0003
1010
1100
,  // measure 53
1010
0000
0000
0101
0000
0000
1001
0000
,  // measure 54
0012
0003
2100
3000
,  // measure 55
1000
0100
0001
0010
1000
0100
0010
0001
,  // measure 56
0010
0010
1000
0100
0001
0010
0100
0001
,  // measure 57
1000
0100
0001
0010
1000
0100
0010
0010
,  // measure 58
0100
0100
0010
1000
0001
0100
0010
0010
,  // measure 59
0001
0001
0100
0010
0010
0100
0100
0001
,  // measure 60
0010
0010
0100
1000
0001
0001
0100
0100
,  // measure 61
0010
0100
0100
0001
1000
0001
0010
1000
,  // measure 62
0001
0010
0100
0001
1000
0100
0001
1000
,  // measure 63
0202
0000
0303
0000
1000
0010
0001
0200
,  // measure 64
0000
0000
0300
0022
0000
0000
0033
0000
,  // measure 65
2000
0000
3000
0000
0010
1000
0001
0020
,  // measure 66
0000
0030
0110
1001
,  // measure 67
0200
0000
0300
0000
1000
0001
0100
0002
,  // measure 68
0000
0003
0001
0010
,  // measure 69
2020
0000
0000
0000
0000
0000
3030
0202
,  // measure 70
0000
0000
0000
0303
,  // measure 71
0220
0000
0000
0000
0000
0000
0330
2020
,  // measure 72
0000
0000
0000
3030
,  // measure 73
0202
0000
0000
0000
0000
0000
0303
2020
,  // measure 74
0000
0000
0000
3030
,  // measure 75
0100
1000
0000
0001
0000
0010
0000
0100
,  // measure 76
0001
0010
1000
0001
0000
0010
0000
1000
,  // measure 77
0100
0001
0010
1000
0000
0010
0000
0010
,  // measure 78
2020
0000
0000
3030
0202
0000
0000
0303
,  // measure 79
1000
1000
0000
0010
0000
0100
0000
0001
,  // measure 80
1000
0010
0010
0100
0000
1000
0000
0001
,  // measure 81
1000
0000
0100
0000
0001
0000
1000
0000
0010
0000
0100
0000
,  // measure 82
0002
0000
0003
1000
0000
0000
0010
0000
,  // measure 83
2000
0000
0000
0000
0100
0000
0000
3000
,  // measure 84
0020
0000
0000
0000
0001
0000
0000
0030
,  // measure 85
0002
0000
0000
0000
0000
0000
0000
1000
,  // measure 86
0100
0010
0100
1000
0100
0010
0103
1000
,  // measure 87
2000
0000
0000
0000
0001
0010
0001
0100
,  // measure 88
0010
0001
0010
0100
0100
0000
0000
3000
,  // measure 89
0200
0000
0000
0010
0000
0000
0010
0000
,  // measure 90
0000
1000
0000
0000
1000
0000
1300
0000
,  // measure 91
0102
0000
0000
0000
0000
0000
1000
0100
0020
0000
0000
0000
0000
0000
0000
0000
,  // measure 92
0000
0000
0000
0000
0000
0000
0030
0003
,  // measure 93
0120
0000
0000
0100
0001
0000
0100
0000
,  // measure 94
1000
0100
0000
0000
0100
0000
0030
0000
,  // measure 95
2100
0000
0000
0000
0000
0000
0000
0000
0100
0010
0000
0000
0100
0010
0000
0000
,  // measure 96
0100
0010
0000
0000
0100
0010
0000
0000
0100
0010
0000
0000
3000
0000
0000
0010
,  // measure 97
0200
0000
1000
0010
,  // measure 98
0002
0000
0000
0000
0000
0000
0003
0000
0010
0000
0000
0000
0310
0000
0000
0010
,  // measure 99
1002
0000
0000
1000
0010
0000
1000
0000
,  // measure 100
0100
1000
0000
0010
0000
0100
0003
1000
,  // measure 101
0100
0000
0000
1010
0000
0000
1010
0000
,  // measure 102
0101
0000
0000
0011
0000
0000
1001
0000
,  // measure 103
0110
0000
0000
1010
0000
0000
1010
0000
,  // measure 104
0011
0000
0000
1010
0000
0000
0101
0000
,  // measure 105
1010
0000
0000
1010
0000
0000
0011
0000
,  // measure 106
1100
0000
0000
1010
0000
0000
0110
0000
,  // measure 107
0011
0000
0000
0101
0000
0000
1001
0000
,  // measure 108
0110
0000
0000
1010
0000
0000
1001
0000
,  // measure 109
0202
0000
0303
1010
0000
0000
0011
0000
,  // measure 110
2010
0000
3000
0110
0000
0000
0011
0000
,  // measure 111
1200
0000
0300
0011
0000
0000
1100
0000
,  // measure 112
0120
0000
0030
0101
0000
0000
0011
0000
,  // measure 113
0220
0000
0330
1100
0000
0000
0101
0000
,  // measure 114
1020
0000
0001
0030
0201
0000
1000
0300
,  // measure 115
0120
0000
0001
0030
0201
0000
1000
0300
,  // measure 116
0012
0000
1000
0003
2010
0000
0001
3000
,  // measure 117
1001
0100
0010
2000
3000
0010
0100
0001
,  // measure 118
2000
0000
3000
0001
0010
1000
0000
0001
,  // measure 119
0020
0000
0000
0030
1000
0010
0001
0001
,  // measure 120
0000
0000
0010
0002
0000
0000
0000
0003
,  // measure 121
1000
0100
0010
0001
1000
0010
0100
0100
,  // measure 122
0001
0001
0010
1000
0010
0001
0010
1000
,  // measure 123
0010
0100
0001
1000
0010
0010
1000
0001
,  // measure 124
0200
0000
0000
0000
0000
0000
0301
0000
0010
0000
0100
0000
,  // measure 125
0020
0000
0000
0000
1000
0001
1000
0230
,  // measure 126
0000
0000
0000
0020
0000
0030
2300
3000
,  // measure 127
0200
0000
0000
0300
,  // measure 128
0220
0330
2002
3003
,  // measure 129
2020
0000
0000
0000
0000
0000
3030
0101
;
