#VERSION:0.83;
#TITLE:運命;
#SUBTITLE:- ダンジョン飯 OP2;
#ARTIST:sumika;
#TITLETRANSLIT:Unmei;
#SUBTITLETRANSLIT:- Delicious in Dungeon OP2;
#ARTISTTRANSLIT:;
#GENRE:;
#ORIGIN:;
#CREDIT:Loak;
#BANNER:Unmei.png;
#BACKGROUND:Unmei-bg.png;
#PREVIEWVID:;
#JACKET:;
#CDIMAGE:;
#DISCIMAGE:;
#LYRICSPATH:;
#CDTITLE:cdtitle.png;
#MUSIC:Unmei.ogg;
#OFFSET:0.000000;
#SAMPLESTART:51.555000;
#SAMPLELENGTH:13.151000;
#SELECTABLE:YES;
#BPMS:0.000=146.000;
#STOPS:;
#DELAYS:;
#WARPS:;
#TIMESIGNATURES:0.000=4=4;
#TICKCOUNTS:0.000=4;
#COMBOS:0.000=1;
#SPEEDS:0.000=1.000=0.000=0;
#SCROLLS:0.000=1.000;
#FAKES:;
#LABELS:0.000=Song Start;
#BGCHANGES: 0.000=Unmei-bg.png=1.000=1=0=0=StretchNoLoop====,
99999=-nosongbg-=1.000=0=0=0
;
#KEYSOUNDS:;
#ATTACKS:
;

//---------------dance-single - ----------------
#NOTEDATA:;
#CHARTNAME:;
#STEPSTYPE:dance-single;
#DESCRIPTION:;
#CHARTSTYLE:;
#DIFFICULTY:Easy;
#METER:2;
#RADARVALUES:0.197863,0.201023,0.010992,0.010992,0.000000,126.000000,125.000000,1.000000,1.000000,0.000000,0.000000,0.000000,0.000000,0.000000,0.197863,0.201023,0.010992,0.010992,0.000000,126.000000,125.000000,1.000000,1.000000,0.000000,0.000000,0.000000,0.000000,0.000000;
#CREDIT:Loak;
#NOTES:
0000
0000
0000
0000
,
0000
0000
0000
0000
,
0000
0000
0000
0000
,
0001
0000
1000
0000
,
0010
1000
0010
0000
,
0100
0001
0100
0000
,
0001
0000
1000
0000
,
0100
0000
0010
0000
,
0100
0000
1000
0000
,
0100
0010
0001
0000
,
1000
0010
1000
0000
,
0001
0000
1000
0100
,
0000
0000
0010
0000
0100
1000
0000
0000
,
0000
0001
0000
0100
0000
0000
0000
0010
,
0000
1000
0000
0001
0000
0000
0000
1000
,
0000
0000
0000
0100
0000
1000
0000
0100
,
0000
0000
0000
0010
0000
0001
0000
0010
,
0000
0000
0000
0001
0000
0000
0000
1000
,
0000
0000
0000
0010
0000
0000
0000
0100
,
0000
0000
0000
0001
0000
0100
0000
0001
,
0000
0000
0000
1000
0000
0010
0000
1000
,
0000
0000
0000
0001
0000
0000
0000
0010
,
0000
0000
0000
0100
0000
0000
0000
0010
,
0000
0000
0000
0100
0000
0000
0000
0010
,
0000
0000
0000
0001
0000
0000
0000
1000
,
0000
0000
0000
0010
0000
0000
0000
0100
,
0000
0010
0000
0100
0000
0000
0000
0001
,
0000
0000
0000
0100
0000
0000
0000
0010
,
0000
0000
0000
1000
0000
0001
0000
1000
,
0000
0000
0000
0001
0000
0010
0000
0001
,
0000
0000
0000
1000
0000
0010
0000
0100
,
0000
0000
0000
0001
0000
0000
0000
0100
,
0000
0000
0000
0010
0000
0100
0000
0001
,
0000
0000
0000
1000
0000
0001
0000
1000
,
0000
0000
0000
0100
0000
0010
0000
0100
,
0000
0000
0000
0010
0000
0000
0000
0001
,
0000
0000
0000
0010
0000
0001
0000
0010
,
0000
0000
0000
0100
0000
0010
0000
0100
,
0000
0000
0000
1000
0000
0000
0000
0000
,
1001
0000
0000
0001
0000
0000
0000
0100
,
0000
0000
0000
0010
0000
0100
0000
0010
,
0000
0000
0000
1000
0000
0010
0000
1000
,
0000
0000
0000
0001
0000
0000
0000
0010
,
0000
0000
0000
0100
0000
0000
0000
0010
,
0000
0000
0000
0100
0000
1000
0000
0001
,
0000
0000
0000
1000
0000
0000
0000
0001
,
0000
0000
0000
0100
0000
0000
0000
0000
,
0000
0010
0000
1000
0000
0000
0000
0001
,
0000
0000
0000
0010
0000
0000
0000
0100
,
0000
1000
0000
0000
0000
0100
0000
0010
,
0001
0000
1000
0010
,
0000
1000
0010
0200
,
0000
0300
0000
0000
;

//---------------dance-single - ----------------
#NOTEDATA:;
#CHARTNAME:;
#STEPSTYPE:dance-single;
#DESCRIPTION:;
#CHARTSTYLE:;
#DIFFICULTY:Medium;
#METER:5;
#RADARVALUES:0.362749,0.373329,0.010992,0.131909,0.000000,231.000000,230.000000,1.000000,12.000000,0.000000,0.000000,0.000000,0.000000,0.000000,0.362749,0.373329,0.010992,0.131909,0.000000,231.000000,230.000000,1.000000,12.000000,0.000000,0.000000,0.000000,0.000000,0.000000;
#CREDIT:Loak;
#NOTES:
0000
0000
0000
0000
,
0000
0000
0000
0000
,
0000
0000
0000
0000
,
0002
0000
0000
1003
0010
1000
0000
0001
,
0010
0000
0100
0000
1000
0000
0001
1000
,
0001
0000
0100
0000
0010
0000
0100
0010
,
1000
0001
1000
0100
,
0020
0000
0000
0031
1000
0001
0000
1000
,
0010
0000
0100
0000
0001
0000
1000
0001
,
1000
0000
0100
0000
0010
0000
0001
1000
,
0001
1000
0010
0100
0001
0000
1000
0000
,
0100
0000
0010
0000
0001
0010
0001
0000
,
1000
0000
0001
0100
0001
0100
0000
0010
,
0000
1000
0010
1000
0000
0001
0000
0010
,
0001
1000
0001
0200
0000
0000
0310
0100
,
0010
0000
1000
0010
1000
0001
0000
0010
,
0000
0001
1000
0001
0000
0100
0000
0010
,
0000
1000
0010
1000
0001
1000
0000
0100
,
0000
0010
0000
0002
0000
0000
1003
0001
,
1000
0000
0001
0100
0000
0010
0000
1000
,
0000
0001
1000
0100
0000
0010
0000
0001
,
0000
1000
0001
1000
0010
0100
0000
0001
,
0000
1000
0000
0100
0000
0010
0001
0010
,
0000
0001
0000
1000
0000
0010
0100
0001
,
0000
0000
0100
0010
0000
0000
1000
0010
,
0000
1000
0001
0000
1000
0100
0000
0010
,
0100
0010
0100
1000
0000
0001
0100
0000
,
0010
1000
0010
0000
0100
0001
0000
0010
,
0000
0000
0000
0100
0000
1000
0000
0100
,
0010
0001
0010
0100
0000
1000
0001
0000
,
1000
0010
0200
0000
0301
0100
0010
0000
,
0000
0000
0000
2000
0000
0000
0000
3001
,
0000
0000
1000
0100
0000
1000
0001
0100
,
0000
0000
0001
0010
0000
0001
1000
0010
,
0000
0100
0000
0001
0000
0100
0010
1000
,
0000
0000
0000
0002
0000
0000
0000
1003
,
0000
0000
0001
0010
0000
0100
0010
0001
,
0000
1000
0000
0010
0000
0100
0000
0001
,
0000
1000
0000
0002
0000
0000
0003
0000
,
1001
0000
0000
2000
0000
0000
0000
3010
,
0000
0000
1000
0100
0000
0010
0100
1000
,
0000
0000
0001
0100
0000
0010
0100
0001
,
0000
1000
0000
0001
0000
0010
0000
0100
,
0000
0000
0000
2000
0000
0000
0000
3001
,
0000
0000
1000
0010
0000
0100
0010
0100
,
0000
0001
0000
0100
0000
0010
0000
1000
,
0000
0001
0000
0020
0000
0000
0030
0000
,
0000
0100
0000
0010
0000
0001
0000
1000
,
0000
0001
0000
0100
0000
0010
0000
1000
,
0010
1000
0000
0001
0000
0010
0100
0010
,
0100
0000
1000
0000
0001
1000
0001
0000
,
0100
0000
0010
1000
0010
1000
0002
0000
,
0000
0003
0000
0000
;

//---------------dance-single - ----------------
#NOTEDATA:;
#CHARTNAME:;
#STEPSTYPE:dance-single;
#DESCRIPTION:;
#CHARTSTYLE:;
#DIFFICULTY:Hard;
#METER:7;
#RADARVALUES:0.464821,0.463879,0.120916,0.263817,0.093435,296.000000,285.000000,11.000000,24.000000,0.000000,0.000000,0.000000,0.000000,0.000000,0.464821,0.463879,0.120916,0.263817,0.093435,296.000000,285.000000,11.000000,24.000000,0.000000,0.000000,0.000000,0.000000,0.000000;
#CREDIT:Loak;
#NOTES:
0000
0000
0000
0000
,
0000
0000
0000
0000
,
0000
0000
0000
0000
,
0002
0000
0000
1003
0001
0010
0000
0100
,
1000
0001
1000
0010
0100
0000
0001
0100
,
0010
0000
0101
0000
1010
0000
0001
1000
,
0001
0010
0100
1000
0001
1000
0010
0000
,
0102
0000
0000
0103
0001
1000
0000
0001
,
0010
0001
1000
0010
0100
0000
0001
0010
,
0100
0000
1100
0000
0011
0000
1000
0001
,
1000
0010
0100
0001
2000
0000
3200
0000
,
0310
0000
0000
0001
0000
1000
0000
0000
0010
0000
0010
0000
1000
0000
0000
0001
,
0000
0010
0000
0000
0100
0000
0100
0000
1000
0000
0001
0000
0000
1000
0000
0010
,
0000
0000
1000
0000
1000
0000
0001
0000
0000
0010
0000
0100
0000
0000
1000
0000
,
0100
0010
0001
0200
0000
0300
0010
1000
,
0001
0000
0010
0001
0100
0010
1000
0001
,
0000
1000
0100
0010
0000
1100
0000
0011
,
0000
0001
0100
0010
0100
0001
1000
0010
,
1000
0100
0000
0020
0000
0030
0001
0100
,
0010
0000
1000
0010
0100
0001
1000
0001
,
0000
0010
0100
1000
0000
0101
0000
1010
,
0000
0001
1000
0010
0100
0001
0100
0010
,
1000
0001
0000
1000
0100
0010
0100
0000
,
1000
0000
0010
0000
1000
0001
1000
0010
,
0000
0000
0000
0000
0100
0001
0100
0000
0000
0000
0000
0000
0001
0000
1000
0000
,
0000
0001
0020
0000
0130
1000
0100
0010
,
0100
1000
0001
1000
0010
0100
0010
0000
,
0100
0001
1000
0000
0001
0010
0000
0200
,
0000
0300
0000
1000
0001
1000
0010
1000
,
0001
0010
0001
0100
0010
1000
0010
0000
,
1000
0002
1000
0000
0013
0100
1000
0000
,
0000
0000
0000
0002
0000
0103
0000
2000
,
0000
3001
0010
0100
0000
0010
0001
0200
,
0000
0310
1000
0100
0000
0010
0100
1000
,
0001
1000
0010
0100
0000
0001
0100
0010
,
0000
1000
0000
0002
0000
0013
0000
2000
,
0000
3001
0100
0010
0000
1000
0010
0100
,
0000
0001
0000
0010
0000
0100
0000
0010
,
0000
0001
0000
1000
0001
1000
0010
0000
,
0220
0000
0330
2000
0000
3100
0000
0002
,
0000
1003
0010
0002
0000
0013
1000
0001
,
0000
1000
0010
0002
0000
0013
1000
0001
,
0100
0001
0100
0010
1000
0001
1000
0100
,
0000
0010
0000
0002
0000
0013
0000
2000
,
0000
3001
0100
2000
0000
3100
0001
1000
,
0000
0001
0000
0010
0000
0100
0000
0010
,
0000
0001
0000
1000
0010
0100
0000
0001
,
0100
0010
1000
1001
0000
0001
0000
0100
,
0000
0000
0010
0000
0000
0000
1000
0000
0000
0001
0000
1000
0000
0000
0100
0000
,
0100
0000
0010
0000
0000
0001
0000
1000
0000
0000
0001
0000
0001
0000
0100
0000
,
0010
0000
0000
1000
0000
0001
0000
0000
0010
0000
0010
0000
0100
0000
0000
1000
,
0000
0100
0000
0000
0010
0000
0001
0000
0100
0000
0010
0000
2000
0000
0000
0000
,
0000
0000
0000
3000
;

//---------------dance-single - ----------------
#NOTEDATA:;
#CHARTNAME:;
#STEPSTYPE:dance-single;
#DESCRIPTION:;
#CHARTSTYLE:;
#DIFFICULTY:Challenge;
#METER:9;
#RADARVALUES:0.659544,0.811788,0.362749,0.087939,0.505650,420.000000,387.000000,33.000000,8.000000,0.000000,0.000000,1.000000,0.000000,0.000000,0.659544,0.811788,0.362749,0.087939,0.505650,420.000000,387.000000,33.000000,8.000000,0.000000,0.000000,1.000000,0.000000,0.000000;
#CREDIT:Loak;
#NOTES:
0000
0000
0000
0000
,
0000
0000
0000
0000
,
0000
0000
0000
0000
,
0002
0000
0000
1003
0001
0010
0000
0100
,
1000
0001
1000
0010
0100
0000
0001
0100
,
0010
0000
0101
0000
1010
0000
0001
1000
,
0001
0010
0100
1000
0001
1000
0010
0000
,
0102
0000
0000
0103
0001
1000
0000
0001
,
0010
0001
1000
0010
0100
0000
0001
0010
,
0100
0000
1100
0000
0011
0000
1000
0001
,
1000
0000
0010
0000
0100
0000
0001
1000
0001
1000
0000
0100
0010
0000
0100
1000
,
0001
0001
0000
1000
0000
0001
0000
1000
0011
0000
1100
0000
0001
0001
0000
1000
,
0000
0100
0000
0010
0101
0000
1010
0000
0011
0000
1000
1000
0000
0010
0000
1000
,
0000
0001
1100
0000
0011
0000
1000
1000
0000
0001
0000
0010
0000
0100
1010
0000
,
0101
0000
1000
0001
1000
0001
0200
0000
0310
0000
1000
0010
1000
0000
0001
0000
,
0010
0100
1000
0000
0100
0010
0001
1000
0001
0000
0100
0000
0010
1000
0010
0000
,
0100
0000
0001
1000
0001
0000
0010
0000
0000
0000
1100
0000
0000
0000
0011
0000
,
0000
0001
0100
0010
0100
0001
1000
0010
,
1000
0000
0100
0000
0000
0000
0011
0000
0010
0000
0100
1000
0100
0000
0010
0000
,
0001
1000
0010
0000
0100
0001
1000
0001
0010
0000
0100
0000
1000
0100
0010
0000
,
0001
0000
1000
0010
1000
0000
0001
0000
0000
0000
0101
0000
0000
0000
1010
0000
,
0000
0000
0001
0000
1000
0000
0100
0000
0010
0001
1000
0001
0100
0010
1000
0000
,
0001
0010
0001
0000
1000
0100
1000
0000
0001
0000
1000
0000
0010
0000
0000
0000
,
0100
0000
0001
0000
1000
0001
0010
0100
,
0000
0000
0000
0000
1000
0001
1000
0000
0000
0000
0000
0000
0001
0000
0100
0000
,
0000
0000
0001
0000
1000
0000
0000
0000
0100
0000
1000
0000
0100
0000
0010
0100
,
0010
0000
0001
0010
0001
0000
1000
0000
0010
0000
0100
0000
0010
0000
0000
0000
,
1000
0001
0010
0000
0100
1000
0000
0020
,
0000
0000
0030
0000
1000
0001
1000
0000
0001
0010
0100
1000
0010
1000
0001
0010
,
0001
1000
0010
0100
0001
1000
0100
0000
0010
0000
0100
0000
0010
0000
0000
0000
,
0001
1000
1020
0000
0130
0001
1000
0000
,
0000
0000
0000
0000
0000
0000
0001
0000
0000
1000
0100
0000
0010
0100
1000
0001
,
1000
0000
0010
0000
0100
0000
0001
0000
0000
0000
0100
0000
0010
0000
1000
0001
,
0010
0000
0100
0000
1000
0000
0010
0000
0000
0000
1000
0000
0001
0000
0100
0001
,
1000
0001
0010
0100
0000
1000
0001
1000
,
0010
0100
0001
0000
1000
0100
0010
0000
0000
0001
0010
0000
0100
1000
0001
1000
,
0010
0000
0100
0000
0001
0000
1000
0000
0000
0000
0001
0000
0100
0000
0010
1000
,
0010
0100
0000
0001
0000
0010
0000
0100
,
0000
1000
0000
0001
0100
0010
1000
0000
,
1001
0000
0004
0000
0000
0000
1003
0000
0000
0100
1000
0000
0001
1000
0001
0100
,
0010
0000
1000
0000
0001
0000
0020
0000
0000
0000
0130
0000
0010
0000
0001
1000
,
0010
1000
0001
0020
0000
0031
1000
0010
,
0100
0000
0001
0000
0100
0000
0010
0000
1000
0000
0001
0000
1000
0000
0100
0010
,
0001
1000
0001
0100
0010
1000
0001
0000
0000
1000
0010
0000
1000
0001
0100
0001
,
1000
0100
0010
0001
0000
0010
0100
1000
,
0000
0001
0000
0100
0000
0010
0000
1000
,
0000
0000
0001
0000
0000
0000
1000
0000
0010
0000
0100
0001
0000
1000
0100
0000
,
0010
0001
0100
0000
0010
1000
0100
0000
0000
0000
1000
0000
0000
0000
1001
0000
,
0000
0000
1000
0000
0000
0000
0001
0001
0000
1000
0000
0001
0000
0100
0011
0000
,
1100
0000
0001
0001
0000
1000
0000
0100
0000
0010
0101
0000
1010
0000
0011
0000
,
1000
1000
0000
0010
0000
1000
0000
0001
1100
0000
0011
0000
1000
1000
0000
0001
,
0000
1000
0000
0100
1010
0000
0101
0000
1100
0000
0011
0000
0200
0000
0000
0000
,
0000
0000
0000
0300
;

//---------------dance-single - ----------------
#NOTEDATA:;
#CHARTNAME:;
#STEPSTYPE:dance-single;
#DESCRIPTION:;
#CHARTSTYLE:;
#DIFFICULTY:Beginner;
#METER:1;
#RADARVALUES:0.080087,0.085328,0.000000,0.000000,0.000000,51.000000,51.000000,0.000000,0.000000,0.000000,0.000000,0.000000,0.000000,0.000000,0.080087,0.085328,0.000000,0.000000,0.000000,51.000000,51.000000,0.000000,0.000000,0.000000,0.000000,0.000000,0.000000,0.000000;
#CREDIT:Loak;
#NOTES:
// measure 0
0000
0000
0000
0000
,  // measure 1
0000
0000
0000
0000
,  // measure 2
0000
0000
0000
0000
,  // measure 3
0001
0000
0000
0000
,  // measure 4
1000
0000
0000
0000
,  // measure 5
0001
0000
0000
0000
,  // measure 6
1000
0000
0000
0000
,  // measure 7
0100
0000
0000
0000
,  // measure 8
0010
0000
0000
0000
,  // measure 9
0100
0000
0000
0000
,  // measure 10
0010
0000
0000
0000
,  // measure 11
0001
0000
0000
1000
,  // measure 12
0000
0000
0000
0000
0000
0010
0000
0000
,  // measure 13
0000
0000
0000
0100
0000
0000
0000
0000
,  // measure 14
0000
0000
0000
0001
0000
0000
0000
0000
,  // measure 15
0000
0000
0000
0100
0000
0000
0000
0000
,  // measure 16
0000
0000
0000
0001
0000
0000
0000
0000
,  // measure 17
0000
0000
0000
1000
0000
0000
0000
0000
,  // measure 18
0000
0000
0000
0100
0000
0000
0000
0000
,  // measure 19
0000
0000
0000
0010
0000
0000
0000
0000
,  // measure 20
0000
0000
0000
0100
0000
0000
0000
0000
,  // measure 21
0000
0000
0000
0010
0000
0000
0000
0000
,  // measure 22
0000
0000
0000
0001
0000
0000
0000
0000
,  // measure 23
0000
0000
0000
1000
0000
0000
0000
0000
,  // measure 24
0000
0000
0000
0001
0000
0000
0000
0000
,  // measure 25
0000
0000
0000
0010
0000
0000
0000
0000
,  // measure 26
0000
0000
0000
0100
0000
0000
0000
0000
,  // measure 27
0000
0000
0000
1000
0000
0000
0000
0000
,  // measure 28
0000
0000
0000
0100
0000
0000
0000
0000
,  // measure 29
0000
0000
0000
1000
0000
0000
0000
0000
,  // measure 30
0000
0000
0000
0001
0000
0000
0000
0000
,  // measure 31
0000
0000
0000
0100
0000
0000
0000
0000
,  // measure 32
0000
0000
0000
0001
0000
0000
0000
0000
,  // measure 33
0000
0000
0000
0100
0000
0000
0000
0000
,  // measure 34
0000
0000
0000
0010
0000
0000
0000
0000
,  // measure 35
0000
0000
0000
1000
0000
0000
0000
0000
,  // measure 36
0000
0000
0000
0001
0000
0000
0000
0000
,  // measure 37
0000
0000
0000
1000
0000
0000
0000
0000
,  // measure 38
0000
0000
0000
0010
0000
0000
0000
0000
,  // measure 39
0000
0000
0000
0100
0000
0000
0000
0000
,  // measure 40
0000
0000
0000
0001
0000
0000
0000
0000
,  // measure 41
0000
0000
0000
1000
0000
0000
0000
0000
,  // measure 42
0000
0000
0000
0001
0000
0000
0000
0000
,  // measure 43
0000
0000
0000
0010
0000
0000
0000
0000
,  // measure 44
0000
0000
0000
0100
0000
0000
0000
0000
,  // measure 45
0000
0000
0000
0010
0000
0000
0000
0000
,  // measure 46
0000
0000
0000
0100
0000
0000
0000
0000
,  // measure 47
0000
0000
0000
1000
0000
0000
0000
0000
,  // measure 48
0000
0000
0000
0100
0000
0000
0000
0000
,  // measure 49
0000
0010
0000
0000
0000
0000
0000
0000
,  // measure 50
0001
0000
0000
1000
,  // measure 51
0000
0000
0000
0010
;
