#TITLE:Triple Baka;
#SUBTITLE:;
#ARTIST:Lazame-P feat. Hatsune Miku, Kasane Teto & Akita Neru;
#TITLETRANSLIT:;
#SUBTITLETRANSLIT:;
#ARTISTTRANSLIT:;
#GENRE:;
#CREDIT:;
#BANNER:Triple Baka - bn.png;
#BACKGROUND:Triple Baka - bg.png;
#LYRICSPATH:;
#CDTITLE:cdtitlegpop.png;
#MUSIC:Triple Baka.ogg;
#OFFSET:1.314;
#SAMPLESTART:93.365;
#SAMPLELENGTH:21.332;
#SELECTABLE:YES;
#BPMS:0.000=180.000;
#STOPS:;
#BGCHANGES:2.750=Triple Baka.avi=1.000=1=0=0=StretchNoLoop==CrossFade==,
398.000=Triple Baka - bg.png=1.000=1=0=1===CrossFade==,
99999=-nosongbg-=1.000=0=0=0 // don't automatically add -songbackground-
;
#KEYSOUNDS:;

//---------------dance-single - ----------------
#NOTES:
     dance-single:
     :
     Challenge:
     9:
     0.910,0.984,0.366,0.574,0.261:
0000
0000
0000
0000
,
0000
0000
0000
0000
,
0000
0000
0000
0000
,
0000
0000
0000
0000
,
0000
0000
0000
0000
,
1000
0100
1000
0000
0001
0000
0100
0000
0010
1000
0010
0000
0100
0000
0010
0000
,
1000
0100
1000
0000
0001
0000
0100
0000
0001
1000
0001
0000
0010
0000
0100
0000
,
1000
0100
1000
0000
0010
0000
0100
0000
0001
0010
0001
0000
1000
0000
0100
0000
,
0010
0100
0020
0000
0230
0000
2300
0000
3001
0100
0020
0000
2030
0000
3002
0000
,
0103
0010
1000
0000
0100
0000
0010
0000
0001
1000
0100
0000
1000
0000
0010
0000
,
0100
0001
1000
0000
0001
0000
0100
0000
0010
1000
0100
0000
0010
0000
0001
0000
,
1000
0100
0010
0000
0001
0000
0100
0000
0001
0010
0100
0000
1000
0000
0010
0000
,
0100
0001
2000
0000
3020
0000
0230
0000
0301
1000
0002
0000
0023
0000
0230
0000
,
1300
0010
0010
0100
0100
0001
0010
0100
,
2000
0000
3001
0200
0000
0310
10M0
0002
,
0000
0013
1100
1000
0000
0001
0100
0001
,
0000
0000
1000
0000
0100
0000
0010
0000
0001
0000
0001
0000
1000
0010
0100
0010
,
2000
0000
3001
0010
0200
0000
2300
0000
,
3020
0000
0130
0001
1000
1000
0010
0200
,
0001
0301
1000
0001
0000
0010
0100
1000
,
0002
0000
0203
0000
2300
0000
3020
0001
,
0031
1000
1000
0010
0010
0100
0001
0001
,
1000
0100
0010
0001
1000
1000
M001
0200
,
0000
0310
1010
1000
0000
0001
0010
0001
,
0000
0000
1000
0000
0010
0000
0100
0000
0001
0000
0001
0000
1000
0100
0010
0100
,
2000
0001
3001
0100
0010
0010
1000
1000
,
0001
0001
0010
0010
0100
2000
0001
3001
,
0000
0101
0100
0010
1000
1000
0001
0100
,
0020
0000
0000
0000
1030
0000
1100
0000
0000
0000
1001
0000
0001
0000
1000
0100
,
0010
0001
0100
0010
1000
0010
0100
0001
,
0010
0100
1000
0002
0000
1003
MM00
1100
,
0100
0010
0001
0100
0010
1000
0010
0100
,
0001
0010
0100
2000
0000
3001
0M0M
0101
,
0100
0010
0100
0010
1000
0100
0010
0001
,
0100
0010
1000
0020
0000
0130
0MM0
0110
,
0010
0000
1000
0000
0010
0000
0100
0000
0001
0000
0010
0000
0100
0000
1000
0001
,
1000
0000
0001
0010
0100
0000
1000
0000
0000
0000
11MM
0000
MM11
0000
0000
0000
,
1001
1000
1001
0001
1001
1000
0000
0001
,
0200
0010
0310
1000
0001
0100
0001
0010
,
0002
0000
0203
0000
2300
0000
3002
1000
,
2003
0000
3200
0000
0302
0000
2003
0100
,
3100
0000
0010
0001
1001
0000
1000
0100
,
0021
0000
2030
0000
3200
0000
0302
1000
,
1003
0100
0010
0001
0100
0010
1000
0001
,
MMMM
0000
1000
0000
0100
0000
0001
0000
0100
0000
1000
0000
1000
0000
0001
1000
,
0001
1000
1001
0001
1001
1000
0000
0001
,
0200
0010
0310
1000
0001
0100
0010
1000
,
0001
0100
0010
0100
1000
0100
0010
1000
,
0002
0000
0013
0100
2000
0000
3001
0100
,
1001
0000
1010
0010
0100
0000
0011
0010
,
0100
0010
1000
0010
0001
0000
1010
1000
,
0001
0010
0100
1000
0010
0100
0001
0100
,
0M00
0000
0001
0000
0100
0000
1000
0000
0100
0000
0001
0000
0001
0000
1000
0100
,
0010
0000
0001
1000
0100
0000
0010
0001
1000
0000
0010
0000
0100
0000
0001
0000
,
0000
0000
1000
0001
2000
0000
0000
0000
3000
0000
0110
0000
1001
0000
1000
0001
,
0100
0000
0100
0000
0100
0000
0010
0000
0100
0010
0000
0100
0000
0000
0001
0000
,
1000
0000
1000
0000
1000
0000
0001
0000
1000
0001
0000
1000
0000
0000
0010
0000
,
0100
0000
0100
0000
0100
0000
0001
0000
0100
0001
0000
0100
0000
0000
0010
0000
,
1000
0000
1000
0000
1000
0000
0010
0000
1000
0010
0000
1000
0000
0000
0001
0000
,
0010
0000
0010
0000
0010
0000
0100
0000
0010
0100
0000
0010
0000
0000
0001
0000
,
1000
0000
1000
0000
1000
0000
0100
0000
1000
0100
0000
1000
0000
0000
0001
0000
,
0100
0000
0100
0000
0100
0000
0010
0000
0100
0010
0000
0100
0000
0000
0001
0000
,
1000
0000
1000
0000
1000
0000
1000
0000
2000
0000
3200
0000
0320
0000
0031
1000
,
0100
0010
0001
0100
0010
1000
0010
0100
,
0001
0010
0100
1000
MMMM
1001
0000
0101
,
0100
0010
1000
0001
0010
0100
1000
0100
,
0010
0001
0100
0010
MMMM
1001
0000
1100
,
0100
0010
0001
1000
0010
0100
0001
0100
,
0010
1000
0100
0010
MMMM
0011
0000
1001
,
1000
0000
0100
0000
1000
0000
0100
0000
0010
0000
0001
0000
0010
0000
0001
1000
,
0100
0000
0010
0001
0010
0000
1001
0000
0000
0000
M1M1
0000
1M1M
0000
0000
0000
,
1001
1000
1001
0001
1001
1000
0000
0001
,
2000
0100
3100
0010
0001
0100
0010
1000
,
0002
0000
0203
0000
2300
0000
3010
0001
,
2000
0000
3200
0000
0302
0000
0013
1000
,
1100
0000
0010
0001
1100
0000
0010
0100
,
2001
0000
0010
0100
3100
0000
0010
0100
,
0011
0001
1000
0010
0100
0001
1000
0100
,
0M00
0000
1000
0000
0010
0000
0001
0000
0010
0000
1000
0000
1000
0000
0001
0010
,
0100
0010
0110
0100
0110
0010
0000
0001
,
0200
0010
0310
1000
0001
1000
0100
0010
,
0001
0010
0100
0010
1000
0010
0001
0100
,
0020
0000
0000
0000
1030
0000
0001
0100
0020
0000
0000
0000
2030
0000
0001
0000
,
3001
0000
0011
0010
0100
0000
1001
0001
,
0200
0000
1000
0010
0310
0000
1100
0100
,
0010
0001
0010
0100
1000
0010
0100
0001
,
000M
0000
1000
0000
0100
0000
0100
0000
1000
0000
0001
0000
0001
0000
0100
0010
,
1000
0000
0001
1000
0001
0000
1000
0001
1000
0000
0010
0000
0100
0000
0001
0000
,
0001
0000
1000
0100
0010
0000
M001
0000
01M0
0000
0M10
0000
100M
0000
0000
0000
,
0001
1000
0001
0000
0100
0000
0010
0000
1000
0100
0010
0000
0001
0000
0010
0000
,
0100
1000
0001
0000
0100
0000
0010
0000
0100
0001
1000
0000
0001
0000
0100
0000
,
0001
0010
0100
0000
1000
0000
0100
0000
0010
0001
1000
0000
0010
0000
0100
0000
,
0001
1000
0200
0000
0320
0000
0032
0000
1003
0100
2000
0000
3020
0000
0230
0000
,
0301
0010
0001
0000
0100
0000
0010
0000
1000
0001
0100
0000
0010
0000
1000
0000
,
0100
0010
0001
0000
0100
0000
0010
0000
1000
0001
0010
0000
0100
0000
1000
0000
,
0100
0010
0001
0000
0100
0000
0001
0000
0010
0100
1000
0000
0010
0000
0100
0000
,
0001
0010
0002
0000
0203
0000
0320
0000
1030
0100
2000
0000
3002
0000
0103
0000
,
0M00
0000
0001
1000
0100
0000
1000
0000
1100
0000
0100
0000
1100
0000
1000
0000
,
M000
0000
0010
1000
0001
0000
1000
0000
1010
0000
0010
0000
1010
0000
1000
0000
,
2002
0000
0000
0000
,
0000
0000
0000
0000
,
0000
0000
3003
0000
;

//---------------dance-single - ----------------
#NOTES:
     dance-single:
     :
     Hard:
     8:
     0.702,0.606,0.358,0.440,0.060:
0000
0000
0000
0000
,
0000
0000
0000
0000
,
0000
0000
0000
0000
,
0000
0000
0000
0000
,
0000
0000
0000
0000
,
1000
0001
0100
0000
0010
1000
0001
0000
,
0010
0100
1000
0000
0100
0010
0001
0000
,
0100
0010
1000
0000
0001
0100
0001
0000
,
1000
0100
0010
0001
0100
0010
1000
0010
,
0100
0001
0100
0000
0010
1000
0001
0000
,
0010
0100
1000
0000
0100
0010
0001
0000
,
0100
0010
0100
0000
0001
1000
0001
0000
,
1000
0100
0010
0001
0100
0010
0100
0001
,
0000
1000
0100
0010
0001
0100
0010
0100
,
0002
0000
1003
0200
0000
0310
0000
0002
,
0000
1000
1003
0000
0010
0000
1001
0000
,
1000
0001
0100
0001
1000
0100
0010
0001
,
2000
0100
3001
0101
,
1020
0000
0000
1030
0001
0100
0001
1000
,
0200
0010
0310
0001
,
2000
0100
0001
3100
,
1001
0001
0100
0001
1000
0100
0010
0001
,
1000
1000
0000
0001
0100
0100
0000
0020
,
0000
1000
1030
0000
0001
0000
1100
0000
,
0001
0100
0010
0010
1000
0100
0010
0001
,
2000
3000
0001
1100
,
0010
1001
0100
0011
,
1000
0001
0100
0001
1000
0100
0010
0001
,
2000
0000
0001
3001
0000
0101
1100
0000
,
1000
0100
0010
0001
0100
0010
1000
0010
,
0100
0001
0010
0200
0000
1000
0000
1300
,
0001
0100
0010
0100
0001
0010
0100
1000
,
0100
0010
0001
2000
0000
0001
0000
3001
,
0100
0010
0100
0001
0010
0100
1000
0100
,
0010
0001
1000
0020
0000
0100
0000
0130
,
0001
1000
0100
0010
0001
0100
0010
1000
,
0002
0000
0000
0003
0000
1100
0101
0000
,
1000
1000
0001
0001
0100
0100
0000
0010
,
2000
0000
3001
0100
0100
0010
1000
0100
,
0020
0000
0032
0000
0203
0000
0310
1000
,
0002
0203
0320
1030
,
0011
0000
0100
0010
1010
0000
0001
0010
,
0110
1100
0101
0010
,
2000
0000
0000
0001
0002
0000
0000
3003
,
0000
0100
0010
0100
0001
1000
0000
0000
,
0001
0001
1000
1000
0100
0100
0000
0010
,
0002
0000
0000
0103
0010
1000
0010
0100
,
0002
0000
2003
0000
3200
0000
0310
0001
,
2000
3020
0230
0301
,
1100
0000
0100
0010
0011
0000
0100
0010
,
1010
1001
0101
1000
,
0102
0000
0000
1000
2000
0000
0000
3003
,
0000
0100
0010
0100
0010
1000
2000
0000
,
3000
0001
0100
0010
0010
1000
0200
0020
,
0000
0000
0000
0330
0000
1000
0001
0000
,
1000
0000
0100
0000
1000
0000
0100
0000
1000
0100
0000
1000
0000
0000
0100
0000
,
0010
0000
0001
0000
0010
0000
0001
0000
0010
0001
0000
0010
0000
0000
0001
0000
,
0100
0000
0010
0000
0100
0000
0010
0000
0100
0010
0000
0100
0000
0000
0010
0000
,
1000
0000
0001
0000
1000
0000
0001
0000
1000
0001
0000
1000
0000
0000
0001
0000
,
1000
0000
0010
0000
1000
0000
0010
0000
1000
0010
0000
1000
0000
0000
0010
0000
,
0100
0000
0001
0000
0100
0000
0001
0000
0100
0001
0000
0100
0000
0000
0001
0000
,
1000
0000
0001
0000
1000
0000
0001
0000
1000
0001
0000
1000
0000
0000
0001
0000
,
0100
0100
0010
0010
2000
0000
3000
0000
,
0001
0000
0100
0010
0000
0010
1000
0000
,
0001
0000
1100
0000
0001
0101
0000
0101
,
0100
0010
0100
0001
0000
0001
1000
0000
,
0010
0000
0101
0000
1000
1100
0000
1100
,
0100
0010
0001
1000
0000
1000
0010
0000
,
0100
0000
0011
0000
1000
1001
0000
1001
,
0001
0100
0001
0100
0010
1000
0010
1000
,
0001
0010
0100
2000
0000
0001
3001
0000
,
1001
1000
0010
0010
0100
0100
0000
0001
,
2000
0000
0000
3100
0010
0001
0100
0010
,
2000
0000
3200
0000
0302
0000
0103
1000
,
0020
0032
0023
1030
,
1100
0000
0100
0010
0011
0000
0001
1000
,
1100
1001
0101
0010
,
2100
0000
0000
0001
0002
0000
0000
3003
,
0000
0001
0100
0010
1000
0001
0000
0000
,
1001
0001
0100
0100
0010
0010
0000
1000
,
0002
0000
0000
0103
0010
1000
0010
0100
,
0002
0000
0023
0000
2030
0000
3100
0001
,
0020
0032
0203
0310
,
1001
0000
0100
0010
1100
0000
0001
0010
,
1100
1001
0101
1000
,
0102
0000
0000
1000
2000
0000
0000
3003
,
0000
0001
0010
0100
1000
0001
0002
0000
,
0003
1000
0100
0010
0001
0100
0010
0020
,
0000
0000
0000
0100
0130
0001
1000
0000
,
1001
0001
0010
0000
0100
1000
0010
0000
,
0100
0001
1000
0000
0001
0100
0001
0000
,
0100
0010
1000
0000
0001
0010
0001
0000
,
0100
0010
0100
0010
1000
0001
0010
0100
,
1000
0100
0010
0000
0001
0010
0100
0000
,
1000
0010
0100
0000
0001
1000
0100
0000
,
0010
0001
0100
0000
0010
1000
0001
0000
,
0010
0100
1000
0001
0100
0010
0100
0001
,
0000
0000
1000
0100
1000
0000
0010
0000
0100
0000
0001
0000
0010
0000
0100
0000
,
0000
0000
1000
0001
1000
0000
0010
0000
0100
0000
0001
0000
1000
0000
0010
0000
,
2002
0000
0000
0000
,
0000
0000
0000
0000
,
0000
0000
3003
0000
;

//---------------dance-single - ----------------
#NOTES:
     dance-single:
     :
     Medium:
     6:
     0.495,0.454,0.119,0.142,0.026:
0000
0000
0000
0000
,
0000
0000
0000
0000
,
0000
0000
0000
0000
,
0000
0000
0000
0000
,
0000
0000
0000
0000
,
1000
0001
0100
0010
,
1100
0000
0100
0010
0000
0010
0001
0000
,
1100
0010
0100
0001
,
1000
0000
0001
0100
0010
0000
1000
0100
,
0010
0001
0100
0010
,
1001
0000
0100
0010
0000
0010
0100
0000
,
1001
0001
0010
0100
,
1000
0000
0010
0000
0100
0001
1000
0001
,
0100
0010
1000
0001
,
0100
0000
0000
0010
0000
1000
0000
0001
,
0000
0010
0100
1000
,
0001
0000
0100
0000
0010
1000
0001
0100
,
0001
0010
0100
0100
,
1000
0000
0001
0000
0100
0010
0100
0001
,
1000
0001
0010
0100
,
2000
0100
0001
3100
,
0001
0100
0010
1000
,
0001
0000
0010
0000
0100
0000
0000
1000
,
0000
1000
0001
0000
0100
0000
0010
0000
,
1000
0000
0100
0000
0010
0001
0010
0100
,
1000
0001
1000
0100
,
0010
0001
0100
0010
,
1000
0000
0100
0010
0001
0000
0010
0100
,
1000
0000
0001
0100
0000
0100
0001
0000
,
1000
0100
0010
0001
,
0100
0010
0100
0001
0000
0000
0000
0000
,
1000
0100
0010
0001
,
1000
0100
1000
0010
0000
0000
0000
0000
,
0100
0001
0010
0100
,
1000
0100
0010
0001
0000
0000
0000
0000
,
1000
0000
0010
0000
0100
0001
0100
0001
,
1000
0000
0001
1000
0000
0001
0001
0000
,
1000
0100
1000
0100
1000
0100
0000
0000
,
0010
0000
0001
0000
0100
0000
0010
1000
,
0002
0010
0100
1003
,
0100
0010
0001
0100
,
1001
0000
0100
0000
1010
0000
0001
0010
,
0100
0100
1000
0010
,
0200
0000
0000
0001
0002
0000
0000
0000
,
0303
0000
0001
0000
1000
0100
0000
0000
,
0001
0100
0001
0100
0001
0100
0000
0000
,
0010
0000
1000
0000
0001
0000
0010
0100
,
2000
0100
0010
3001
,
0100
0010
1000
0001
,
1100
0000
0010
0000
0101
0000
0010
1000
,
0001
0001
0100
0010
,
2000
0000
0000
0100
0200
0000
0000
0000
,
3300
0000
0010
0000
0001
1000
0001
0000
,
0000
0000
0100
0000
0010
0000
2000
0002
,
0000
0000
0000
3003
0000
0100
0100
0000
,
1000
0000
0001
0000
1000
0000
0000
0000
0001
0000
0000
0001
0000
0000
0000
0000
,
0100
0000
0010
0000
0100
0000
0000
0000
0010
0000
0000
0010
0000
0000
0000
0000
,
1000
0000
0100
0000
1000
0000
0000
0000
0100
0000
0000
0100
0000
0000
0000
0000
,
0010
0000
0001
0000
0010
0000
0000
0000
0001
0000
0000
0001
0000
0000
0000
0000
,
1000
0000
0010
0000
1000
0000
0000
0000
0010
0000
0000
0010
0000
0000
0000
0000
,
0100
0000
0001
0000
0100
0000
0000
0000
0001
0000
0000
0001
0000
0000
0000
0000
,
1000
0000
0001
0000
1000
0000
0000
0000
0001
0000
0000
0001
0000
0000
0000
0000
,
1000
0100
0010
0001
1000
0000
0000
0000
,
1001
0010
0100
0001
,
0010
0000
0100
0000
1000
0001
0000
0001
,
0100
1000
0001
0010
,
0100
0000
1000
0000
0010
0100
0000
0100
,
0001
0100
0010
0001
,
0100
0000
0010
0000
1000
0001
0000
0001
,
0010
1000
0010
0100
,
0001
1000
0001
1000
0000
0010
0010
0000
,
0100
0010
0100
0010
0100
0010
0000
0000
,
1000
0000
0001
0000
0100
0000
0010
1000
,
0200
0010
0010
0310
,
0001
1000
0010
0100
,
0011
0000
0100
0000
1010
0000
0001
0010
,
0100
0100
1000
0010
,
0200
0000
0000
0001
0002
0000
0000
0303
,
0000
0001
1000
0000
1000
0010
0000
0000
,
0001
1000
0001
1000
0001
1000
0000
0000
,
0001
0000
0010
0000
0100
0000
1000
0100
,
0020
0001
0001
0031
,
0100
0010
1000
0001
,
1100
0000
0001
0000
0110
0000
1000
0001
,
0200
0010
0301
1000
,
0002
0000
0000
1000
2000
0000
0000
3003
,
0000
1000
0001
0000
0100
0010
1000
0000
,
0001
0000
0010
0000
0100
1000
0100
2000
,
0000
0000
0000
0001
3001
0000
0110
0000
,
1001
1000
0010
0000
0100
0000
0001
0000
,
0010
0100
1000
0000
0010
0000
0100
0000
,
0001
1000
0001
0000
0100
0000
0010
0000
,
1000
0100
0010
0000
0001
0000
0010
0000
,
0100
1000
0010
0000
0100
0000
0001
0000
,
1000
0010
0100
0000
0001
0000
0010
0000
,
0100
0010
0001
0000
0100
0000
0010
0000
,
1000
0000
0010
0000
0100
0001
0100
0001
,
0000
0000
1000
0000
0100
0010
0100
0010
,
0000
0000
0001
0000
1000
0001
1000
0001
,
2002
0000
0000
0000
,
0000
0000
0000
0000
,
0000
0000
3003
0000
;

//---------------dance-single - ----------------
#NOTES:
     dance-single:
     :
     Easy:
     4:
     0.361,0.379,0.254,0.179,0.000:
0000
0000
0000
0000
,
0000
0000
0000
0000
,
0000
0000
0000
0000
,
0000
0000
0000
0000
,
0000
0000
0000
0000
,
1000
0010
0100
0001
,
0010
0100
1000
0100
,
0010
0001
0100
0010
,
1000
0001
0100
0001
,
1000
0100
0010
0001
,
0100
0010
0100
0010
,
1000
0100
0010
0001
,
1000
0010
0100
0001
,
1000
0000
0100
0000
,
0010
0000
0001
0000
,
0100
0100
0010
0000
,
1000
1000
0100
0100
,
0010
0000
0001
0100
,
0100
0000
0010
1000
,
0002
0000
0003
0000
,
1000
1000
0001
0001
,
0100
0000
0010
0000
,
1000
0000
0100
0000
,
0010
0001
1000
0000
,
0010
0100
0001
1000
,
0100
0000
0010
0001
,
0010
0100
1000
0000
,
0001
0100
0010
1000
,
0002
0000
0003
0000
,
1100
1000
0010
0100
,
0001
0001
0010
0000
,
0100
1000
0010
0100
,
0001
0001
1000
0000
,
0001
0100
0010
0100
,
0001
0001
0010
0000
,
0100
1000
0010
0100
,
0002
0000
0003
1001
,
1100
1100
1100
0000
,
2000
3000
0010
0100
,
0001
0001
0010
0100
,
2000
3000
0002
0003
,
1100
0000
0101
0000
,
1001
0010
0100
0000
,
0002
0003
0200
0300
,
0010
1000
0001
0000
,
0101
0101
0101
0000
,
0100
0010
1000
0001
,
0010
0010
0100
0100
,
0020
0030
0200
0300
,
1100
0000
0011
0000
,
1000
0001
0110
0000
,
2000
3000
0002
0003
,
0010
0100
1000
0001
,
0000
0100
0010
2000
,
0000
3000
0000
0010
,
1001
1000
1000
0000
,
0010
0100
0001
0000
,
1000
0100
0010
0000
,
0001
0010
0100
0000
,
1000
0100
1000
0000
,
0010
0100
0001
0000
,
1000
0100
0010
0000
,
0001
0001
0001
0000
,
1000
0000
0010
0000
,
0100
0000
0011
0000
,
0001
0000
0010
0000
,
0100
0000
1100
0000
,
0001
0000
0100
0000
,
0010
0000
0101
0000
,
1000
0000
0100
0000
,
0010
0001
1000
0000
,
0011
0011
0011
0000
,
0100
0000
0010
1000
,
0001
0001
1000
1000
,
0020
0030
0200
0300
,
0101
0000
1100
0000
,
1001
0100
0010
0000
,
2000
3000
0002
0003
,
0100
0010
1000
0000
,
1010
1010
1010
0000
,
0100
0000
0001
0010
,
0100
0100
1000
1000
,
0002
0003
2000
3000
,
0110
0000
1001
0000
,
1000
0100
0011
0000
,
0200
0300
0020
0030
,
1000
0001
0100
0000
,
0010
0000
1000
0002
,
0000
0003
1100
0101
,
1001
1000
0010
0100
,
0001
0100
0010
1000
,
0100
0010
0001
0010
,
0100
1000
0100
1000
,
0001
0100
0010
0100
,
0001
0010
0100
1000
,
0100
0010
0001
0100
,
0000
0001
1000
0100
,
0000
0010
0001
1000
,
0000
0010
0100
0010
,
2002
0000
0000
0000
,
0000
0000
0000
0000
,
0000
0000
3003
0000
;

//---------------dance-single - ----------------
#NOTES:
     dance-single:
     :
     Beginner:
     2:
     0.166,0.222,0.030,0.000,0.000:
0000
0000
0000
0000
,
0000
0000
0000
0000
,
0000
0000
0000
0000
,
0000
0000
0000
0000
,
0000
0000
0000
0000
,
1000
0000
1000
0000
,
0001
0000
0001
0000
,
0100
0000
0100
0000
,
0010
0000
0010
0000
,
1000
0000
0100
0000
,
1000
0000
0100
0000
,
0010
0000
0001
0000
,
0010
0000
0001
0000
,
1000
0000
0000
0000
,
0100
0000
0000
0000
,
0010
0000
0000
0000
,
0001
0000
0000
0000
,
0100
0000
0000
0000
,
0100
0000
0000
0000
,
0010
0000
0000
0000
,
1000
0000
1000
0000
,
0001
0000
0000
0000
,
0010
0000
0000
0000
,
0100
0000
0000
0000
,
1000
0000
0000
0000
,
0001
0000
0000
0000
,
0100
0000
0000
0000
,
0010
0000
0000
0000
,
1000
0000
0000
0000
,
1000
0000
1000
0000
,
0001
0000
0000
0000
,
0010
0000
0010
0000
,
0100
0000
0000
0000
,
1000
0000
0001
0000
,
0100
0000
0000
0000
,
0010
0000
1000
0000
,
0001
0000
0000
0000
,
1000
1000
1000
0000
,
1000
0000
0000
0000
,
0010
0000
0010
0000
,
0100
0000
0000
0000
,
0001
0000
0001
0000
,
1000
0000
1000
0000
,
0010
0000
0000
0000
,
0110
0000
0000
0000
,
0001
0001
0001
0000
,
0100
0000
0000
0000
,
0010
0000
0010
0000
,
1000
0000
0000
0000
,
0001
0000
0001
0000
,
1000
0000
1000
0000
,
0100
0000
0000
0000
,
1001
0000
0000
0000
,
1000
0000
0000
0000
,
0001
0000
0000
0000
,
1000
1000
1000
0000
,
0001
0001
0001
0000
,
0100
0100
0100
0000
,
0010
0010
0010
0000
,
0100
0100
0100
0000
,
0010
0010
0010
0000
,
1000
1000
1000
0000
,
0001
0001
0001
0000
,
1000
0000
0000
0000
,
1000
0000
0000
0000
,
0001
0000
0000
0000
,
0001
0000
0000
0000
,
0100
0000
0000
0000
,
0100
0000
0000
0000
,
0010
0000
0000
0000
,
0010
0000
0000
0000
,
0010
0010
0010
0000
,
0010
0000
0000
0000
,
0100
0000
0100
0000
,
0001
0000
0000
0000
,
1000
0000
1000
0000
,
0100
0000
0100
0000
,
0010
0000
0000
0000
,
0001
0000
0000
0000
,
0100
0100
0100
0000
,
0100
0000
0000
0000
,
0010
0000
0010
0000
,
1000
0000
0000
0000
,
0001
0000
0001
0000
,
0010
0000
0010
0000
,
0100
0000
0000
0000
,
1000
0000
0000
0000
,
0001
0000
0000
0000
,
0100
0000
0100
0000
,
1001
0000
1000
0000
,
0100
0000
0100
0000
,
0010
0000
0010
0000
,
0001
0000
0001
0000
,
0100
0000
0100
0000
,
0010
0000
0010
0000
,
1000
0000
0001
0000
,
0100
0000
0000
0000
,
0010
0000
0000
0000
,
0100
0000
0000
0000
,
1001
0000
0000
0000
;
