#TITLE:Thousand Cherry Tree;
#SUBTITLE:;
#ARTIST:Kurousa-P feat. Hatsune Miku;
#TITLETRANSLIT:;
#SUBTITLETRANSLIT:;
#ARTISTTRANSLIT:;
#GENRE:;
#CREDIT:;
#BANNER:Thousand Cherry Tree - bn.png;
#BACKGROUND:Thousand Cherry Tree - bg.png;
#LYRICSPATH:;
#CDTITLE:;
#MUSIC:Thousand Cherry Blossoms.ogg;
#OFFSET:-0.148;
#SAMPLESTART:43.404;
#SAMPLELENGTH:12.466;
#SELECTABLE:YES;
#BPMS:0.000=154.000;
#STOPS:;
#BGCHANGES:0.000=Thousand Cherry Tree.mpg=1.000=1=0=0=StretchNoLoop==CrossFade==,
99999=-nosongbg-=1.000=0=0=0 // don't automatically add -songbackground-
;
#KEYSOUNDS:;

//---------------dance-single - Gpop----------------
#NOTES:
     dance-single:
     Gpop:
     Challenge:
     13:
     1.000,1.000,0.976,0.516,0.905:
0000
0000
0000
0000
,
0000
0000
0000
0000
,
0000
0000
0000
0000
,
1100
0000
0000
0000
1001
0000
0000
0000
0101
0000
0000
0000
1001
0001
1000
0001
,
0100
0000
0010
0000
1000
0100
1000
0100
0010
0000
0001
0000
0100
0010
0100
0010
,
1000
0000
0000
0000
0000
0000
0001
0000
0000
0000
0000
0000
0010
0000
0000
0100
0000
0000
0010
0000
0000
0100
0000
0000
1000
0000
0000
0000
0000
0000
0001
0000
0100
0000
0001
0000
0100
0000
0000
0000
0000
0000
0001
0000
0000
0000
0000
0000
,
1000
0000
0001
0000
0010
0001
0010
0001
1000
0000
0010
0000
0100
0001
0100
0001
,
0010
0000
0100
0000
1000
0000
0001
0000
0100
0001
0100
0010
1000
0001
1000
0001
,
1000
0000
0100
0000
0010
0001
0010
0001
0100
0000
0010
0000
1000
0001
1000
0001
,
0010
0000
0000
0000
0000
0000
0100
0000
0000
0000
0000
0000
0010
0000
0000
0001
0000
0000
0010
0000
0000
0001
0000
0000
1000
0000
0000
0000
0000
0000
0010
0000
0100
0000
0010
0000
0100
0000
0000
0000
0000
0000
0001
0000
0000
0000
0000
0000
,
1000
0000
0100
0010
0001
0000
0010
0100
1000
0000
0001
0100
0010
1000
0100
0010
,
0001
0000
0000
0011
0000
0000
1100
0000
2002
0000
0000
0000
3MM3
0000
0000
0000
,
1100
0000
0000
0000
1001
0000
0000
0001
0100
0001
1000
0000
0100
0000
0010
0000
,
0011
0000
0000
0000
0011
0000
0000
0001
1000
0000
0010
0000
1000
0000
0100
0000
,
0110
0000
0000
0000
0110
0000
0000
0010
0100
0010
0001
0000
1000
0000
0010
0000
,
1010
0000
0000
0000
1000
0001
1000
0000
0010
0000
0000
0000
0110
0000
0000
0000
,
0101
0000
0000
0001
1000
0000
0000
1000
0100
1000
0001
0000
0100
0000
0010
0000
,
1010
0000
0000
0010
1000
0000
0001
0000
0010
0000
0001
0000
0100
0000
0010
0000
,
1010
0000
0000
1000
0010
0000
0100
0010
1000
0010
0100
0000
0001
0000
1000
0000
,
1200
0000
0000
0000
0320
0000
0031
1000
0020
0000
0000
0000
0130
0000
0001
0000
,
2002
3003
2200
3300
2002
3003
0202
0303
,
0110
0000
0010
1000
0010
0000
0100
0000
0002
0000
0000
0000
1003
0000
0000
0000
,
1100
0000
0100
0000
0010
0000
0000
0000
0012
0000
0000
0003
2010
0000
0000
3000
,
1002
0000
0000
0000
0103
0010
1000
0100
0010
0000
0001
0000
0100
0010
1000
0100
,
0020
0000
0000
0030
0012
0000
0000
0003
2001
0000
0000
3000
1020
0000
0000
0030
,
0210
0000
0301
1000
0001
0000
0010
0000
0200
0000
0000
0000
1300
0000
0001
0000
,
0101
1010
0000
1100
0011
0000
0220
0330
,
1002
1000
0100
2000
0000
3003
0M00
00M0
,
1001
0000
0000
1000
0010
0000
0100
0000
0120
0000
0000
0000
1030
0000
0001
0000
,
0011
0010
1100
1000
0101
0000
1001
1000
,
0110
0000
0000
0100
0010
0000
0100
0000
2001
0000
0000
0000
3001
0000
0100
0000
,
0110
0010
1001
1000
0101
0000
1001
0100
,
1001
0000
0000
1000
0100
0000
0010
0000
0012
0000
0000
0000
1003
0000
0010
0000
,
1010
1000
0101
0001
0110
0000
1100
1000
,
1200
0000
0000
0300
0021
0000
0000
0030
0102
0000
0000
0003
2010
0000
0000
3000
,
1001
0001
1001
1000
1001
0001
0110
0110
,
1001
0000
0000
1000
0010
0000
0100
0000
0102
0000
0000
0000
1003
0000
0100
0000
,
0110
0010
1100
0100
1002
0000
0103
0010
,
1010
0000
0000
1000
0001
0000
0010
0000
0210
0000
0000
0000
1300
0000
0001
0000
,
0101
0100
1010
0010
1001
0000
1001
0100
,
1001
0000
0000
0001
0100
0000
0010
0000
2010
0000
0000
0000
3100
0000
0010
0000
,
0011
0001
1100
1000
0102
0000
1003
0010
,
0210
0000
0000
0300
0102
0000
0000
0003
2001
0000
0000
3000
1200
0000
0000
0300
,
1001
0100
1001
0010
2001
0000
0001
3001
,
1100
0000
1000
0000
1000
0000
1000
0000
1010
0000
1000
0000
1000
0100
0010
0000
,
0011
0000
0001
0000
0001
0000
0001
0000
0101
0000
0001
0000
0001
0100
0010
0000
,
0110
0000
0100
0000
0100
0000
0110
0000
0100
0001
0100
0000
0100
0010
1000
0000
,
1001
0000
0000
0000
0000
0000
0001
0000
0000
0010
0000
0000
0100
0000
0000
1000
0000
0000
0100
0000
0000
0010
0000
0000
0001
0000
1000
0000
0001
0000
1000
0000
0000
0001
0000
0000
0100
0000
0000
0000
0000
0000
0001
0000
0000
1000
0000
0000
,
0001
0010
0100
0010
0000
0010
0100
1000
0001
0010
0100
0010
M00M
0010
0100
0001
,
1000
0100
0010
0100
0000
0100
0010
0001
1000
0100
0010
0100
M00M
0100
0010
1000
,
0001
1000
0010
0100
0000
0100
0010
0100
0001
1000
0010
0100
M00M
0100
1000
0001
,
1000
0001
0100
0010
0000
0010
0100
0010
1000
0001
0100
0010
M00M
0010
0001
1000
,
0100
0000
0000
0010
0000
0000
0001
0000
0000
0010
0000
0000
0100
0000
0000
1000
0000
0000
0001
0000
0000
0100
0000
0000
0001
0000
0000
1000
0000
0000
0010
0000
0000
0100
0000
0000
0001
0000
1000
0000
0001
0000
1000
0000
0000
0010
0000
0000
,
1000
0000
0001
0000
0010
0000
0100
1000
0100
0000
0010
0000
0001
0000
0100
0000
0001
0000
1000
0000
0001
0000
0100
0000
0010
0000
1000
0000
0001
0000
0100
0000
,
0001
0010
0100
1000
0100
0010
0001
1000
0001
0100
0001
0010
0100
1000
0001
1000
,
0010
0000
0000
0100
0000
0000
0010
0000
0000
1000
0000
0000
0100
0000
0000
0010
0000
0000
0001
0000
0000
1000
0000
0000
0100
0000
0000
0010
0000
0000
0001
0000
0000
1000
0000
0000
0001
0000
0100
0000
0001
0000
1000
0000
0000
0001
0000
0000
,
1000
0001
1000
0001
1000
0001
1000
0100
1000
0100
1000
0100
1000
0001
1000
0001
1000
0001
0100
0001
0100
0001
0100
0001
,
0100
0000
0010
0000
0100
0000
0010
0000
0100
0000
0010
0000
1000
0000
0010
0000
1000
0000
0010
0000
1000
0000
0010
0000
0200
0000
0000
0000
0000
0000
0000
0000
0000
0000
0000
0000
0000
0000
0000
0000
0000
0000
0301
0000
0000
1000
0000
0000
,
0001
0000
0000
0010
0000
0000
0100
0000
0000
1000
0000
0000
0100
0000
0000
0010
0000
0000
0001
0000
0000
1000
0000
0000
0001
0000
0000
0100
0000
0000
0001
0000
0000
1000
0000
0000
0100
0000
0010
0000
0100
0000
0010
0000
0000
0000
0000
0000
,
0002
0000
2003
0040
0000
0000
0000
3030
,
0001
0100
0001
0100
0010
0100
0010
0100
0010
1000
0010
1000
0001
1000
0001
1000
,
0001
0010
0100
0000
1000
0001
0200
0000
0310
1000
0002
0000
0000
0000
1003
0000
,
0010
0000
0000
0000
0100
0000
0000
0000
0010
0000
0000
0000
1000
0000
0000
0100
0000
0000
0010
0000
0000
0001
0000
0000
1000
0000
0000
0100
0000
0000
2000
0000
0000
0000
0000
0000
3001
0000
0000
0100
0000
0000
0010
0000
0000
1000
0000
0000
,
0002
0000
0000
2003
0000
0000
3010
0100
0020
0000
0000
0000
1030
0001
1000
0001
,
1000
0000
0000
0001
0100
0000
0010
0000
2010
0000
0000
0000
3010
0000
0100
0000
,
0101
0100
1010
0010
1001
0000
1100
0100
,
1001
0000
0000
0001
0010
0000
0100
0000
2100
0000
0000
0000
3100
0000
0010
0000
,
0011
0001
1010
1000
0110
0000
1001
0001
,
1001
0000
0000
1000
0100
0000
0010
0000
0012
0000
0000
0000
1003
0000
0010
0000
,
0110
0100
1001
0001
1100
0000
1010
0100
,
2010
0000
0000
3000
0021
0000
0000
0030
1200
0000
0000
0300
0102
0000
0000
0003
,
1100
0010
1001
0100
0012
0000
0010
0000
,
1003
0000
0010
0000
0100
0001
0100
0001
1000
0000
0100
0000
0010
0001
0010
0001
,
1000
0000
0000
0000
0000
0000
0100
0000
0000
0000
0000
0000
1000
0000
0000
0010
0000
0000
1000
0000
0000
0010
0000
0000
0100
0000
0000
0000
0000
0000
0001
0000
1000
0000
0001
0000
1000
0000
0000
0000
0000
0000
0010
0000
0000
0000
0000
0000
,
0100
0000
0001
0000
0010
0100
0010
0100
1000
0000
0001
0000
1000
0100
1000
0100
,
0010
0000
0001
0000
1000
0000
0010
0000
0100
0001
0100
0010
1000
0001
1000
0001
,
1000
0000
0100
0000
1000
0010
1000
0010
0100
0000
0001
0000
0010
0100
0010
0100
,
1000
0000
0000
0000
0000
0000
0001
0000
0000
0000
0000
0000
0100
0000
0000
0001
0000
0000
0100
0000
0000
0001
0000
0000
0010
0000
0000
0000
0000
0000
0100
0000
1000
0000
0100
0000
1000
0000
0000
0000
0000
0000
0001
0000
0000
0000
0000
0000
,
0100
0010
1000
0100
0010
0001
0010
0100
1000
0000
0001
0000
1000
0010
1000
0010
,
0100
0000
0000
0101
0000
0000
1001
0000
2002
0000
0003
0000
3100
0000
0010
0001
,
1000
0000
0000
1010
0000
0000
0100
0020
0200
0000
0000
0000
0330
0000
0000
0000
;

//---------------dance-single - Gpop----------------
#NOTES:
     dance-single:
     Gpop:
     Hard:
     9:
     0.732,0.673,0.421,0.397,0.278:
0000
0000
0000
0000
,
0000
0000
0000
0000
,
0000
0000
0000
0000
,
1001
0002
0203
0320
,
1030
0000
0001
0000
1000
0100
1000
0000
0001
0000
0100
0000
0010
1000
0010
0000
,
0100
0000
0001
0000
0010
0100
0010
0000
0001
0000
1000
0010
1000
0000
0001
0000
,
1000
0000
0100
0000
0010
0001
0010
0000
0100
0000
1000
0000
0001
0100
0001
0000
,
1000
0000
0001
0000
0010
0000
0100
0000
1000
0001
1000
0001
1000
0000
0000
0000
,
0101
0000
0001
0000
1000
0100
1000
0000
0100
0000
0010
0000
0001
1000
0001
0000
,
0100
0000
0010
0000
1000
0100
1000
0000
0100
0000
0010
0001
0010
0000
0100
0000
,
1000
0001
0001
1000
1000
0010
0010
0100
,
0101
0000
0000
0001
0000
0000
1000
0000
2200
0000
0000
0000
33MM
0000
0000
0000
,
1001
0000
0001
0100
0010
1000
0100
0010
,
0011
0000
0000
0000
1001
0000
0000
1000
0001
0000
0100
0000
0001
0000
0010
0000
,
0110
0000
0000
0000
1100
0000
0000
1000
0010
0000
0100
0000
0001
0000
0010
0000
,
0200
0000
1300
0010
0100
0000
0101
0000
,
1001
0000
0000
1000
0001
0000
0000
0001
0100
0000
0010
0000
1000
0000
0100
0000
,
0110
0000
0000
0010
0001
0000
1000
0000
0010
0000
0100
0000
0010
0000
1000
0000
,
1001
0000
0000
1000
0001
0000
0100
0000
0001
0000
0010
0000
0100
0000
1000
0000
,
0002
0000
0103
0010
2000
0000
3100
0000
,
0011
0011
1010
1010
,
1000
0000
0001
0100
0001
0000
1000
0000
0200
0000
0000
0000
0310
0000
0000
0000
,
0011
0001
1000
0000
2010
0000
3002
0000
,
0203
0000
0310
1000
0002
0000
1003
0000
,
1100
1100
0101
0101
,
0001
0000
1000
0100
1000
0000
0001
0000
0100
0000
0000
0000
0010
0000
1000
0000
,
1001
1001
0000
0101
0102
0000
2003
0000
,
3100
0100
0010
0200
0000
0300
1000
0001
,
0101
0000
0000
0100
0000
0000
0010
0000
2000
0000
0000
0000
3001
0000
0010
0000
,
0100
0100
1000
1000
0001
0000
0100
0010
,
1000
0000
0000
1000
0000
0000
0001
0000
0020
0000
0000
0000
0130
0000
1000
0000
,
0100
0010
0001
1000
0010
0000
0110
0100
,
0001
0000
0000
0001
0000
0000
1000
0000
0020
0000
0000
0000
0130
0000
0001
0000
,
1000
1000
0100
0100
0010
0000
0001
1000
,
1020
0032
0203
2300
,
3001
0100
0001
1000
0100
0000
0110
0010
,
0001
0000
0000
0001
0000
0000
0010
0000
0200
0000
0000
0000
1300
0000
0001
0000
,
0100
0100
0010
0010
1000
0000
0001
1000
,
1100
0000
0000
0100
0000
0000
0010
0000
0002
0000
0000
0000
1003
0000
0010
0000
,
0100
0100
0001
0001
1000
0000
0001
0010
,
0110
0000
0000
0100
0000
0000
1000
0000
0002
0000
0000
0000
1003
0000
0010
0000
,
1000
1000
0001
0001
0020
0000
0130
1000
,
1200
0302
0023
2030
,
3001
0010
0100
1000
0002
0000
1000
1003
,
0110
0000
0000
0100
1001
0000
0000
1100
,
0001
0000
0000
0010
1100
0000
0000
0100
,
1001
0000
0000
0000
0000
0000
0101
0000
1000
0001
0000
0000
0000
0000
0110
0000
,
1000
0000
0001
0100
0001
0000
1000
0000
0100
0000
0010
0000
0001
0000
1000
0001
,
1000
0000
0010
0100
0000
0100
0010
0000
1000
0000
0100
0010
0000
0010
0001
0000
,
1000
0000
0001
0100
0000
0100
0001
0000
1000
0000
0001
0010
0000
0010
0100
0000
,
1000
0000
0010
0100
0000
0100
0001
0000
0010
0000
0100
1000
0000
1000
0001
0000
,
0100
0000
0010
1000
0000
1000
0100
0000
0010
0000
0001
1000
0000
1000
0001
0000
,
0100
0000
0010
0000
1000
0000
0100
0000
0010
0000
0001
0000
1000
0100
1000
0000
,
0010
0000
1000
0000
0001
0000
0100
0000
0001
0000
0010
0000
0100
1000
0100
0000
,
0010
0001
0100
0010
1000
0001
1000
0001
,
1000
0100
0010
0001
0010
0100
2000
0000
,
3004
0400
0000
0000
0000
0000
0000
0003
0040
0000
0000
0000
0000
0000
0000
0300
,
4000
0000
0000
0000
0000
0000
0000
0030
3002
0000
0000
0000
0000
0000
0003
0000
,
1000
0100
0010
0001
1000
0010
0100
0001
,
2000
0000
3020
2000
0000
0000
0000
3030
,
0001
0010
0100
1000
0001
0100
0010
1000
,
0001
0010
0001
1000
0010
0200
0000
0000
,
0302
0000
1003
0100
0020
0000
0031
1000
,
1100
0000
0000
1001
0000
0000
0001
1000
0002
0000
0000
0000
0103
0000
0010
0000
,
1010
0000
0000
1000
0000
0000
0001
0000
0020
0000
0000
0000
0130
0000
1000
0000
,
0001
0001
1000
1000
0010
0000
0110
0100
,
0001
0000
0000
0001
0000
0000
0010
0000
0200
0000
0000
0000
0310
0000
0001
0000
,
1000
1000
0001
0001
0100
0000
0010
1000
,
1001
0000
0000
0001
0000
0000
1000
0000
0020
0000
0000
0000
0130
0000
0001
0000
,
0010
0010
0100
0100
1000
0000
0001
1000
,
1200
2300
3002
0103
,
1001
0001
1001
1000
1002
0000
1000
1000
,
1003
0000
0010
0000
0100
0001
0100
0000
0010
0000
1000
0000
0001
0010
0001
0000
,
0010
0000
0100
0000
1000
0001
1000
0000
0010
0000
0100
0001
0100
0000
0010
0000
,
1000
0000
0001
0000
0010
0100
0010
0000
0001
0000
1000
0000
0010
0100
0010
0000
,
1000
0000
0100
0000
0010
0000
0001
0000
1000
0010
1000
0010
0100
0000
0001
0000
,
1000
0000
0100
0000
0010
0001
0010
0000
0100
0000
1000
0000
0001
0100
0001
0000
,
0100
0000
0010
0000
1000
0001
1000
0000
0001
0000
0010
0100
0010
0000
0100
0000
,
1000
0001
0100
0010
1000
0001
0001
0001
,
1000
0000
0000
1100
0000
0000
0010
0000
0012
0000
0000
0000
1003
0000
0010
1000
,
0010
0000
0000
1010
0000
0000
1000
0001
2000
0000
0000
0000
3000
0000
0000
0000
;

//---------------dance-single - Gpop----------------
#NOTES:
     dance-single:
     Gpop:
     Medium:
     7:
     0.562,0.513,0.960,0.246,0.048:
0000
0000
0000
0000
,
0000
0000
0000
0000
,
0000
0000
0000
0000
,
M00M
0MM0
M00M
0MM0
,
0001
1000
0040
0000
0130
0001
4000
0000
,
3001
0010
0400
0000
1300
0000
0001
0000
,
0100
0010
4000
0000
3100
0010
0004
0000
,
0013
0100
1000
0001
4000
0000
3000
0000
,
0010
0100
0040
0000
1030
0100
0040
0000
,
0130
1000
0004
0000
0103
0000
0010
0000
,
1100
0101
1100
0101
,
1000
0000
0000
0001
0000
0000
0100
0000
0020
0000
0000
0000
0030
0000
0000
0000
,
1001
0000
1001
0000
1000
0001
0100
0000
,
0110
0000
0110
0000
0010
1000
0001
0000
,
1100
0000
1100
0000
0100
0010
0001
0000
,
1000
0002
0103
0110
,
1001
0000
1001
0000
1000
0001
0010
0000
,
0110
0000
0110
0000
0100
1000
0010
0000
,
1010
0000
1010
0000
1000
0001
0100
0000
,
0012
2003
3020
0130
,
0102
1000
0100
1003
,
0001
0010
0100
1000
0002
0000
0003
0000
,
1000
0100
1000
0000
0002
0000
0203
0000
,
0320
0000
1030
0100
0020
0000
0031
0000
,
2100
0001
0100
3001
,
1000
0100
0010
0001
0200
0000
0310
0000
,
1000
1000
0000
0001
0001
0000
0110
0000
,
2002
0000
0000
0000
3003
0000
0M00
00M0
,
1001
1001
1100
1100
,
0011
0011
1001
1001
,
1100
1100
0101
0101
,
0011
0000
0011
0000
1010
0000
1000
0001
,
0101
1010
1100
0011
,
1001
1100
1001
0101
,
0110
1001
0110
1001
,
1100
0000
0101
0000
1001
0000
1000
0001
,
1001
1001
1100
1100
,
0110
0110
0011
0011
,
1001
1001
0101
0101
,
1010
0000
1010
0000
1001
0000
0001
0100
,
0110
1010
0110
1010
,
1001
0101
1001
0101
,
1001
1100
1001
0101
,
1010
0011
2002
3003
,
1001
0000
1100
0000
,
0101
0000
0011
0000
,
1010
0000
1001
0000
,
1001
0000
0001
0000
0010
0100
1000
0001
,
0100
0000
0000
0100
0000
0000
0000
0000
0010
0000
0000
0010
0000
0000
0000
0000
,
1000
0000
0000
1000
0000
0000
0000
0000
0001
0000
0000
0001
0000
0000
0000
0000
,
0010
0000
0000
0010
0000
0000
0000
0000
0100
0000
0000
0100
0000
0000
0000
0000
,
1000
0000
0000
1000
0000
0000
0000
0000
0001
0000
0000
0001
0000
0000
0000
0000
,
0100
0000
0010
0000
1000
0000
0100
0010
,
0001
0000
1000
0000
0001
0000
0100
0001
,
0010
0100
1000
0001
,
0100
0010
1000
0002
,
1003
0100
1000
0100
0010
0100
0010
0100
,
0010
0001
0010
0001
2000
0000
0000
0000
,
3001
0000
0100
0010
1000
0000
0001
0000
,
0020
0000
0130
2000
0000
0000
0000
0000
,
3001
0000
0100
0000
0010
0000
1000
0001
,
0010
0100
1000
0002
0000
0203
0000
0000
,
0320
0000
2030
0000
,
3001
0000
0000
1000
0000
0000
0001
0000
2002
0000
0000
0000
3003
0000
0000
0000
,
1100
1100
0101
0101
,
0011
0011
1010
1010
,
1001
1001
0110
0110
,
1001
0000
0110
0000
1001
0000
1000
0100
,
0110
0011
0110
1100
,
1001
0101
0110
1010
,
1001
0110
1001
0110
,
1001
1100
0102
0100
,
1003
0100
0040
0000
0130
1000
0004
0000
,
0103
0010
4000
0000
3001
0000
0100
0000
,
0010
1000
0004
0000
0013
0100
4000
0000
,
3100
0010
0001
0100
0040
0000
0030
0000
,
1000
0100
0040
0000
0130
1000
0004
0000
,
0103
0010
4000
0000
3001
0000
0010
0000
,
0001
0000
0100
0000
0010
1000
0010
1000
,
0001
0000
0000
0001
0000
0000
0001
0000
2000
0000
0000
0000
3000
0000
0010
0000
,
1000
0000
0000
1000
0000
0000
1000
0000
2002
0000
0000
0000
3003
0000
0000
0000
;

//---------------dance-single - Gpop----------------
#NOTES:
     dance-single:
     Gpop:
     Easy:
     5:
     0.401,0.449,0.341,0.214,0.000:
0000
0000
0000
0000
,
0000
0000
0000
0000
,
0000
0000
0000
0000
,
0000
0000
0000
0000
,
1001
0001
0100
0010
,
1000
0000
0100
0000
0010
0001
1000
0000
,
0010
0100
0010
0100
,
0001
0000
1000
0000
0100
0010
0100
0000
,
1000
0001
0100
0001
,
0010
0000
0100
0000
1000
0001
1000
0000
,
0010
0010
0100
0100
,
0001
0000
2002
3003
,
1100
1100
0001
0100
,
1010
1010
0001
0010
,
0101
0101
1000
0100
,
0011
0100
1010
0001
,
1100
1100
0010
0100
,
0011
0011
1000
0001
,
0110
0110
1000
0001
,
1100
0010
0101
1000
,
1002
1000
0100
0103
,
0010
1000
0002
0003
,
1000
1000
0001
0001
,
1000
0000
0001
1000
0002
0000
0003
0000
,
2100
0100
0001
3001
,
0100
0010
1000
0001
,
0010
0010
0000
0010
0010
0000
0010
0000
,
2002
0000
3003
0000
,
1001
1000
0001
1000
,
0001
0100
0001
0100
,
0010
1000
0010
1000
,
0001
1000
0001
1000
,
0001
0010
0100
1000
,
0001
0100
0010
1000
,
1100
1100
0101
0101
,
0001
0000
1000
0001
1000
0000
0001
0000
,
0110
1000
1000
1000
,
0001
0001
0001
0001
,
0010
0010
0010
0010
,
0100
0100
0100
1000
,
0001
0100
0010
1000
,
0100
0010
0001
1000
,
1010
1010
0011
0011
,
1000
0001
1000
0001
2000
0000
0000
0000
,
3001
0000
0001
0000
,
1000
0000
1000
0000
,
0010
0000
0010
0000
,
0100
1001
0100
0010
,
1002
0003
2000
3000
,
0020
0030
0200
0300
,
0002
0003
0020
0030
,
0200
0300
2000
3000
,
0001
0100
0010
1000
,
0100
0010
0001
1000
,
0010
1000
0100
0010
,
0100
1000
0001
0100
,
0020
0000
2030
0000
,
3002
0000
0023
0000
,
0031
1000
0010
1000
,
0100
0000
0000
0200
0000
0000
0300
0000
,
1000
0001
0100
0010
,
1000
0000
0100
0000
0000
0020
0000
0000
,
0031
0000
1000
0000
,
0010
0000
0020
0130
,
1001
1000
0001
0100
,
0010
1000
0100
0010
,
0001
0010
0100
1000
,
0001
0100
0010
1000
,
0101
0001
1000
0100
,
0010
0001
0010
0100
,
1100
0101
0011
1010
,
1000
0000
0001
0010
0002
0000
0000
0000
,
1003
0010
0100
0001
,
0010
0000
0100
0000
1000
0001
1000
0000
,
0010
0100
0010
1000
,
0100
0000
0010
0000
0001
1000
0001
0000
,
0100
0001
0010
0100
,
1000
0000
0010
0000
1000
0100
1000
0000
,
0001
0000
0100
0000
0010
1000
0010
0000
,
0110
0000
0110
0000
,
1001
0000
2002
3003
;

//---------------dance-single - Gpop----------------
#NOTES:
     dance-single:
     Gpop:
     Beginner:
     2:
     0.151,0.190,0.016,0.000,0.000:
0000
0000
0000
0000
,
0000
0000
0000
0000
,
0000
0000
0000
0000
,
0000
0000
0000
0000
,
1000
0000
1000
0000
,
1000
0000
0000
0000
,
0001
0000
0001
0000
,
0001
0000
0000
0000
,
0010
0000
0010
0000
,
0010
0000
0000
0000
,
0100
0000
0100
0000
,
0100
0000
0000
0000
,
1000
0000
0000
0000
,
0001
0000
0000
0000
,
0100
0000
0000
0000
,
0010
0000
0000
0000
,
1000
0000
0000
0000
,
0100
0000
0000
0000
,
0010
0000
0000
0000
,
0001
0000
0000
0000
,
1000
1000
1000
1000
,
1000
0000
1000
0000
,
0001
0000
0001
0000
,
0010
0000
0000
0000
,
0001
0001
0001
0001
,
0001
0000
0001
0000
,
1000
0000
1000
0000
,
0100
0000
0000
0000
,
1000
0000
1000
0000
,
0001
0000
0001
0000
,
0100
0000
0100
0000
,
0010
0000
0010
0000
,
1000
0000
1000
0000
,
0100
0000
0100
0000
,
0010
0010
0010
0010
,
0010
0000
0010
0000
,
0001
0000
0001
0000
,
0100
0000
0100
0000
,
0010
0000
0010
0000
,
1000
0000
1000
0000
,
0100
0000
0100
0000
,
0010
0000
0010
0000
,
0001
0001
0001
0001
,
0001
0000
0001
0000
,
0001
0000
0000
0000
,
0001
0000
0000
0000
,
1000
0000
0000
0000
,
1000
0000
0000
0000
,
0010
0000
0010
0000
,
0010
0000
0010
0000
,
0100
0000
0100
0000
,
0100
0000
0100
0000
,
0001
0000
0000
0000
,
1000
0000
0000
0000
,
0100
0000
0000
0000
,
0010
0000
0000
0000
,
0001
0000
0000
0000
,
0000
0000
0000
0000
,
1000
0000
0000
0000
,
1000
0000
0000
0000
,
0010
0000
0000
0000
,
0100
0000
0000
0000
,
0001
0000
0000
0000
,
1000
0000
0000
0000
,
0001
0000
0001
0000
,
1000
0000
1000
0000
,
0100
0000
0100
0000
,
0010
0000
0010
0000
,
0001
0000
0001
0000
,
0010
0000
0010
0000
,
0100
0100
0100
0100
,
0100
0000
0100
0000
,
1000
0000
1000
0000
,
0001
0000
0001
0000
,
0100
0000
0100
0000
,
0010
0000
0010
0000
,
1000
0000
0100
0000
,
0010
0000
0001
0000
,
1000
0000
1000
0000
,
1001
0000
0000
0000
,
0110
0000
0000
0000
;
