#TITLE:Take on me;
#SUBTITLE:;
#ARTIST:A-ha;
#TITLETRANSLIT:;
#SUBTITLETRANSLIT:;
#ARTISTTRANSLIT:;
#GENRE:;
#CREDIT:;
#BANNER:Take On Me.png;
#BACKGROUND:Take On Me-bg.png;
#LYRICSPATH:;
#CDTITLE:;
#MUSIC:a ha Take On Me.ogg;
#OFFSET:1.269;
#SAMPLESTART:35.525;
#SAMPLELENGTH:12.000;
#SELECTABLE:YES;
#BPMS:0.000=168.780;
#STOPS:;
#BGCHANGES:18.000=Take On Me.avi=1.000=1=0=1,
272.000=songbackground=1.000=1=0=1===CrossFade==,
99999=-nosongbg-=1.000=0=0=0 // don't automatically add -songbackground-
;
#KEYSOUNDS:;

//---------------dance-single - Renard----------------
#NOTES:
     dance-single:
     Renard:
     Hard:
     8:
     0.602,0.545,0.450,0.000,0.000:
0000
0000
0000
0000
,
0000
0000
0000
0000
,
0000
0000
0000
0000
,
0000
0000
0000
0000
,
0000
0000
0000
0000
,
0001
1000
0100
1000
0000
1010
0000
0101
,
0000
1001
0000
1000
0001
0001
0100
0010
,
1000
1000
0100
0010
0000
0110
0000
1001
,
0000
0101
0000
0001
0100
0100
0010
1000
,
0001
0001
0010
0100
0000
1100
0000
1010
,
0000
1001
0000
0001
0100
0100
0010
1000
,
0001
0100
0001
1000
0000
1010
0000
0101
,
0000
1001
0000
1000
0001
0100
0100
0000
,
0010
1000
0100
1000
0010
1000
0100
1000
,
0010
0100
0001
0100
0000
0100
0010
0000
,
0010
0100
0001
0100
0010
0100
0001
0100
,
0010
1000
0100
1000
0000
1000
0010
0000
,
0100
0001
1000
0000
0100
1000
0001
0000
,
0010
0001
1000
0000
0010
1000
0001
0000
,
1000
0100
0010
0001
0000
0001
0010
0100
,
1000
0010
0100
0001
0000
0001
1000
0000
,
0010
0100
0010
0100
0000
1001
0000
1010
,
0000
0001
0100
0010
1000
0000
1001
0000
,
1000
0100
1000
0010
0100
0001
1000
0010
,
0100
0000
0100
0001
0000
0001
1000
0000
,
1000
0100
0010
0000
0010
0000
0010
0000
,
0010
0100
1000
0000
1000
0000
1000
0000
,
0001
0010
0100
0000
0100
0000
0100
0000
,
0100
0010
0001
0000
0001
0000
0001
0000
,
1000
0001
0100
0000
0101
0000
0110
0000
,
0010
1000
0100
0000
1100
0000
1010
0000
,
1000
0001
0100
0000
0100
0001
1000
0000
,
0100
1000
0001
0010
0001
1000
1000
0000
,
0001
0100
0001
0000
1010
0000
0000
0000
,
1000
0100
1000
0000
0011
0000
0000
1000
,
0001
0100
0001
0000
1010
0000
0001
0100
,
0001
0000
1010
0000
1000
0100
0010
0001
,
1000
0100
1100
0000
0011
0000
1001
0000
,
1000
1000
1001
0000
0101
0000
1010
0000
,
1000
0010
1010
0000
0101
0000
1001
0000
,
0001
0001
0101
0000
1000
0001
0100
0010
,
0100
0001
0010
0001
0100
0001
0010
0001
,
0100
0010
1000
0010
0000
0010
0100
0000
,
0100
0010
1000
0010
0100
0010
1000
0010
,
0100
0001
0010
0001
0000
0001
0100
0000
,
0010
1000
0001
0000
0010
0001
1000
0000
,
0100
1000
0001
0000
0100
0001
1000
0000
,
0001
0010
0100
1000
0000
1000
0100
0010
,
0001
0100
0010
1000
0000
1000
0001
0000
,
0100
0010
0100
0010
0000
1001
0000
0101
,
0000
1000
0010
0100
0001
0000
1001
0000
,
0001
0010
0001
0100
0010
1000
0001
0100
,
0010
0000
0010
1000
0000
1000
0001
0000
,
0001
0010
0100
0000
0100
0000
0100
0000
,
0100
0010
0001
0000
0001
0000
0001
0000
,
1000
0100
0010
0000
0010
0000
0010
0000
,
0010
0100
1000
0000
1000
0000
1000
0000
,
0001
1000
0010
0000
1010
0000
0110
0000
,
0100
0001
0010
0000
0011
0000
0101
0000
,
0001
1000
0010
0000
0010
1000
0001
0000
,
0010
0001
1000
0100
1000
0001
0001
0000
,
1000
0010
1000
0000
0101
0000
0000
0000
,
0001
0010
0001
0000
1100
0000
0000
0001
,
1000
0010
1000
0000
0101
0000
1000
0010
,
1000
0000
0101
0000
0001
0010
0100
1000
,
0001
0100
0010
1000
0100
1000
0001
0010
,
0001
1000
0001
0100
0001
1000
0010
1000
,
0100
1000
0001
0010
0001
0100
0010
1000
,
1010
0000
0000
0000
;

//---------------dance-single - Renard----------------
#NOTES:
     dance-single:
     Renard:
     Medium:
     6:
     0.393,0.408,0.190,0.070,0.000:
0000
0000
0000
0000
,
0000
0000
0000
0000
,
0000
0000
0000
0000
,
0000
0000
0000
0000
,
0000
0000
0000
0000
,
1000
0001
1000
0001
0000
0100
0000
0010
,
0000
0010
0010
0000
,
1000
0001
1000
0001
0000
1000
0000
0010
,
0000
0010
0010
0000
,
1000
0100
0010
0001
,
0010
0100
1000
0000
,
0001
0010
0100
1000
,
0100
0010
0001
0000
,
1000
0000
0010
1000
0000
0010
1000
0000
,
0001
0000
0100
0001
0000
0100
0001
0000
,
1000
0000
0100
1000
0000
0100
1000
0000
,
0001
0000
0010
0001
0000
0010
0001
0000
,
1000
0000
0010
1000
0000
0010
1000
0000
,
0001
0000
0100
0001
0000
0100
0001
0000
,
1000
0000
0100
1000
0000
0100
1000
0000
,
0001
0000
0010
0001
0000
0010
0001
0000
,
1000
1000
0010
0000
,
0100
0100
0001
0000
,
0010
0001
0010
0100
,
1000
0000
1000
0001
0000
0001
1000
0000
,
2001
0001
0001
0001
,
0010
0010
0010
0010
,
0100
0100
0100
3100
,
1100
0000
0000
0110
0000
0000
0011
0000
,
0102
0100
0100
0100
,
1000
1000
1000
1000
,
0020
0000
0000
0033
,
0011
0000
0000
0101
0000
0000
1001
0000
,
1000
0100
1000
0000
0011
0000
0000
0000
,
0001
0100
0001
0000
1010
0000
0000
0000
,
0001
1000
0001
0000
1000
0000
0100
0000
,
0010
0001
1000
0001
,
0100
0000
0100
0000
0100
0000
0100
0001
,
1000
0000
1000
0000
1000
0000
1000
0001
,
0100
0100
0100
0100
,
0001
1000
0001
1000
0001
0000
1000
0000
,
0010
0000
0000
0100
0000
0000
0001
0000
,
1000
0000
0000
0100
0000
0000
0010
0000
,
0001
0000
0000
0010
0000
0000
0100
0000
,
1000
0000
0000
0010
0000
0000
0100
0000
,
0001
0000
0000
1000
0000
0000
0100
0000
,
0010
0000
0000
0100
0000
0000
1000
0000
,
0010
0000
0000
0100
0000
0000
0001
0000
,
0100
0000
0001
0000
1000
0001
1000
0000
,
0001
0000
0000
0100
0000
0000
0010
0000
,
1000
0000
0000
0100
0000
0000
0010
0000
,
0001
0000
1000
0001
1000
0000
0001
0000
,
0100
0000
0100
0001
0000
0001
1000
0000
,
2000
0100
0100
0100
,
0010
0010
0100
0010
,
0002
0000
0000
3003
,
1100
0000
0000
0110
0000
0000
0011
0000
,
0002
0100
0100
0010
,
1000
1000
0010
0100
,
2000
0000
0000
3003
,
1010
0000
0000
0110
0000
0000
0101
0000
,
0001
1000
0001
0000
0110
0000
0000
0000
,
0001
1000
0001
0000
0110
0000
0000
0000
,
1000
0001
1000
0000
0110
0000
1000
0001
,
0000
1000
0001
0000
1000
0000
0001
0000
,
1000
0100
0010
0000
0010
0000
0010
0000
,
0010
0010
0010
0010
,
0100
1000
0010
0000
0010
0000
0100
0001
,
1000
0000
0000
0000
;

//---------------dance-single - Renard----------------
#NOTES:
     dance-single:
     Renard:
     Easy:
     3:
     0.317,0.272,0.010,0.000,0.000:
0000
0000
0000
0000
,
0000
0000
0000
0000
,
0000
0000
0000
0000
,
0000
0000
0000
0000
,
0000
0000
0000
0000
,
0100
0100
0010
0001
,
1000
1000
1000
0000
,
0100
0100
0010
0100
,
1000
1000
1000
0000
,
0100
0001
1000
0010
,
1000
0001
0100
0000
,
0010
1000
0001
0100
,
0001
1000
0010
0000
,
0100
1000
0100
0100
,
0010
0001
0010
0001
,
0100
0001
0100
0100
,
0010
1000
0010
1000
,
0100
1000
0100
0100
,
0010
0001
0010
0001
,
0100
0001
0100
0100
,
0010
1000
0010
1000
,
0100
0100
1000
0000
,
0001
0001
0010
0000
,
1000
0010
1000
0001
,
0100
0100
0010
0100
,
0100
0010
0010
0010
,
1000
1000
1000
1000
,
0001
0001
0001
0001
,
0100
0000
0001
1000
,
0001
0001
0001
0001
,
0100
0100
0100
0100
,
1000
0000
0000
0000
,
1000
0000
0001
0100
,
0100
0100
1000
0000
,
0010
0001
0100
0000
,
0010
0100
0100
0001
,
1000
0010
0100
0010
,
0001
0001
0001
0001
,
0100
0100
0100
0100
,
0001
0001
0001
0001
,
0010
0100
0100
0100
,
1000
0000
0001
0010
,
0100
0000
0001
1000
,
0010
0000
1000
0001
,
0100
0000
1000
0001
,
0010
0000
0100
0001
,
1000
0000
0001
0100
,
1000
0000
0001
0010
,
0001
0010
0100
0100
,
0010
0000
0001
1000
,
0100
0000
0001
1000
,
0010
0100
0100
0010
,
0001
0001
0010
0100
,
0100
0001
0001
0001
,
1000
1000
0001
1000
,
0010
0000
0000
0000
,
0100
0000
0001
1000
,
0010
0001
0001
1000
,
0100
0100
1000
0001
,
0100
0000
0000
0000
,
0100
0000
0001
0001
,
0010
0100
0001
0000
,
0010
0100
0001
0000
,
0100
0100
0001
0100
,
0010
0100
0100
0010
,
0100
0001
1000
1000
,
1000
1000
1000
1000
,
0001
0100
1000
0001
,
1001
0000
0000
0000
;

//---------------dance-single - ----------------
#NOTES:
     dance-single:
     :
     Beginner:
     1:
     0.177,0.170,0.010,0.000,0.000:
0000
0000
0000
0000
,
0000
0000
0000
0000
,
0000
0000
0000
0000
,
0000
0000
0000
0000
,
0000
0000
0000
0000
,
0100
0000
0010
0000
,
1000
0000
1000
0000
,
0100
0000
0010
0000
,
1000
0000
1000
0000
,
0100
0000
1000
0000
,
1000
0000
0100
0000
,
0000
1000
0000
0100
,
0000
1000
0000
0000
,
0100
0000
0100
0000
,
0010
0000
0010
0000
,
0100
0000
0100
0000
,
0010
0000
0010
1000
,
0000
1000
0000
0100
,
0000
0001
0000
0001
,
0000
0001
0000
0100
,
0000
1000
0000
1000
,
0000
0100
0000
0000
,
0001
0000
0010
0000
,
1000
0000
1000
0000
,
0100
0000
0010
0000
,
0100
0000
0010
0000
,
1000
0000
1000
0000
,
0001
0000
0001
0000
,
0100
0000
0001
0000
,
0001
0000
0001
0000
,
0100
0000
0100
0000
,
1000
0000
0000
0000
,
1000
0000
0001
0000
,
0100
0000
1000
0000
,
0010
0000
0100
0000
,
0010
0000
0100
0000
,
1000
0000
0100
0000
,
0001
0000
0001
0000
,
0100
0000
0100
0000
,
0001
0000
0001
0000
,
0010
0000
0100
0000
,
1000
0000
0001
0000
,
0100
0000
0001
0000
,
0010
0000
1000
0000
,
0100
0000
1000
0000
,
0010
0000
0100
0000
,
1000
0000
0001
0000
,
1000
0000
0001
0000
,
0001
0000
0100
0000
,
0010
0000
0001
0000
,
0100
0000
0001
0000
,
0010
0000
0100
0000
,
0001
0000
0010
0000
,
0100
0001
0000
0001
,
0000
1000
0000
1000
,
0000
0000
0000
0000
,
0100
0000
0001
0000
,
0010
0000
0001
0000
,
0100
0000
1000
0000
,
0100
0000
0000
0000
,
0100
0000
0001
0000
,
0010
0000
0001
0000
,
0010
0000
0001
0000
,
0100
0000
0001
0100
,
0000
0100
0000
0010
,
0000
0001
0000
1000
,
0000
1000
0000
1000
,
0000
0100
0000
0000
,
1001
0000
0000
0000
;
