#VERSION:0.83;
#TITLE:Super Shooter;
#SUBTITLE:- GANTZ OP1;
#ARTIST:RIP SLYME;
#TITLETRANSLIT:;
#SUBTITLETRANSLIT:;
#ARTISTTRANSLIT:;
#GENRE:;
#ORIGIN:;
#CREDIT:Loak;
#BANNER:Super Shooter.png;
#BACKGROUND:Super Shooter-bg.png;
#PREVIEWVID:;
#JACKET:;
#CDIMAGE:;
#DISCIMAGE:;
#LYRICSPATH:;
#CDTITLE:;
#MUSIC:Super Shooter.ogg;
#OFFSET:0.000000;
#SAMPLESTART:64.010010;
#SAMPLELENGTH:10.600000;
#SELECTABLE:YES;
#BPMS:0.000=180.000;
#STOPS:;
#DELAYS:;
#WARPS:;
#TIMESIGNATURES:0.000=4=4;
#TICKCOUNTS:0.000=4;
#COMBOS:0.000=1;
#SPEEDS:0.000=1.000=0.000=0;
#SCROLLS:0.000=1.000;
#FAKES:;
#LABELS:0.000=Song Start;
#BGCHANGES:;
#KEYSOUNDS:;
#ATTACKS:
;

//---------------dance-single - ----------------
#NOTEDATA:;
#CHARTNAME:;
#STEPSTYPE:dance-single;
#DESCRIPTION:;
#CHARTSTYLE:;
#DIFFICULTY:Challenge;
#METER:13;
#RADARVALUES:1.382023,1.205056,0.011236,0.000000,2.213483,861.000000,860.000000,1.000000,0.000000,0.000000,0.000000,0.000000,0.000000,0.000000,1.382023,1.205056,0.011236,0.000000,2.213483,861.000000,860.000000,1.000000,0.000000,0.000000,0.000000,0.000000,0.000000,0.000000;
#CREDIT:Loak;
#NOTES:
0000
0000
0000
0000
,
0000
0000
0000
0000
,
0000
0000
0000
0000
,
0000
0000
0000
0000
,
1000
0000
0001
0000
1000
0000
0001
0100
0000
0001
1000
0000
0001
0000
0000
0000
,
1000
0000
0100
1000
0000
0001
1000
0000
0001
0000
0000
0000
0000
0000
0100
0000
,
0010
0000
1000
0000
0010
0000
0100
0010
0000
1000
0010
0000
0100
0000
0000
0000
,
0001
0000
0010
0100
0000
0010
0001
0000
0010
0000
0000
0000
0100
0000
1000
0000
,
0010
0000
0000
0000
1000
0000
0001
0010
0001
1000
0001
0010
0100
0000
1000
0000
,
0000
0000
0001
0000
0000
0000
1000
0000
0100
0010
0001
0010
0100
0000
1000
0000
,
0010
0000
0000
0000
0100
0000
0001
1000
0010
1000
0100
1000
0001
0000
0010
0000
,
0000
0000
0001
0000
0000
0000
0100
0000
0010
1000
0010
0100
0001
0000
1000
0000
,
0100
0010
0001
1000
0001
0010
0100
1000
,
0001
0100
0010
1000
0010
0100
0001
0010
,
0100
0100
1000
1000
0001
0001
0100
0100
,
0010
1000
0010
1000
0001
0010
0001
0010
0100
0000
0000
0000
1001
0000
0000
0000
,
0001
0010
0001
0100
0010
1000
0001
0010
0100
0010
0001
0100
0010
1000
0001
1000
,
0100
0010
0001
1000
0010
1000
0001
0010
0100
1000
0001
0100
0001
1000
0100
1000
,
0010
0100
0001
1000
0001
0010
0100
1000
0010
1000
0001
0010
0001
0100
0010
1000
,
0100
0010
0001
1000
0100
1000
0010
0100
0001
1000
0001
0100
0010
1000
0001
0010
,
0100
1000
0010
0100
0001
0100
0010
1000
0100
0010
0001
0100
0010
1000
0001
1000
,
0100
0010
0001
0100
0001
1000
0100
1000
0010
0100
0001
0010
0100
1000
0001
1000
,
0100
0010
0001
0100
0010
1000
0001
1000
0100
0010
0001
1000
0010
1000
0001
0010
,
0001
0100
0010
1000
0001
1000
0100
0010
0001
1000
0001
0010
0100
1000
0001
0100
,
0010
1000
0100
1000
0001
0010
0001
1000
0010
0100
0001
0010
0001
1000
0100
1000
,
0001
0100
0010
1000
0001
1000
0100
1000
0010
0100
0001
1000
0001
0010
0100
1000
,
0010
1000
0001
0010
0001
0100
0010
1000
0001
0010
0001
0100
0010
1000
0001
1000
,
0100
0010
0001
0100
0010
1000
0100
1000
0001
0010
0100
1000
0001
1000
0010
0100
,
0001
0010
0001
1000
0010
0100
0001
1000
0100
1000
0010
0100
0001
0010
0100
0010
,
0001
0100
0010
1000
0100
0010
0001
0100
0010
1000
0100
1000
0010
0100
0010
1000
,
0100
1000
0010
0100
0001
0010
0100
1000
0001
1000
0100
0010
0001
0100
0001
1000
,
0100
1000
0010
0100
0001
1000
0001
0010
0100
1000
0001
1000
0010
0100
0001
0100
,
0010
1000
0001
0010
0100
0010
0001
1000
0010
0100
0001
1000
0100
1000
0001
0100
,
0010
1000
0001
1000
0100
0010
0001
0100
0010
1000
0100
1000
0001
0100
0010
1000
,
0001
0010
0001
0100
0010
1000
0001
1000
0100
0010
0001
1000
0001
0010
0100
1000
,
0001
0100
0010
1000
0100
1000
0001
0100
0010
1000
0001
1000
0100
0010
0001
1000
,
0001
0100
0010
1000
0100
1000
0010
0100
0001
0010
0100
1000
0001
0100
0001
1000
,
0100
1000
0010
0100
0001
1000
0001
0010
0100
0010
0001
1000
0010
0100
0010
1000
,
0001
1000
0100
0010
0001
0100
0001
1000
0100
1000
0010
0100
0001
1000
0001
0010
,
0100
1000
0001
0010
0001
0100
0010
1000
0100
1000
0010
0100
0001
1000
0100
0010
,
0001
1000
0010
0100
0001
1000
0001
0100
0010
1000
0001
1000
0100
0010
0001
0100
,
0001
1000
0010
0100
0010
1000
0001
0100
0001
1000
0100
0010
0001
0100
0001
1000
,
0100
1000
0010
0100
0001
0010
0001
1000
0001
0100
0010
1000
0100
1000
0010
0100
,
0001
1000
0001
0010
0100
1000
0010
1000
0001
0010
0001
0100
0010
1000
0010
0100
,
0001
1000
0001
0010
0100
1000
0010
1000
0001
0010
0001
0100
0010
1000
0001
1000
,
0100
0010
0001
1000
0001
0100
0010
1000
0100
1000
0010
0100
0001
1000
0100
0010
,
0001
1000
0001
1000
,
0001
0000
0100
0000
0001
0000
0100
0000
0010
1000
0010
0100
0001
1000
0100
0010
,
0001
1000
0001
0010
0100
1000
0010
1000
0001
0010
0001
1000
0010
0100
0001
1000
,
0001
0100
0010
1000
0100
1000
0001
0010
0001
0100
0010
1000
0001
0010
0100
0010
,
0001
1000
0010
0100
0001
1000
0100
1000
0010
0100
0001
0010
0001
1000
0010
1000
,
0001
0010
0100
1000
0001
0100
0010
1000
0100
1000
0010
0100
0001
1000
0001
0010
,
0100
1000
0001
0100
0001
1000
0100
0010
0001
0100
0001
1000
0100
1000
0010
0100
,
0001
0100
0010
1000
0001
0010
0100
1000
0001
1000
0010
0100
0001
1000
0001
0100
,
0010
1000
0100
0010
0001
1000
0001
0100
0010
1000
0010
0100
0001
1000
0100
0010
,
0001
1000
0001
0010
0100
1000
0001
0100
0010
1000
0100
1000
0010
0100
0001
1000
,
0001
0010
0100
1000
0001
0100
0001
1000
0100
0010
0001
0100
0010
1000
0010
0100
,
0001
1000
0001
0010
0100
1000
0001
1000
0010
0100
0001
1000
0100
1000
0010
0100
,
0001
1000
0001
0100
0010
1000
0100
0010
0001
1000
0001
0100
0010
1000
0001
1000
,
0100
0010
0001
0100
0001
1000
0100
1000
0010
0100
0001
1000
0001
0010
0100
1000
,
0001
1000
0010
0100
0001
1000
0100
1000
0010
0100
0001
1000
0100
0010
0001
0100
,
0001
1000
0100
1000
0010
0100
0001
0010
0001
1000
0010
0100
0001
0010
0001
1000
,
0010
1000
0001
0010
0100
1000
0001
1000
0010
0100
0001
0010
0100
1000
0001
1000
,
0100
0010
0001
0100
0001
1000
0100
1000
0010
0100
0001
1000
0001
0000
0000
0000
,
1000
0000
0100
0000
0010
0000
0001
0010
0000
0001
0010
0000
0001
0000
1000
0000
,
0010
0000
0000
0000
;

//---------------dance-single - ----------------
#NOTEDATA:;
#CHARTNAME:;
#STEPSTYPE:dance-single;
#DESCRIPTION:;
#CHARTSTYLE:;
#DIFFICULTY:Hard;
#METER:12;
#RADARVALUES:1.062600,1.022472,0.011236,0.011236,1.252809,662.000000,661.000000,1.000000,1.000000,0.000000,0.000000,0.000000,0.000000,0.000000,1.062600,1.022472,0.011236,0.011236,1.252809,662.000000,661.000000,1.000000,1.000000,0.000000,0.000000,0.000000,0.000000,0.000000;
#CREDIT:Loak;
#NOTES:
0000
0000
0000
0000
,
0000
0000
0000
0000
,
0000
0000
0000
0000
,
0000
0000
0000
0000
,
1000
0000
0001
0000
1000
0000
0001
0100
0000
0001
1000
0000
0001
0000
0000
0000
,
1000
0000
0100
1000
0000
0001
1000
0000
0001
0000
0000
0000
0000
0000
0100
0000
,
0010
0000
1000
0000
0010
0000
0100
0010
0000
1000
0010
0000
0100
0000
0000
0000
,
0001
0000
0010
0100
0000
0010
0001
0000
0010
0000
0000
0000
0100
0000
1000
0000
,
0010
0000
0000
0000
1000
0000
0001
0010
0001
1000
0001
0010
0100
0000
1000
0000
,
0000
0000
0001
0000
0000
0000
1000
0000
0100
0010
0001
0010
0100
0000
1000
0000
,
0010
0000
0000
0000
0100
0000
0001
1000
0010
1000
0100
1000
0001
0000
0010
0000
,
0000
0000
0001
0000
0000
0000
0100
0000
0010
1000
0010
0100
0001
0000
1000
0000
,
0100
0010
0001
1000
0001
0010
0100
1000
,
0001
0100
0010
1000
0010
0100
0001
0010
,
0100
0100
1000
1000
0001
0001
0100
0100
,
0010
1000
0010
1000
0001
0010
0001
0010
0100
0000
0000
0000
1001
0000
0000
0000
,
0001
0000
0100
0000
0010
1000
0001
1000
0100
0010
0001
0010
0100
0000
1000
0000
,
0001
0000
1000
0000
0010
0100
0001
0100
0010
1000
0001
1000
0100
0010
0001
1000
,
0001
0000
0100
0000
0001
1000
0100
1000
0010
0100
0001
0100
0010
0000
1000
0000
,
0001
0000
1000
0000
0100
0010
0001
0100
0001
1000
0010
1000
0001
1000
0100
0010
,
0001
0000
1000
0000
0001
0010
0100
1000
0010
1000
0001
0100
0001
0000
1000
0000
,
0010
0000
1000
0000
0001
0010
0100
0010
0001
1000
0001
0100
0010
1000
0100
0010
,
0001
0000
1000
0000
0001
0010
0100
1000
0010
1000
0001
0100
0001
0000
0010
0000
,
0001
0000
1000
0000
0001
0100
0010
1000
0100
1000
0010
0100
0001
1000
0001
0010
,
0100
0000
1000
0000
0010
1000
0010
0100
0001
1000
0100
0010
0100
0000
1000
0000
,
0001
0000
1000
0000
0010
0100
0001
1000
0001
0010
0100
1000
0010
0100
0001
1000
,
0100
0000
1000
0000
0001
0100
0010
1000
0100
1000
0010
0100
0001
0000
1000
0000
,
0001
0000
0010
0000
0100
1000
0100
0010
0001
1000
0001
0100
0010
1000
0100
0010
,
0001
0000
1000
0010
1000
0000
0001
0010
0001
0000
0100
0000
0001
0000
0001
0000
,
1000
0100
0010
0010
0001
0000
1000
0000
,
0001
0000
0100
0001
0010
0000
0100
1000
,
0100
0000
0010
0000
0001
0100
0010
1000
0100
1000
0010
0100
0001
0010
0100
1000
,
0001
0000
0000
0000
0100
0000
0010
1000
0000
0010
0100
0000
0001
0000
0000
0000
,
1000
0000
0000
0001
0000
0000
1000
0000
0000
0100
0000
0000
0010
0000
0000
0000
,
0001
2000
0000
3010
0100
0001
0000
0000
,
1000
0000
0100
0010
0000
0001
0010
0000
0100
0000
0000
0000
1000
0000
0000
0000
,
0001
0000
0000
0000
0100
0000
0010
1000
0000
0001
1000
0000
0010
0000
0000
0000
,
0100
0000
0000
0000
0000
0000
0001
0000
0000
1000
0000
0000
0100
0000
0000
1000
0000
0000
0001
0000
0000
0100
0000
0000
0000
0000
0000
0010
0000
0000
1000
0000
0000
0000
0000
0000
0001
0000
0000
0000
0010
0000
0000
0000
0100
0000
0000
0000
,
1000
0000
0001
0000
0100
0000
0001
0010
0000
0001
1000
0000
0010
0000
0000
0000
,
0100
0000
0001
1000
0000
0001
0010
0000
0100
0000
0000
0000
1000
0000
0000
0000
,
0100
0000
0010
0000
0001
1000
0010
1000
0001
0010
0100
1000
0001
0000
0100
0000
,
0010
0000
1000
0000
0010
0100
0001
1000
0100
1000
0001
0010
0001
0100
0010
1000
,
0001
0000
1000
0000
0100
0010
0001
0010
0100
1000
0001
1000
0010
0000
0100
0001
,
0100
0000
0010
0000
1000
0001
1000
0100
0010
0001
0100
0001
1000
0100
1000
0010
,
0100
0000
0001
0000
0100
0010
1000
0010
0100
0001
1000
0100
0010
0000
0001
0000
,
1000
0000
0001
0000
0100
0010
1000
0001
1000
0010
0100
0001
0010
0100
1000
0001
,
1000
0001
1000
0001
,
1000
0000
0010
0000
1000
0000
0010
0000
0100
0001
0100
0001
1000
0100
1000
0100
,
0010
0000
0001
0000
1000
0010
0100
0001
0010
0001
0100
0010
1000
0000
0001
0000
,
0010
0000
0100
0000
0010
0001
1000
0001
0100
0010
1000
0010
0100
0001
1000
0001
,
0010
0000
0100
0000
1000
0100
0010
0001
0100
0001
1000
0100
1000
0000
0010
0000
,
0100
0000
0001
0000
0100
0010
1000
0001
0010
0001
0100
0010
1000
0001
1000
0100
,
0010
0000
0001
0000
1000
0001
0100
0001
0010
0100
1000
0010
1000
0000
0001
0000
,
0100
0000
0001
0000
0010
0100
1000
0100
0010
0001
1000
0010
0100
0001
0100
0010
,
1000
0000
0001
0000
0100
0010
1000
0100
1000
0010
0100
0001
0010
0000
0100
0000
,
1000
0000
0001
0000
1000
0010
0100
0001
0010
0001
1000
0100
0010
0001
1000
0010
,
1000
0000
0001
0000
0010
0100
1000
0001
1000
0010
0100
0001
1000
0000
0001
0000
,
0010
0000
0001
0000
0100
0010
1000
0100
1000
0010
0100
0001
0010
0100
1000
0001
,
0100
0000
0001
0000
1000
0100
1000
0010
0100
0001
0100
0010
1000
0000
0001
0000
,
0010
0000
0001
0000
1000
0010
0100
0001
0010
0001
1000
0100
0010
0100
1000
0001
,
1000
0000
0010
0000
0100
0001
1000
0001
0010
0100
1000
0010
1000
0000
0001
0000
,
0010
0000
0001
0000
1000
0010
0100
0001
1000
0001
0010
0100
1000
0100
0010
0001
,
1000
0000
0001
0000
0100
0010
1000
0100
0010
0001
0100
0001
1000
0000
0100
0000
,
1000
0000
0001
0000
0100
0010
1000
0001
1000
0010
0100
0001
0010
0000
0000
0000
,
0100
0000
0010
0000
0001
0000
1000
0001
0000
1000
0001
0000
1000
0000
0010
0000
,
0100
0000
0000
0000
;

//---------------dance-single - ----------------
#NOTEDATA:;
#CHARTNAME:;
#STEPSTYPE:dance-single;
#DESCRIPTION:;
#CHARTSTYLE:;
#DIFFICULTY:Medium;
#METER:9;
#RADARVALUES:0.611557,0.766854,0.011236,0.000000,0.258427,381.000000,380.000000,1.000000,0.000000,0.000000,0.000000,0.000000,0.000000,0.000000,0.611557,0.766854,0.011236,0.000000,0.258427,381.000000,380.000000,1.000000,0.000000,0.000000,0.000000,0.000000,0.000000,0.000000;
#CREDIT:Loak;
#NOTES:
0000
0000
0000
0000
,
0000
0000
0000
0000
,
0000
0000
0000
0000
,
0000
0000
0000
0000
,
1000
0000
0001
0000
1000
0000
0001
0100
0000
0001
1000
0000
0001
0000
0000
0000
,
1000
0000
0100
1000
0000
0001
1000
0000
0001
0000
0000
0000
0000
0000
0100
0000
,
0010
0000
1000
0000
0010
0000
0100
0010
0000
1000
0010
0000
0100
0000
0000
0000
,
0001
0000
0010
0100
0000
0010
0001
0000
0010
0000
0000
0000
0100
0000
1000
0000
,
0010
0000
0100
0000
0001
0100
0001
1000
,
0000
0100
0000
1000
0001
1000
0010
0100
,
0001
0000
0100
0000
0001
1000
0001
0010
,
0000
0100
0000
0010
0001
0010
0100
1000
,
0001
0010
0001
1000
0001
0100
0001
1000
,
0010
0100
0010
1000
0010
0100
0010
0100
,
0001
0001
1000
1000
0001
0001
0100
0100
,
0010
1000
0010
1000
0001
0010
0001
0010
0100
0000
0000
0000
1001
0000
0000
0000
,
1000
0000
0010
0000
1000
0000
0001
0000
0010
0000
0000
0100
0000
0000
1000
0000
,
0000
0001
0100
0001
1000
0000
0100
0000
,
0010
0000
0001
0000
0000
0000
1000
0010
1000
0000
0001
0000
0000
0000
0010
0000
,
0100
1000
0001
0000
0100
0000
0010
0000
,
0000
1000
0000
0001
0010
0000
0100
1000
,
0000
0001
1000
0000
0010
0000
0100
0000
,
0010
1000
0000
0001
1000
0000
0100
0000
,
0010
0001
0000
1000
0001
0100
0001
1000
,
0100
0000
0000
0000
0010
0000
0000
0001
0000
0000
1000
0000
0001
0000
0100
0000
,
0010
0000
0000
1000
0000
0000
0010
0000
0100
0000
0000
0000
0001
0000
1000
0000
,
0001
0000
0000
0010
0000
0000
0100
0010
0000
0100
0000
0000
1000
0000
0001
0000
,
1000
0000
0000
0010
0100
0000
0001
0000
0100
0000
0000
0000
0010
0000
0000
0000
,
1000
0000
0100
1000
0100
0000
0010
0001
0010
0000
0100
0000
1000
0000
1000
0000
,
0001
0100
0010
0010
1000
0000
0001
0000
,
1000
0000
0010
1000
0100
0000
0010
0001
,
0010
0100
0010
0001
0100
0000
0010
0000
,
1000
0000
0000
0000
0010
0000
0100
0001
0000
0100
0010
0000
1000
0000
0000
0000
,
0001
0000
0000
1000
0000
0000
0001
0000
0000
0010
0000
0000
0100
0000
0000
0000
,
1000
0001
0000
0100
0010
1000
0000
0000
,
0001
0000
0010
0100
0000
1000
0100
0000
0010
0000
0000
0000
0001
0000
0000
0000
,
1000
0000
0000
0000
0010
0000
0100
0001
0000
1000
0001
0000
0100
0000
0000
0000
,
0001
0000
0000
0000
0000
0000
1000
0000
0000
0010
0000
0000
0000
0000
0000
1000
0000
0000
0010
0000
0000
0000
0000
0000
0100
0000
0000
0001
0000
0000
0100
0000
0000
0000
0000
0000
0010
0000
0000
0000
1000
0000
0000
0000
0001
0000
0000
0000
,
1000
0000
0001
0000
0010
0000
0100
0010
0000
0100
0010
0000
0001
0000
0000
0000
,
0100
0000
0001
1000
0000
0001
0100
0000
0010
0000
0000
0000
1000
0000
0000
0000
,
0001
0000
1000
0000
0100
0010
0000
0001
,
0000
1000
0000
0001
0010
0100
1000
0000
,
0001
0000
0000
0000
0100
0000
0010
0000
1000
0000
0010
0000
1000
0000
0001
0010
,
0001
1000
0010
0100
0001
0000
0100
0000
,
0010
0000
1000
0001
0010
0100
0000
0010
,
0000
0001
0000
0100
0010
1000
0010
0000
,
1000
0001
1000
0001
,
1000
0000
0100
0000
1000
0000
0100
0000
0010
0001
0010
0001
1000
0010
1000
0010
,
0100
0000
0001
0000
0100
0000
0010
1000
,
0000
0001
0000
1000
0100
0000
0010
0000
,
0100
0000
1000
0000
0001
0000
1000
0010
,
0000
0100
0000
0001
0100
0000
0010
1000
,
0001
0000
1000
0000
0001
0000
0010
0100
,
0000
1000
0000
0100
0010
0000
0001
0000
,
1000
0000
0010
0000
1000
0000
0001
0010
,
0000
0100
0000
1000
0001
0000
0100
0010
,
1000
0000
0010
0000
0100
0000
0001
1000
,
0000
0001
0000
0010
0001
0000
0100
0000
,
0010
0000
1000
0000
0001
0000
1000
0010
,
0000
0100
0000
0001
1000
0000
0100
0010
,
0001
0000
0010
0000
0100
0000
1000
0010
,
0000
1000
0000
0001
0100
0000
0001
0000
,
1000
0000
0100
0000
1000
0000
0001
0010
,
0000
0001
0000
1000
0010
0000
0100
0000
,
0010
0000
0100
0000
0001
0000
1000
0001
0000
1000
0001
0000
1000
0000
0100
0000
,
0010
0000
0000
0000
;

//---------------dance-single - ----------------
#NOTEDATA:;
#CHARTNAME:;
#STEPSTYPE:dance-single;
#DESCRIPTION:;
#CHARTSTYLE:;
#DIFFICULTY:Easy;
#METER:5;
#RADARVALUES:0.324238,0.328652,0.000000,0.000000,0.000000,202.000000,202.000000,0.000000,0.000000,0.000000,0.000000,0.000000,0.000000,0.000000,0.324238,0.328652,0.000000,0.000000,0.000000,202.000000,202.000000,0.000000,0.000000,0.000000,0.000000,0.000000,0.000000,0.000000;
#CREDIT:Loak;
#NOTES:
// measure 0
0000
0000
0000
0000
,  // measure 1
0000
0000
0000
0000
,  // measure 2
0000
0000
0000
0000
,  // measure 3
0000
0000
0000
0000
,  // measure 4
1000
0001
1000
0001
,  // measure 5
0010
0100
0010
0000
,  // measure 6
0100
1000
0100
1000
,  // measure 7
0001
0100
0001
0000
,  // measure 8
0100
0010
0000
0010
,  // measure 9
0000
1000
0000
1000
,  // measure 10
0000
0001
0000
0001
,  // measure 11
0000
0010
0000
0010
,  // measure 12
0100
0100
1000
1000
,  // measure 13
0001
0001
0100
0100
,  // measure 14
0010
0010
1000
1000
,  // measure 15
0001
0001
0010
0000
,  // measure 16
0001
1000
0001
0010
,  // measure 17
0100
0010
0001
1000
,  // measure 18
0010
1000
0001
0100
,  // measure 19
0001
1000
0001
0010
,  // measure 20
0100
1000
0100
0010
,  // measure 21
0001
1000
0010
1000
,  // measure 22
0001
1000
0001
0100
,  // measure 23
0010
1000
0001
0010
,  // measure 24
0100
0010
0100
0010
,  // measure 25
0001
1000
0010
1000
,  // measure 26
0001
0010
0001
1000
,  // measure 27
0010
0100
0010
1000
,  // measure 28
0010
0100
0001
0100
,  // measure 29
0010
1000
0001
0100
,  // measure 30
0010
1000
0001
1000
,  // measure 31
0001
0010
0100
1000
,  // measure 32
0001
0000
0100
0000
,  // measure 33
0001
0000
1000
0000
,  // measure 34
0100
0000
0010
0000
,  // measure 35
0001
0000
1000
0000
,  // measure 36
0001
0000
0100
0000
,  // measure 37
0010
0000
1000
0000
,  // measure 38
0001
0000
0100
0000
,  // measure 39
0001
0000
0010
0000
,  // measure 40
0100
1000
0100
0010
,  // measure 41
0001
1000
0001
0100
,  // measure 42
0001
1000
0100
0010
,  // measure 43
0001
1000
0001
0010
,  // measure 44
0100
1000
0001
1000
,  // measure 45
0001
0100
0010
1000
,  // measure 46
0001
1000
0001
1000
,  // measure 47
0100
0010
0100
0010
,  // measure 48
0001
0000
1000
0000
,  // measure 49
0010
1000
0001
1000
,  // measure 50
0100
0000
0010
0000
,  // measure 51
0001
1000
0001
0100
,  // measure 52
0010
0000
1000
0000
,  // measure 53
0010
0100
0001
1000
,  // measure 54
0001
0000
0010
0000
,  // measure 55
0100
1000
0100
0010
,  // measure 56
0001
0000
1000
0000
,  // measure 57
0010
1000
0001
1000
,  // measure 58
0100
0000
0010
0000
,  // measure 59
0001
0010
0100
1000
,  // measure 60
0001
0000
0100
0000
,  // measure 61
0001
1000
0010
1000
,  // measure 62
0001
0000
0010
0000
,  // measure 63
0100
1000
0100
0010
,  // measure 64
0001
0000
0000
0000
0000
1000
0000
1000
,  // measure 65
0001
0000
0000
0000
;

//---------------dance-single - ----------------
#NOTEDATA:;
#CHARTNAME:;
#STEPSTYPE:dance-single;
#DESCRIPTION:;
#CHARTSTYLE:;
#DIFFICULTY:Beginner;
#METER:2;
#RADARVALUES:0.099518,0.109551,0.000000,0.000000,0.000000,62.000000,62.000000,0.000000,0.000000,0.000000,0.000000,0.000000,0.000000,0.000000,0.099518,0.109551,0.000000,0.000000,0.000000,62.000000,62.000000,0.000000,0.000000,0.000000,0.000000,0.000000,0.000000,0.000000;
#CREDIT:Loak;
#NOTES:
// measure 0
0000
0000
0000
0000
,  // measure 1
0000
0000
0000
0000
,  // measure 2
0000
0000
0000
0000
,  // measure 3
0000
0000
0000
0000
,  // measure 4
0001
0000
0000
0000
,  // measure 5
0001
0000
0000
0000
,  // measure 6
1000
0000
0000
0000
,  // measure 7
1000
0000
0000
0000
,  // measure 8
0100
0000
0000
0000
,  // measure 9
0010
0000
0000
0000
,  // measure 10
0100
0000
0000
0000
,  // measure 11
0010
0000
0000
0000
,  // measure 12
0001
0000
0000
0000
,  // measure 13
1000
0000
0000
0000
,  // measure 14
0001
0000
0000
0000
,  // measure 15
1000
0000
0000
0000
,  // measure 16
0010
0000
0000
0000
,  // measure 17
0100
0000
0000
0000
,  // measure 18
0010
0000
0000
0000
,  // measure 19
0100
0000
0000
0000
,  // measure 20
0001
0000
0000
0000
,  // measure 21
1000
0000
0000
0000
,  // measure 22
0001
0000
0000
0000
,  // measure 23
1000
0000
0000
0000
,  // measure 24
0001
0000
0000
0000
,  // measure 25
0010
0000
0000
0000
,  // measure 26
0100
0000
0000
0000
,  // measure 27
0010
0000
0000
0000
,  // measure 28
0001
0000
0000
0000
,  // measure 29
1000
0000
0000
0000
,  // measure 30
0001
0000
0000
0000
,  // measure 31
0100
0000
0000
0000
,  // measure 32
0010
0000
0000
0000
,  // measure 33
1000
0000
0000
0000
,  // measure 34
0010
0000
0000
0000
,  // measure 35
1000
0000
0000
0000
,  // measure 36
0001
0000
0000
0000
,  // measure 37
1000
0000
0000
0000
,  // measure 38
0100
0000
0000
0000
,  // measure 39
0010
0000
0000
0000
,  // measure 40
0100
0000
0000
0000
,  // measure 41
1000
0000
0000
0000
,  // measure 42
0100
0000
0000
0000
,  // measure 43
0010
0000
0000
0000
,  // measure 44
0001
0000
0000
0000
,  // measure 45
1000
0000
0000
0000
,  // measure 46
0001
0000
0000
0000
,  // measure 47
1000
0000
0000
0000
,  // measure 48
0001
0000
0000
0000
,  // measure 49
0100
0000
0000
0000
,  // measure 50
0010
0000
0000
0000
,  // measure 51
0100
0000
0000
0000
,  // measure 52
0001
0000
0000
0000
,  // measure 53
0100
0000
0000
0000
,  // measure 54
0010
0000
0000
0000
,  // measure 55
1000
0000
0000
0000
,  // measure 56
0001
0000
0000
0000
,  // measure 57
1000
0000
0000
0000
,  // measure 58
0100
0000
0000
0000
,  // measure 59
1000
0000
0000
0000
,  // measure 60
0001
0000
0000
0000
,  // measure 61
0100
0000
0000
0000
,  // measure 62
0010
0000
0000
0000
,  // measure 63
1000
0000
0000
0000
,  // measure 64
0001
0000
0000
0000
,  // measure 65
1000
0000
0000
0000
;
