#VERSION:0.83;
#TITLE:STORY;
#SUBTITLE:- 異世界おじさん OP1;
#ARTIST:前島麻由;
#TITLETRANSLIT:;
#SUBTITLETRANSLIT:- Uncle from Another World OP1;
#ARTISTTRANSLIT:Mayu Maeshima;
#GENRE:;
#ORIGIN:;
#CREDIT:Loak;
#BANNER:Story.png;
#BACKGROUND:Story-bg.png;
#PREVIEWVID:;
#JACKET:;
#CDIMAGE:;
#DISCIMAGE:;
#LYRICSPATH:;
#CDTITLE:;
#MUSIC:Story.ogg;
#OFFSET:0.000000;
#SAMPLESTART:49.639999;
#SAMPLELENGTH:17.400000;
#SELECTABLE:YES;
#BPMS:0.000=220.000;
#STOPS:;
#DELAYS:;
#WARPS:;
#TIMESIGNATURES:0.000=4=4;
#TICKCOUNTS:0.000=4;
#COMBOS:0.000=1;
#SPEEDS:0.000=1.000=0.000=0;
#SCROLLS:0.000=1.000;
#FAKES:;
#LABELS:0.000=Song Start;
#BGCHANGES:;
#KEYSOUNDS:;
#ATTACKS:
;

//---------------dance-single - ----------------
#NOTEDATA:;
#CHARTNAME:;
#STEPSTYPE:dance-single;
#DESCRIPTION:;
#CHARTSTYLE:;
#DIFFICULTY:Challenge;
#METER:16;
#RADARVALUES:1.427002,1.468681,0.252747,0.032967,2.038461,909.000000,886.000000,23.000000,3.000000,3.000000,0.000000,0.000000,0.000000,0.000000,1.427002,1.468681,0.252747,0.032967,2.038461,909.000000,886.000000,23.000000,3.000000,3.000000,0.000000,0.000000,0.000000,0.000000;
#CREDIT:Loak;
#NOTES:
0000
0000
0000
0000
,
00M0
0000
0M00
0000
00M0
0000
0000
0000
0001
1000
0100
0010
0001
0100
0001
1000
,
0010
0100
0001
0010
0001
1000
0010
0100
0001
0010
0100
1000
0001
1000
0010
0100
,
0001
0010
0100
1000
0001
0100
0001
1000
0100
0010
0001
0100
0001
1000
0010
0100
,
0001
0010
0100
1000
0001
0100
0001
1000
0010
0100
0001
1000
0001
0010
0100
1000
,
0001
1000
0010
0100
0001
0010
0100
1000
0010
1000
0001
1000
0010
0100
0001
0010
,
0100
1000
0001
1000
0010
0100
0001
0010
0100
1000
0100
0010
0001
0100
0010
1000
,
0001
1000
0100
0010
0001
0100
0010
1000
0100
1000
0010
0100
0001
1000
0001
0100
,
0001
1000
0100
0010
0001
1000
0010
1000
0001
0000
0010
0000
0001
0000
0100
0000
,
0010
1000
0100
0010
0001
0000
0100
0000
,
0101
0000
0001
1000
0000
0001
0010
0000
,
0110
0100
1000
0001
1000
0000
0010
0000
,
1010
0000
1000
0001
0000
0100
0001
0000
,
0010
0100
0010
0100
1000
0000
0001
0100
,
0010
0000
0100
0001
0000
1000
0000
0001
,
0010
0100
0010
0000
0001
0000
1000
0001
,
0100
0000
0010
1000
0000
0010
0000
0100
,
0001
0000
0010
0000
0001
0000
1000
0000
0000
0010
0000
0000
0100
0000
0000
0000
0000
0000
0001
0000
0000
0100
0000
0000
,
0010
0000
1000
0001
0000
0010
0000
0100
,
1000
0000
0001
0100
0020
0000
0000
0000
,
0230
0000
0000
0000
0000
0000
0301
1000
0100
1000
0001
0100
,
0010
0000
0000
0000
1000
0000
0000
0000
0001
0010
0100
1000
0001
1000
0100
0010
,
0001
1000
0010
0100
0001
1000
0100
1000
0001
0100
0010
1000
0001
1000
0100
0010
,
0001
0100
0001
1000
0100
1000
0010
0100
0001
1000
0001
0010
0100
1000
0001
1000
,
0010
0100
0001
0100
0010
1000
0001
0010
0100
1000
0001
0100
0001
1000
0100
1000
,
0001
0100
0010
1000
0001
1000
0100
0010
0001
0100
0001
1000
0010
1000
0001
0010
,
0100
1000
0001
0100
0001
1000
0100
1000
0010
0100
0001
1000
0001
0010
0100
1000
,
0001
0010
0001
1000
0010
0100
0001
1000
0100
1000
0001
0100
0010
1000
0001
1000
,
0100
0010
0001
0100
0001
1000
0010
1000
0001
0010
0100
1000
0001
1000
0100
0010
,
0001
0100
0010
0000
,
0000
1000
0001
0000
,
0000
1000
0100
0000
,
0000
0010
0001
1000
,
0001
0100
0010
0000
,
0000
1000
0010
0000
,
0000
0000
0100
0000
0001
1000
0001
1000
,
0100
0010
0001
1000
0001
0100
0010
0100
,
0001
1000
1001
0101
,
1001
1100
0110
0011
,
1001
1010
0110
1010
,
1001
0011
0110
1100
,
1001
0000
0101
0000
0100
0000
0000
0010
,
0000
0000
1000
0000
0000
0001
0000
0000
,
0010
0000
0000
0000
0100
0000
1000
0001
1000
0000
0001
0000
0001
0000
0100
0000
,
0001
0001
0010
0100
1100
0000
1001
0000
,
0000
0000
0000
0000
0000
0000
0000
0000
0001
0100
0010
1000
0001
1000
0010
0100
,
0001
1000
0100
0010
0001
0100
0001
1000
0100
1000
0010
0100
0001
1000
0001
0010
,
0100
1000
0001
0100
0010
1000
0100
0010
0001
1000
0010
1000
0001
0010
0001
0100
,
0010
1000
0001
1000
0100
0010
0001
0100
0001
1000
0100
1000
0010
0100
0001
1000
,
0001
0010
0100
1000
0001
1000
0010
0100
0001
0010
0100
1000
0001
1000
0100
0010
,
0001
0100
0010
1000
0100
1000
0001
0100
0010
1000
0100
1000
0010
0100
0001
0010
,
0100
1000
0001
1000
0100
0010
0001
0100
0001
1000
0100
1000
0010
0100
0001
0010
,
0001
1000
0010
1000
0001
0010
0100
1000
0001
0100
0010
1000
0100
0010
0001
0100
,
0001
1000
0100
1000
0010
0100
0001
0010
0001
0100
0001
1000
0010
1000
0100
0010
,
0001
0100
0010
1000
0010
0100
0001
1000
0001
0010
0100
1000
0010
1000
0100
0010
,
0001
0100
0010
1000
0100
1000
0001
0100
0010
1000
0100
1000
0010
0100
0001
0010
,
0100
1000
0001
1000
0010
0100
0001
0010
0001
1000
0010
1000
0100
0010
0001
1000
,
0001
0100
0010
1000
0100
1000
0010
0100
0001
0010
0100
1000
0001
1000
0010
0100
,
0001
1000
0001
0010
0100
1000
0010
1000
0001
0100
0001
0010
0100
1000
0001
0100
,
0010
1000
0100
1000
0010
0100
0001
0010
0100
1000
0001
0100
0010
1000
0100
1000
,
0001
0100
0001
0010
0100
1000
0010
1000
0001
0010
0001
0100
0010
1000
0001
1000
,
0010
0100
0001
0010
0100
1000
0001
0100
0010
1000
0010
0100
0001
1000
0100
1000
,
0010
0100
0001
0010
0100
1000
0001
1000
0100
0010
0001
0100
0001
1000
0100
1000
,
0010
1000
0001
0100
0001
0010
0100
1000
0001
0100
0001
1000
0001
0010
0100
1000
,
0010
1000
0001
0010
0100
1000
0001
1000
0010
0100
0001
0100
0010
1000
0100
0010
,
0001
0100
0001
1000
0100
1000
0001
0100
0010
1000
0100
1000
0010
0100
0001
0010
,
0100
1000
0001
1000
0100
0010
0001
0100
0001
1000
0010
0100
0001
0100
0010
1000
,
0100
0010
0001
0100
0001
1000
0100
1000
0010
0100
0001
1000
0001
0010
0100
1000
,
0010
1000
0001
0010
0001
0100
0010
1000
0001
0000
0000
0000
0000
0000
1000
0000
,
0000
0000
0000
0000
0001
0000
0000
0000
1000
0100
0010
0001
0100
0001
1000
0100
,
1000
0001
0100
0010
1000
0100
1000
0010
0100
0001
0010
0100
1000
0001
1000
0100
,
0010
0001
0100
0010
1000
0010
0100
0001
1000
0001
0010
0100
1000
0010
1000
0001
,
0010
0001
0100
0001
1000
0010
1000
0100
0010
0001
0100
0010
1000
0100
1000
0010
,
0100
0001
0010
0100
1000
0001
1000
0010
0100
0001
1000
0001
0010
0100
1000
0001
,
0100
0010
1000
0100
1000
0001
0010
0001
0100
0010
1000
0001
1000
0100
0010
0001
,
0100
0001
0010
0100
1000
0001
0100
0010
1000
0100
1000
0010
0100
0001
0010
0100
,
1000
0001
0100
0001
1000
0100
1000
0001
0100
0010
1000
0001
1000
0100
0010
0001
,
0100
0001
1000
0010
0100
0001
0010
0001
1000
0000
0000
0000
0100
0000
0000
0000
,
0110
0000
0010
0001
0000
0010
0001
0000
,
1001
1000
0010
0000
0100
0000
0001
0000
,
1000
0001
1000
0020
0000
0000
0000
0000
,
0030
0000
0000
0000
;

//---------------dance-single - ----------------
#NOTEDATA:;
#CHARTNAME:;
#STEPSTYPE:dance-single;
#DESCRIPTION:;
#CHARTSTYLE:;
#DIFFICULTY:Hard;
#METER:9;
#RADARVALUES:0.632653,0.801099,0.230769,0.241758,0.032967,403.000000,382.000000,21.000000,22.000000,0.000000,0.000000,0.000000,0.000000,0.000000,0.632653,0.801099,0.230769,0.241758,0.032967,403.000000,382.000000,21.000000,22.000000,0.000000,0.000000,0.000000,0.000000,0.000000;
#CREDIT:Loak;
#NOTES:
0000
0000
0000
0000
,
0000
0000
0000
0000
0001
1000
0000
0020
,
0000
0130
0001
0000
0100
0010
1000
0000
,
0100
0010
0001
0010
0100
1000
0000
0020
,
0000
0130
0001
0000
1000
0010
0100
0001
,
0000
0100
0010
1000
0001
0010
0000
0200
,
0000
0310
0001
0000
1000
0010
0100
0000
,
0001
0100
0010
0100
0001
1000
0000
0200
,
0000
0310
0001
0010
0100
1000
0010
1000
,
0001
0100
0020
0000
0130
0000
0001
0000
,
0101
0000
0001
1000
0000
0001
0010
0000
,
0110
0100
1000
0001
1000
0000
0010
0000
,
1010
0000
1000
0001
0000
0100
0001
0000
,
0010
0100
0010
0100
1000
0000
0000
0000
,
0001
0000
0100
0001
0000
1000
0000
0001
,
0000
0010
0000
0100
1000
0000
0000
0000
,
0001
0000
1000
0010
0000
0100
0000
0001
,
1000
0000
0001
0000
1000
0000
0001
0000
0000
0010
0000
0000
0100
0000
0000
0000
0000
0000
1000
0000
0000
0100
0000
0000
,
0010
0000
0001
1000
0000
0001
0000
0100
,
0000
0010
0000
1000
0020
0000
0000
0000
,
0230
0000
0000
0000
0000
0000
0301
1000
0100
1000
0001
0100
,
0010
0000
1000
0000
0001
0010
0100
0010
,
0000
0010
0001
1000
0001
0100
0010
1000
,
0000
1000
0010
0100
0001
1000
0001
0010
,
0000
0010
0100
1000
0001
0000
0100
0000
,
0010
1000
0010
0000
0100
0000
0001
0010
,
0001
1000
0010
1000
0001
0000
0010
0000
,
0100
0020
0000
0032
,
1003
0010
1000
0010
0100
0001
1000
0100
,
0010
0001
0100
0000
,
0000
0001
1000
0000
,
0000
0001
0010
0000
,
0000
0100
1000
0001
,
1000
0010
0100
0000
,
0000
0001
0100
0000
,
0000
0000
0010
0000
1000
0001
1000
0001
,
0010
0100
1000
0001
1000
0010
0100
0010
,
1000
0001
1001
0101
,
1001
1100
0110
0011
,
1001
1010
0110
1010
,
1001
0011
0110
1100
,
1001
0000
0101
0000
0100
0000
0000
0010
,
0000
0000
1000
0000
0000
0001
0000
0000
,
0010
0000
0100
0000
1000
0001
0001
0100
,
0001
0001
0010
0100
1000
0000
0001
0000
,
0000
0000
1000
0010
,
1000
0001
1000
0100
0000
0100
0010
0001
,
0000
0001
1000
0000
0010
0000
0100
0000
,
0001
0100
0010
1000
0000
1000
0001
0010
,
0000
0100
1000
0000
0001
0000
0100
0001
,
0000
1000
0000
0001
0000
0010
0000
0100
,
0000
1000
0100
0000
0010
0000
0001
1000
,
0000
0010
0000
0100
0000
0001
0000
0100
,
0010
1000
0001
0000
1000
0000
0100
0000
,
0010
0001
0010
0100
0000
0100
1000
0001
,
0000
1000
0010
0000
0100
0000
0001
0000
,
0100
0010
1000
0001
0000
0001
0010
0100
,
0000
1000
0001
0000
0100
0000
0010
1000
,
0000
0010
0000
0100
0000
0001
0000
1000
,
0000
0100
0010
0001
,
1000
0001
0100
0000
0010
0000
0100
0000
,
0001
1000
0001
1000
0100
0000
0010
0001
,
0000
0010
0100
0000
1000
0000
0010
0100
,
0000
0001
0100
0000
0010
0000
1000
0001
,
0000
1000
0100
0000
0010
0000
0001
1000
,
0000
0001
0100
0000
0010
0000
1000
0010
,
1000
0001
0010
0000
0100
0000
1000
0001
,
1000
0010
0100
0001
0100
0000
0000
0010
,
0000
0000
1000
0000
0001
0000
0000
1000
,
0000
0000
0001
0000
0010
0100
0010
0100
,
2000
3000
0000
0000
0020
0030
0000
0000
,
0200
0300
0000
0000
0001
0100
0001
0100
,
0020
0030
0000
0000
2000
3000
0000
0000
,
0002
0003
0000
0000
0010
0100
0010
0001
,
2000
3000
0000
0000
0020
0030
0000
0000
,
0200
0300
0000
0000
0001
0100
0001
1000
,
0020
0030
0000
0000
2000
3000
0000
0000
,
0002
0003
0000
0000
0010
0000
0100
0000
,
1100
0000
1000
0001
0000
1000
0001
0000
,
0101
0001
1000
0001
,
1000
0001
1000
0200
0000
0000
0000
0000
,
0300
0000
0000
0000
;

//---------------dance-single - ----------------
#NOTEDATA:;
#CHARTNAME:;
#STEPSTYPE:dance-single;
#DESCRIPTION:;
#CHARTSTYLE:;
#DIFFICULTY:Medium;
#METER:7;
#RADARVALUES:0.455259,0.801099,0.175824,0.197802,0.000000,290.000000,274.000000,16.000000,18.000000,0.000000,0.000000,0.000000,0.000000,0.000000,0.455259,0.801099,0.175824,0.197802,0.000000,290.000000,274.000000,16.000000,18.000000,0.000000,0.000000,0.000000,0.000000,0.000000;
#CREDIT:Loak;
#NOTES:
0000
0000
0000
0000
,
0000
0000
0000
0000
0001
0000
0000
0100
,
0000
0001
1000
0001
,
0010
0000
0100
0000
1000
0000
0000
0001
,
0000
1000
0100
0010
,
0001
1000
0001
1000
0100
0000
0000
0010
,
0000
0100
1000
0001
,
1000
0000
0010
0000
0100
0000
0000
0001
,
0000
0000
0100
0000
0010
1000
0010
1000
,
0001
0010
0200
0000
1300
0000
0001
0000
,
0010
0000
0100
0010
0000
0100
0010
0000
,
0001
1000
0001
0100
,
0010
0000
1000
0010
0000
1000
0010
0000
,
1000
0001
0010
0000
,
0100
0000
0010
0000
,
0001
1000
0001
0000
0100
0000
0000
0000
,
0010
0000
1000
0000
,
0010
0100
0010
0100
0001
0000
0000
0000
,
1000
0000
0100
0000
,
0010
0001
2000
0000
,
3020
0000
0130
0000
,
0000
0000
0001
0000
1000
0000
0000
0010
,
0000
0000
1000
0000
0001
0000
0000
0010
,
0000
0000
0100
0000
0010
0000
0000
0001
,
0000
1000
0010
0100
,
0010
1000
0010
0000
0000
0000
1000
0001
,
1000
0001
0010
0100
0010
0000
0001
0000
,
1000
0002
0000
0203
,
0000
0000
0000
0000
0310
1000
0010
1000
,
0001
0010
0100
0000
,
0000
1000
0001
0000
,
0000
0100
0010
0000
,
0000
1000
0010
0100
,
0001
0010
0100
0000
,
0000
0010
0001
0000
,
0000
1000
0010
0000
,
0000
1000
0001
0010
,
0100
1000
1001
1001
,
1001
1001
0101
0101
,
0101
0101
1010
1010
,
1010
1010
1001
1001
,
1001
0000
1001
0000
1000
0000
0000
0100
,
0000
0000
1000
0000
0000
0001
0000
0000
,
0100
0000
0010
0000
1000
0100
1000
0001
,
0100
0001
1000
0100
0010
0000
0001
0000
,
0000
0000
1000
0010
,
1000
0000
0001
0010
0000
0100
0000
1000
,
0000
0100
0010
0001
,
1000
0000
0010
1000
0000
0001
0000
0010
,
0000
0000
0001
0000
1000
0000
0001
0100
,
0000
0010
0000
1000
0000
0001
0000
1000
,
0000
0000
0100
0000
0010
0000
0001
1000
,
0000
0010
0000
0100
0000
0001
0000
0100
,
0000
0000
0010
1000
,
0001
0000
1000
0100
0000
0010
0000
0001
,
0000
1000
0001
0100
,
0010
0000
1000
0010
0000
0100
0000
0001
,
0000
0000
0010
0000
0100
0000
1000
0001
,
0000
0100
0000
0001
0000
1000
0000
0100
,
0000
0010
0001
0000
,
0000
1000
0010
0100
,
0001
0000
0000
0000
1000
0000
0000
0001
,
0000
0000
0010
0000
0100
0000
0000
1000
,
0000
0000
0100
0000
0010
0000
0000
0001
,
0000
0000
1000
0000
0010
0000
0000
0100
,
0000
0001
0100
0010
,
0000
1000
0010
0000
0100
0000
0001
0000
,
0000
1000
0001
0000
0010
0000
0000
0100
,
0000
0000
1000
0000
0001
0000
0000
1000
,
0000
0001
0010
0000
,
0200
0000
2300
0000
,
3002
0000
0103
0000
,
0020
0000
2030
0000
,
3020
0000
0130
0000
,
0002
0000
2003
0000
,
3200
0000
0310
0000
,
0002
0000
2003
0000
,
3020
0000
0130
0001
,
1000
0000
0001
1000
0000
0001
1000
0000
,
0100
0010
0100
0000
0010
0000
0001
0000
,
1000
0001
1000
0200
0000
0000
0000
0000
,
0300
0000
0000
0000
;

//---------------dance-single - ----------------
#NOTEDATA:;
#CHARTNAME:;
#STEPSTYPE:dance-single;
#DESCRIPTION:;
#CHARTSTYLE:;
#DIFFICULTY:Easy;
#METER:5;
#RADARVALUES:0.328100,0.400549,0.000000,0.186813,0.000000,209.000000,209.000000,0.000000,17.000000,0.000000,0.000000,0.000000,0.000000,0.000000,0.328100,0.400549,0.000000,0.186813,0.000000,209.000000,209.000000,0.000000,17.000000,0.000000,0.000000,0.000000,0.000000,0.000000;
#CREDIT:Loak;
#NOTES:
// measure 0
0000
0000
0000
0000
,  // measure 1
0000
0000
0001
0000
,  // measure 2
1000
0000
0001
1000
,  // measure 3
0001
0100
0010
0000
,  // measure 4
1000
0000
0010
0100
,  // measure 5
0001
1000
0100
0000
,  // measure 6
0010
0000
0001
0010
,  // measure 7
0001
1000
0010
0000
,  // measure 8
0100
0000
0001
1000
,  // measure 9
0001
1000
0100
0000
,  // measure 10
0010
0000
0001
0000
,  // measure 11
0010
0000
0100
0000
,  // measure 12
1000
0000
0001
0000
,  // measure 13
0100
0010
0100
0000
,  // measure 14
0001
0000
1000
0000
,  // measure 15
0100
0010
0100
0000
,  // measure 16
1000
0000
0001
0000
,  // measure 17
1000
0010
1000
0000
,  // measure 18
0001
0000
0010
0000
,  // measure 19
0100
1000
0200
0000
,  // measure 20
0320
0000
0031
0000
,  // measure 21
1000
0000
0001
0000
1000
0000
0000
0010
,  // measure 22
0000
0000
1000
0000
0001
0000
0000
0010
,  // measure 23
0000
0000
0100
0000
0010
0000
0000
0001
,  // measure 24
0000
1000
0010
0000
,  // measure 25
0100
0000
0001
0100
,  // measure 26
0001
0100
0010
1000
,  // measure 27
0001
0020
0000
0230
,  // measure 28
0000
0000
0300
0000
,  // measure 29
1000
0100
0010
0000
,  // measure 30
0000
0001
1000
0000
,  // measure 31
0000
0010
0100
0000
,  // measure 32
0000
0001
1000
0010
,  // measure 33
1000
0001
0010
0000
,  // measure 34
0000
0100
1000
0000
,  // measure 35
0000
0001
0100
0000
,  // measure 36
0000
0001
0100
0010
,  // measure 37
1000
0100
0010
0100
,  // measure 38
0010
0100
1000
0001
,  // measure 39
1000
0001
0100
0010
,  // measure 40
0100
0010
1000
0001
,  // measure 41
1000
0000
0001
0000
0010
0000
0000
0100
,  // measure 42
0000
0000
1000
0000
0000
0001
0000
0000
,  // measure 43
0100
0000
0010
0000
1000
0000
0000
0001
,  // measure 44
0000
1000
0100
0010
,  // measure 45
0000
0000
0100
0000
,  // measure 46
1000
0000
0001
0100
,  // measure 47
0001
0000
1000
0000
,  // measure 48
0001
0000
0010
0100
,  // measure 49
0010
0000
0001
1000
,  // measure 50
0001
1000
0010
0100
,  // measure 51
0010
0000
1000
0001
,  // measure 52
1000
0001
0010
0100
,  // measure 53
0010
0000
0001
0000
,  // measure 54
1000
0000
0010
1000
,  // measure 55
0010
0000
0100
0000
,  // measure 56
0001
0000
1000
0100
,  // measure 57
1000
0000
0001
0000
,  // measure 58
0100
0000
0010
0100
,  // measure 59
0010
0100
0010
0000
,  // measure 60
1000
0000
0001
0010
,  // measure 61
0100
0000
1000
0000
,  // measure 62
0100
0000
0010
0000
,  // measure 63
0001
0000
1000
0000
,  // measure 64
0010
0000
0100
0000
,  // measure 65
0001
0000
0100
0000
,  // measure 66
0010
0000
1000
0000
,  // measure 67
0001
0000
0000
0000
0010
0000
0000
0100
,  // measure 68
0000
0000
0010
0000
0001
0000
0000
1000
,  // measure 69
0000
0001
0100
0000
,  // measure 70
0020
0000
2030
0000
,  // measure 71
3002
0000
0013
0000
,  // measure 72
0200
0000
2300
0000
,  // measure 73
3002
0000
0103
0000
,  // measure 74
0020
0000
2030
0000
,  // measure 75
3020
0000
0130
0000
,  // measure 76
0002
0000
2003
0000
,  // measure 77
3002
0000
0013
0000
,  // measure 78
0100
0000
1000
0001
,  // measure 79
1000
0000
0010
0000
,  // measure 80
0100
0000
0002
0000
,  // measure 81
0003
0000
0000
0000
;

//---------------dance-single - ----------------
#NOTEDATA:;
#CHARTNAME:;
#STEPSTYPE:dance-single;
#DESCRIPTION:;
#CHARTSTYLE:;
#DIFFICULTY:Beginner;
#METER:3;
#RADARVALUES:0.155416,0.265385,0.021978,0.054945,0.000000,99.000000,97.000000,2.000000,5.000000,0.000000,0.000000,0.000000,0.000000,0.000000,0.155416,0.265385,0.021978,0.054945,0.000000,99.000000,97.000000,2.000000,5.000000,0.000000,0.000000,0.000000,0.000000,0.000000;
#CREDIT:Loak;
#NOTES:
// measure 0
0000
0000
0000
0000
,  // measure 1
0000
0000
0001
0000
,  // measure 2
0000
0000
1000
0000
,  // measure 3
0000
0000
0001
0000
,  // measure 4
0000
0000
0100
0000
,  // measure 5
0000
0000
0010
0000
,  // measure 6
0000
0000
1000
0000
,  // measure 7
0000
0000
0010
0000
,  // measure 8
0000
0000
0100
0000
,  // measure 9
0000
0000
0001
0000
,  // measure 10
0001
0000
1001
0000
,  // measure 11
0000
0000
1000
0000
,  // measure 12
1000
0000
1001
0000
,  // measure 13
0000
0000
0001
0000
,  // measure 14
0000
0000
0010
0000
,  // measure 15
0000
0000
0100
0000
,  // measure 16
0000
0000
1000
0000
,  // measure 17
0000
0000
0001
0000
,  // measure 18
0000
0000
1000
0000
,  // measure 19
0000
0000
0010
0000
,  // measure 20
0000
0000
0100
0000
,  // measure 21
0000
0000
0001
0000
,  // measure 22
0100
0000
0001
0000
,  // measure 23
0000
0000
1000
0000
,  // measure 24
0100
0000
1000
0000
,  // measure 25
0000
0000
0001
0000
,  // measure 26
1000
0000
0001
0000
,  // measure 27
0000
0000
0100
0000
,  // measure 28
0010
0000
0100
0000
,  // measure 29
0000
0000
0001
0000
,  // measure 30
0000
0000
1000
0000
,  // measure 31
0000
0000
0001
0000
,  // measure 32
0000
0000
0010
0000
,  // measure 33
0000
0000
0100
0000
,  // measure 34
0000
0000
1000
0000
,  // measure 35
0000
0000
0100
0000
,  // measure 36
0000
0000
0010
0000
,  // measure 37
0000
0000
0001
0000
,  // measure 38
0001
0000
1000
0000
,  // measure 39
1000
0000
0001
0000
,  // measure 40
0001
0000
1000
0000
,  // measure 41
1000
0000
0010
0000
,  // measure 42
0000
0000
0010
0000
,  // measure 43
0000
0000
0100
0000
,  // measure 44
0000
0000
0100
0000
,  // measure 45
0000
0000
0001
0000
,  // measure 46
0100
0000
0001
0000
,  // measure 47
0000
0000
1000
0000
,  // measure 48
0100
0000
1000
0000
,  // measure 49
0000
0000
0001
0000
,  // measure 50
0010
0000
0001
0000
,  // measure 51
0000
0000
1000
0000
,  // measure 52
0001
0000
1000
0000
,  // measure 53
0000
0000
0010
0000
,  // measure 54
1000
0000
0010
0000
,  // measure 55
0000
0000
0100
0000
,  // measure 56
0010
0000
0100
0000
,  // measure 57
0000
0000
0001
0000
,  // measure 58
0100
0000
0001
0000
,  // measure 59
0000
0000
1000
0000
,  // measure 60
0001
0000
1000
0000
,  // measure 61
0000
0000
0002
0000
,  // measure 62
0003
0000
0020
0000
,  // measure 63
0030
0000
0200
0000
,  // measure 64
0300
0000
2000
0000
,  // measure 65
3000
0000
0002
0000
,  // measure 66
0000
0000
0000
0000
,  // measure 67
0003
0000
1000
0000
,  // measure 68
0000
0000
0010
0000
,  // measure 69
0000
0000
0100
0000
,  // measure 70
0000
0000
0001
0000
,  // measure 71
0000
0000
0100
0000
,  // measure 72
0000
0000
0010
0000
,  // measure 73
0000
0000
1000
0000
,  // measure 74
0000
0000
0001
0000
,  // measure 75
0000
0000
1000
0000
,  // measure 76
0000
0000
0100
0000
,  // measure 77
0000
0000
0010
0000
,  // measure 78
0000
0000
0001
0000
,  // measure 79
0000
0000
0010
0000
,  // measure 80
0000
0000
0100
0000
;
