#VERSION:0.83;
#TITLE:Springtime;
#SUBTITLE:;
#ARTIST:Kommisar;
#TITLETRANSLIT:;
#SUBTITLETRANSLIT:;
#ARTISTTRANSLIT:;
#GENRE:;
#ORIGIN:;
#CREDIT:;
#BANNER:springbn.png;
#BACKGROUND:spring.png;
#PREVIEWVID:;
#JACKET:;
#CDIMAGE:;
#DISCIMAGE:;
#LYRICSPATH:;
#CDTITLE:;
#MUSIC:Kommisar - Springtime.mp3;
#OFFSET:-0.090;
#SAMPLESTART:105.760;
#SAMPLELENGTH:15;
#SELECTABLE:YES;
#DISPLAYBPM:182;
#BPMS:0=181.685;
#STOPS:;
#DELAYS:;
#WARPS:;
#TIMESIGNATURES:0=4=4;
#TICKCOUNTS:0=2;
#COMBOS:0=1;
#SPEEDS:0=1=0=0;
#SCROLLS:0=1;
#FAKES:;
#LABELS:0=Song Start;
#BGCHANGES:;
#KEYSOUNDS:;
#ATTACKS:;

//---------------dance-single - ----------------
#NOTEDATA:;
#CHARTNAME:;
#STEPSTYPE:dance-single;
#DESCRIPTION:;
#CHARTSTYLE:;
#DIFFICULTY:Challenge;
#METER:12;
#RADARVALUES:0.993,1.229,0.256,0.845,0.980,897,864,33,109,42,0,0,0,0,0.993,1.229,0.256,0.845,0.980,897,864,33,109,42,0,0,0,0;
#CREDIT:;
#OFFSET:-0.090;
#BPMS:0=181.685
,304=90.843
,311=181.685;
#STOPS:;
#DELAYS:;
#WARPS:;
#TIMESIGNATURES:0=4=4;
#TICKCOUNTS:0=2;
#COMBOS:0=1;
#SPEEDS:0=1=0=0;
#SCROLLS:0=1;
#FAKES:;
#LABELS:0=Song Start;
#DISPLAYBPM:182;
#NOTES:
0000
0000
0000
0000
,
0000
0000
0000
0000
,
0000
0000
0000
0000
,
0000
0000
0000
0000
,
0010
0000
0010
1000
0100
0000
1000
0010
0100
0001
0000
0000
0101
0000
0101
0000
,
0010
0000
1000
0100
0010
0000
0001
0010
0100
1000
0000
0000
0110
0000
0110
0000
,
0001
0000
1000
0100
1000
0000
0010
0100
0001
0010
0000
0000
1001
0000
1001
0000
,
0010
0000
1000
0010
1000
0000
0001
0000
1100
0000
1100
0000
0000
0003
0000
0300
,
0010
0000
1000
0001
0010
0000
0001
1000
0010
0100
0000
0000
0011
0000
0011
0000
,
1000
0000
0010
0100
0001
0000
0010
0100
1000
0010
0000
0000
1010
0000
1010
0000
,
0001
0000
0100
0010
1000
0000
0100
0010
0001
1000
0000
0000
0011
0000
0011
0000
,
1000
0000
0000
0000
0000
0000
0000
0000
0000
0000
0000
0000
0000
0000
0000
0000
0000
0000
0000
0000
0000
0000
0000
0000
1000
0000
0000
0000
0000
0000
0000
0000
0000
0000
0000
0000
0001
0000
0000
0000
0000
0000
0000
0000
0000
0000
0000
0000
1000
0000
0000
0000
0000
0000
0000
0000
0000
0000
0000
0000
0000
0000
0000
0000
0000
0000
0000
0000
0000
0000
0000
0000
0010
0000
0000
0000
0000
0000
0000
0000
0000
0000
0000
0000
0000
0000
0000
0000
0000
0000
0000
0000
0000
0000
0000
0000
1100
0000
0000
0000
0000
0000
0000
0000
0000
0000
0000
0000
0000
0000
0000
0000
0000
0000
0000
0000
0000
0000
0000
0000
1100
0000
0000
0000
0000
0000
0000
0000
0000
0000
0000
0000
0000
0000
0000
0000
0000
0000
0000
0000
0000
0000
0000
0000
1000
0100
0000
0000
0000
0000
0000
0000
0000
0000
0000
0000
0000
0000
0000
0000
0000
0000
0000
0000
0000
0000
0000
0000
0100
2000
0000
0000
0000
0000
0000
0000
0000
0000
0000
0000
0000
0000
0000
0000
0000
0000
0000
0000
0000
0000
0000
0000
,
3001
0100
0100
0010
0000
0010
1000
0000
,
0001
0000
0010
0000
0100
0000
1000
0001
0100
0000
0020
0030
2000
3000
2000
3000
,
0010
0100
0100
0001
0000
0001
1000
0000
,
0100
0000
0010
0000
0001
0000
1000
0010
0100
0000
0002
0003
0020
0030
0020
0030
,
0001
1000
1000
0100
0000
0100
1000
0000
,
0010
0000
0100
0000
0001
0000
0010
0100
1000
0000
0020
0030
0200
0300
0200
0300
,
0001
0100
0100
0010
0000
0010
1000
0000
,
1000
0000
0100
0000
0010
0000
0100
0000
1000
0001
0010
0000
0001
0010
0100
0000
,
1000
0000
0100
1000
0100
0000
0100
1000
0001
1000
0100
0000
1000
0000
0010
0000
,
0100
0000
0001
0010
0100
0000
1000
0010
0100
0010
2000
3000
0002
0003
0002
0003
,
0100
0000
0010
1000
0010
0000
1000
0001
0010
0100
1000
0000
0010
0000
0100
0000
,
0001
0000
1000
0100
0010
0000
0001
0010
0001
1000
0200
0300
2000
3000
2000
3000
,
0010
0000
0100
0001
0100
0000
0010
1000
0100
0010
0001
0000
1000
0000
0010
0000
,
0100
0000
0010
1000
0100
0000
1000
0100
0010
0001
2000
3000
0020
0030
0020
0030
,
0100
0000
0001
0010
0100
0000
1000
0010
0100
0001
0010
0000
0001
0000
1000
0000
,
0001
0010
0001
0010
0001
0010
0001
0010
0001
1000
0100
1000
0000
0300
0000
3000
,
0010
0000
1000
0000
0100
0000
0020
0000
0001
0000
0000
0000
0130
0000
0100
1000
,
0020
0000
0030
0200
0000
0300
0001
0000
2000
0000
0000
0000
0001
0000
0000
0000
,
0010
0000
3000
0000
1000
0000
0100
0000
0010
0100
1000
0001
0010
0001
1000
0100
,
0020
0000
0030
0000
0001
0000
1000
0000
0200
0000
0310
0000
0001
3000
0010
0300
,
0010
0000
1000
0000
0100
0000
0020
0000
0001
0000
0000
0000
0130
0000
0100
1000
,
0020
0000
0030
2000
0000
3000
0010
0000
2000
0000
0000
0000
0001
0000
0000
0000
,
0010
0000
3000
0000
1000
0000
0100
0000
0010
0100
1000
0001
0100
0001
1000
0010
,
0100
0001
0100
0001
0100
0001
0100
0001
1000
0010
1000
0010
0000
3000
0000
0300
,
0010
1000
1100
0010
0000
0100
1001
0010
,
0100
1000
0101
0010
0001
0000
1100
0000
,
1000
0100
0M11
0100
0000
1000
0110
1000
,
0001
0010
0001
0100
0010
1000
0001
0100
0010
1000
0100
1000
0010
0100
0001
0010
,
0001
0100
0011
1000
0000
0001
0110
1000
,
0001
0010
0101
0010
0001
0000
1100
0000
,
0010
0001
110M
0001
0000
0100
1001
0010
,
010M
1000
0010
0100
M001
0010
0100
1000
001M
0100
0010
1000
0M01
0010
0001
1000
,
0010
0000
1000
0000
0100
0000
0020
0000
0001
0000
0000
0000
0130
0000
0100
1000
,
0020
0000
0030
0200
0000
0300
0001
0000
2000
0000
0000
0000
0001
0000
0000
0000
,
0010
0000
3000
0000
1000
0000
0100
0000
0010
0100
1000
0001
0010
0001
1000
0200
,
0000
0000
0300
0000
1000
0000
0001
0000
0020
0000
0130
0000
1000
0003
0100
0030
,
0100
0000
0001
0000
0010
0000
0200
0000
1000
0000
0000
0000
0310
0000
0010
0001
,
0200
0000
0300
0002
0000
0003
0100
0000
0002
0000
0000
0000
1000
0000
0000
0000
,
0100
0000
0003
0000
0001
0000
0010
0000
0100
0010
0001
1000
0010
1000
0001
0100
,
0010
1000
0010
1000
0010
1000
0010
1000
0001
0100
0001
0100
0000
0003
0000
0030
,
0001
0000
1000
0100
1000
0000
0001
0100
0001
0000
0100
0010
0100
0000
0001
1000
,
0001
0000
0100
0001
0100
0000
0010
1000
0010
0000
1000
0100
1000
0000
0001
1000
,
0001
0000
0010
0001
0010
0000
0001
0100
0001
0000
1000
0010
1000
0000
0010
0100
,
0010
0000
0100
0001
0100
0000
0010
0100
0010
0000
1000
0100
1000
0000
0001
0010
,
0001
0000
1000
0100
0010
0000
0001
0010
0100
0000
0010
0001
0100
0000
0010
1000
,
0100
0000
0010
0001
1000
0000
0001
0010
0100
0000
1000
0100
0010
0000
0001
0100
,
0010
0000
1000
0001
0010
0000
0001
0100
0010
0000
1000
0100
0010
0000
0001
0010
,
0100
0000
0001
0100
0010
0000
0100
0010
1000
0000
0001
0010
0100
0000
1000
0100
,
0020
1030
0100
1000
0020
0130
0001
0100
0020
1030
0001
1000
0020
0130
0001
0100
,
0020
1030
0100
1000
0020
1030
0001
1000
0020
0130
0001
0100
0020
1030
0100
1000
,
0020
0130
0001
0100
0020
1030
0001
1000
0020
0130
0001
0100
0020
1030
0001
1000
,
0020
0130
0001
0100
0020
1030
0100
1000
0020
0130
0001
0100
0020
1030
0100
1000
,
0020
0130
0001
0100
0020
1030
0001
0100
0020
0130
0001
0100
0020
1030
0100
1000
,
0020
0130
0001
1000
0020
0130
0001
0100
0020
1030
0001
1000
0020
0130
0001
0100
,
0020
1030
0100
1000
0020
0130
0001
1000
0020
0130
0001
0100
0020
1030
0001
0100
,
0020
1030
0100
1000
0020
0130
0001
0100
0020
1030
0100
1000
0020
0130
0001
0100
,
0010
0100
0100
0010
0000
0010
1000
0000
,
0001
0000
0010
0000
0100
0000
1000
0001
0100
0000
0020
0030
2000
3000
2000
3000
,
0010
0100
0100
0001
0000
0001
1000
0000
,
0100
0000
0010
0000
0001
0000
1000
0010
0100
0000
0002
0003
0020
0030
0020
0030
,
0001
1000
1000
0100
0000
0100
1000
0000
,
0010
0000
0100
0000
0001
0000
0010
0100
1000
0000
0020
0030
0200
0300
0200
0300
,
0001
0100
0100
0010
0000
0010
1000
0000
,
0101
0000
0101
0000
0101
0000
0101
0000
00M1
1000
010M
0010
0M01
1000
01M0
1000
,
010M
0000
1000
0000
01M0
0000
0002
0000
M000
0000
0000
0000
00M3
0000
0100
1000
00M1
0000
0000
0010
M000
0000
0100
0000
002M
0000
0000
0000
M000
0000
0000
0000
,
0M30
0000
0000
0000
01M0
0000
1000
0000
010M
0010
0001
0010
M001
0100
0010
2000
000M
0000
0000
3000
0100
0000
0010
0000
0M00
0000
1003
0000
0001
0000
1000
0000
,
0M00
0031
M000
0310
1000
0000
0001
0000
0010
0000
0200
0000
1000
0000
0000
0000
,
0310
0000
0010
0001
0200
0000
0300
0020
0000
0030
1000
0000
0002
0000
0000
0000
,
1000
0000
0000
0000
0100
0000
0003
0000
0001
0000
0010
0000
0100
0010
0001
1000
,
0100
1000
0001
0010
0200
0000
0300
0000
1000
0000
0001
0000
0020
0000
0130
0000
,
1000
0003
0100
0030
0100
0000
0001
0000
0010
0000
0200
0000
1000
0000
0000
0000
,
0310
0000
0010
0001
0200
0000
0300
0002
0000
0003
0100
0000
0002
0000
0000
0000
,
1000
0000
0000
0000
0100
0000
0003
0000
0001
0000
0010
0000
0100
0010
0001
1000
,
0010
0000
1000
0000
0001
0000
0100
0000
0001
0000
0010
0000
0100
0000
1000
0000
0010
0000
0000
0000
0100
0000
0000
0000
0001
0000
0010
0000
0000
0003
0100
0000
,
0000
0030
1000
0000
0000
0300
1000
0000
0010
0000
0000
0000
1000
0000
0000
0000
0100
0000
0000
0000
0020
0000
0000
0000
0001
0000
0000
0000
0000
0000
0000
0000
,
0130
0000
0100
1000
0020
0000
0030
0200
0000
0300
0001
0000
2000
0000
0000
0000
,
0001
3000
0020
0000
1000
0030
0200
0300
,
0002
0003
2000
0000
0010
3010
0200
0001
,
0001
0301
2000
0000
0001
0000
0010
3000
,
0002
0003
0020
0000
0001
0000
0100
0030
,
0100
1000
0002
0003
2000
0000
0010
0000
,
0001
0000
3000
0000
0010
0100
0010
0100
0010
0100
0010
0100
0001
1000
0001
1000
,
0000
0003
0100
0000
02M2
0000
M000
0000
00M0
0000
M000
0000
00M0
0000
M000
0000
,
00M0
M000
00M0
M000
00M0
M300
00M0
0M00
,
00M0
0M03
0000
0000
0000
0000
0000
0000;

//---------------dance-single - ----------------
#NOTEDATA:;
#CHARTNAME:Kommisar;
#STEPSTYPE:dance-single;
#DESCRIPTION:;
#CHARTSTYLE:;
#DIFFICULTY:Hard;
#METER:9;
#RADARVALUES:0.747,0.932,0,0.542,0.395,675,675,0,70,0,0,2,0,0,0.747,0.932,0,0.542,0.395,675,675,0,70,0,0,2,0,0;
#CREDIT:Kommisar;
#OFFSET:-0.090;
#BPMS:0=181.685
,304=90.843
,311=181.685;
#STOPS:;
#DELAYS:;
#WARPS:;
#TIMESIGNATURES:0=4=4;
#TICKCOUNTS:0=2;
#COMBOS:0=1;
#SPEEDS:0=1=0=0;
#SCROLLS:0=1;
#FAKES:;
#LABELS:0=Song Start;
#DISPLAYBPM:182;
#NOTES:
0000
0000
0000
0000
,
0000
0000
0000
0000
,
0000
0000
0000
0000
,
0000
0000
0000
0000
,
0001
0000
1000
0100
1000
0000
0001
0000
0010
0000
0100
0000
1000
0000
0001
0000
,
0100
0000
0010
1000
0010
0000
1000
0000
0100
0000
0010
0000
0001
0000
1000
0000
,
0001
0000
0100
0010
0100
0000
0001
0000
1000
0000
0010
0000
1000
0000
0100
0000
,
0010
0000
0001
0100
0001
0000
1000
0000
0100
0000
0100
0000
0020
0030
0002
0003
,
1000
0000
0010
0100
0010
0000
1000
0000
0001
0000
0010
0000
0100
0000
1000
0000
,
0001
0000
1000
0010
1000
0000
0001
0000
0100
0000
0010
0000
1000
0000
0100
0000
,
0010
0000
0001
0100
0001
0000
1000
0000
0010
0000
1000
0000
0100
0000
0010
0000
,
0001
0000
0001
0000
0100
0000
0100
0000
0010
0000
0010
0000
2000
3000
0002
0003
,
1000
0010
0010
0100
0000
0001
0010
0000
,
0100
0000
1000
0000
1000
0000
0001
0010
0001
0000
1000
0000
0100
0000
0100
0000
,
0010
0001
0001
0100
0000
0010
1000
0000
,
0100
0000
0010
0000
0100
0000
1000
0001
1000
0000
0010
0000
0200
0300
0002
0003
,
1000
0001
0001
0010
0000
0001
1000
0000
,
0010
0000
1000
0000
1000
0000
0001
0100
0001
0000
1000
0000
0010
0000
0010
0000
,
0100
0001
1000
0100
0000
0010
0001
0000
,
1000
0000
0010
0000
0100
0000
0001
0000
1000
0100
1000
0000
0001
0100
0001
0000
,
1000
0010
0010
0100
0000
0001
0010
0000
,
0100
0000
1000
0000
1000
0000
0001
0010
0001
0000
1000
0000
0100
0000
0100
0000
,
0010
0001
0001
0100
0000
0010
1000
0000
,
0100
0000
0010
0000
0100
0000
1000
0001
1000
0000
0010
0000
0200
0300
0002
0003
,
1000
0001
0001
0010
0000
0001
1000
0000
,
0010
0000
1000
0000
1000
0000
0001
0100
0001
0000
1000
0000
0010
0000
0010
0000
,
1000
0100
0010
0001
0000
1000
0010
0000
,
0100
0001
0100
0000
0001
0100
0001
0000
1000
0001
1000
0000
0002
0003
2000
3000
,
0010
0000
0100
0000
0001
0000
2000
0000
0000
0000
0000
3000
0000
0000
0010
0100
,
0002
0000
0003
2000
0000
3000
0100
0000
0020
0000
0000
0000
0000
0000
0000
0000
,
0000
0000
0000
0030
0001
0000
0100
0000
0001
1000
0001
0000
1000
0100
1000
0020
,
0000
0000
0030
0000
0100
0000
0001
0000
2000
0000
0000
0000
3020
0030
0200
0300
,
0001
0000
1000
0000
0100
0000
0020
0000
0000
0000
0000
0000
0030
0000
0001
0010
,
0002
0000
0003
0200
0000
0300
0020
0000
2030
0000
0000
0000
0000
0000
0000
0000
,
0000
0000
3000
0000
0001
0000
0100
0000
0010
1000
0010
0000
1000
0100
1000
0000
,
0010
0100
0010
0000
0100
0010
0100
0000
0001
1000
0001
0000
2000
3000
0020
0030
,
1000
0100
0100
0010
0000
0001
0100
0010
,
1000
0001
0001
0100
0000
0001
1000
0100
,
1000
0010
0010
1000
0000
0001
0010
0100
,
1000
0001
1000
0000
0001
0010
0001
0000
1000
0100
1000
0000
0001
0010
0100
0000
,
1000
0100
0100
0010
0000
0001
1000
0100
,
1000
0001
0010
0100
0000
1000
0010
1000
,
0001
0100
0100
0010
0000
1000
0001
0010
,
0100
1000
0100
0000
1000
0100
1000
0000
0001
0000
1000
0001
1000
0001
1000
0000
,
0010
0000
0100
0000
0001
0000
2000
0000
0000
0000
0000
3000
0000
0000
0010
0100
,
0002
0000
0003
2000
0000
3000
0100
0000
0020
0000
0000
0000
0000
0000
0000
0000
,
0000
0000
0000
0030
0001
0000
0100
0000
0001
1000
0001
0000
1000
0100
1000
0020
,
0000
0000
0030
0000
0100
0000
0001
0000
2000
0000
0000
0000
3020
0030
0200
0300
,
0001
0000
1000
0000
0100
0000
0020
0000
0000
0000
0000
0000
0030
0000
0001
0010
,
0002
0000
0003
0200
0000
0300
0020
0000
2030
0000
0000
0000
0000
0000
0000
0000
,
0000
0000
3000
0000
0001
0000
0100
0000
0010
1000
0010
0000
1000
0100
1000
0000
,
0010
0100
0010
0000
0100
0010
0100
0000
0001
1000
0001
0000
2000
3000
0020
0030
,
1000
0000
0001
0000
0010
0000
0100
0100
,
1000
0000
0010
0000
1000
0000
0001
0001
,
0100
0000
0010
0000
1000
0000
0100
0100
,
0010
0000
0001
0000
0100
0000
0010
0010
,
1000
0000
0010
0000
0100
0000
0010
0010
,
1000
0000
0100
0000
0010
0000
0001
0001
,
1000
0000
0010
0000
1000
0000
0100
0100
,
0010
0000
0001
0000
0100
0000
0010
0010
,
1000
0000
0001
0010
0001
0000
1000
0000
0100
0000
0010
0001
0010
0000
0001
0000
,
1000
0000
0010
0100
0010
0000
1000
0000
0001
0000
1000
0100
0010
0000
0001
0000
,
1000
0000
0001
0100
0001
0000
1000
0000
0100
0000
0010
0001
0010
0000
0001
0000
,
1000
0000
0001
0010
0100
0000
1000
0000
0001
0000
0100
0010
0100
0000
0001
0000
,
1000
0000
0010
0100
0010
0000
1000
0000
0001
0000
1000
0100
1000
0000
0001
0000
,
0010
0000
0100
1000
0100
0000
1000
0000
0001
0000
1000
0010
1000
0000
0001
0000
,
1000
0000
0100
0010
0001
0000
1000
0000
0010
0000
0100
0001
0100
0000
0001
0000
,
1000
0000
0010
0100
0010
0000
1000
0000
0001
0000
0100
0001
0100
0000
0001
0000
,
1000
0010
0010
0100
0000
0001
0010
0000
,
0100
0000
1000
0000
1000
0000
0001
0010
0001
0000
1000
0000
0100
0000
0100
0000
,
0010
0001
0001
0100
0000
0010
1000
0000
,
0100
0000
0010
0000
0100
0000
1000
0001
1000
0000
0010
0000
0100
0000
0001
0000
,
1000
0001
0001
0010
0000
0001
1000
0000
,
0010
0000
1000
0000
1000
0000
0001
0100
0001
0000
1000
0000
0010
0000
0010
0000
,
0100
0001
1000
0100
0000
0010
0001
0000
,
1000
0000
1000
0000
1000
0000
1000
0000
0001
0100
0001
0000
1000
0001
1000
0000
,
0001
0000
0010
0000
0100
0000
2000
0000
0000
0000
0000
0000
3000
0000
0001
0100
0002
0000
0003
0010
0000
0000
0100
0000
2000
0000
0000
0000
0000
0000
0000
3000
,
0000
0000
0000
0000
0001
0000
0100
0000
0001
1000
0001
0000
1000
0010
1000
0200
0000
0000
0300
0000
0010
0000
0001
0000
4000
0000
0000
0000
0000
0000
0000
3000
,
0040
0000
0000
0000
0000
0000
0000
0030
0100
0000
0000
0000
0010
0000
0000
0000
1000
0000
0000
0000
0002
0000
0000
0000
0000
0000
0000
0000
0000
0000
0003
0000
,
0000
0000
0100
0010
2000
0000
3000
0002
0000
0003
0010
0000
0200
0000
0000
0000
,
0000
0000
0000
0000
0000
0000
0000
0300
1000
0000
0010
0000
1000
0001
1000
0000
,
0001
0010
0001
0200
0000
0000
0300
0000
0010
0000
1000
0000
0002
0000
0000
0000
,
0203
0300
0020
0030
1000
0000
0001
0000
0010
0000
0200
0000
0000
0000
0000
0000
,
0300
0000
1000
0100
2000
0000
3000
0020
0000
0030
0200
0000
0302
0000
0000
0000
,
0000
0000
0000
0000
0000
0000
0003
0000
1000
0000
0010
0000
0100
0001
0100
0000
,
0001
0010
0001
0000
1000
0000
0100
0000
1000
0000
0001
0000
0100
0000
0001
1000
,
0001
1000
0020
0000
1030
0000
0100
0000
0010
0000
0002
0000
0000
0000
0000
0000
,
0000
0003
0100
0010
0200
0000
0300
0002
0000
0003
1000
0000
0020
0000
0000
0000
,
0000
0000
0000
0030
2000
0000
0000
0000
0000
0000
0000
3000
0200
0000
0300
0000
,
0020
0000
0000
0030
0002
0000
0000
0000
0000
0000
0000
0003
2000
0000
0000
0000
,
0000
0000
0000
3000
0010
0000
0100
0000
0001
0000
1000
0000
0100
0000
0010
0000
,
0001
0000
0010
0100
1000
0000
0001
0000
1000
0000
0010
0000
1000
0000
0001
0000
,
0100
0000
0001
0010
0100
0000
1000
0000
0010
0000
1000
0000
0100
0000
0010
0000
,
0001
0000
1000
0000
0010
0100
0010
0000
0100
0010
0100
0000
0001
1000
0001
0000
,
2000
3000
0002
0003
0200
0000
0000
0000
0000
0000
0000
0000
0000
0000
0000
0000
,
0000
0000
0000
0000
,
0000
0000
0000
0300
0000
0000
0000
0000
0000
0000
0000
0000
0000
0000
0000
0000;

//---------------dance-single - ----------------
#NOTEDATA:;
#CHARTNAME:Kommisar;
#STEPSTYPE:dance-single;
#DESCRIPTION:;
#CHARTSTYLE:;
#DIFFICULTY:Beginner;
#METER:1;
#RADARVALUES:0.234,0.292,0.008,0,0,211,210,1,0,0,0,0,0,0,0.234,0.292,0.008,0,0,211,210,1,0,0,0,0,0,0;
#CREDIT:Kommisar;
#OFFSET:-0.090;
#BPMS:0=181.685
,304=90.843
,311=181.685;
#STOPS:;
#DELAYS:;
#WARPS:;
#TIMESIGNATURES:0=4=4;
#TICKCOUNTS:0=2;
#COMBOS:0=1;
#SPEEDS:0=1=0=0;
#SCROLLS:0=1;
#FAKES:;
#LABELS:0=Song Start;
#DISPLAYBPM:182;
#NOTES:
0000
0000
0000
0000
,
0000
0000
0000
0000
,
0000
0000
0000
0000
,
0000
0000
0000
0000
,
0001
0000
1000
0000
,
0010
0000
0100
0000
,
0001
0000
0010
0000
,
0001
0000
1000
0000
,
0100
0000
1000
0000
,
0010
0000
0100
0000
,
0001
0000
1000
0000
,
0010
0010
0100
0100
,
0001
0000
1000
0000
,
0100
0000
0010
0000
,
0001
0000
0100
0000
,
0001
0000
1000
0000
,
0100
0000
1000
0000
,
0010
0000
0100
0000
,
0001
0000
1000
0000
,
0010
0000
0100
0100
,
0001
0000
1000
0000
,
0010
0000
1000
0000
,
0100
0000
0010
0000
,
0001
0000
1000
0000
,
0010
0000
1000
0000
,
0001
0000
1000
0000
,
0100
0000
0010
0000
,
0001
0001
1000
1000
,
0001
0000
0100
0000
,
0001
0000
1000
0000
,
0100
0000
1000
0000
,
0010
0000
0100
0000
,
0010
0000
0100
0000
,
0001
0000
1000
0000
,
0010
0000
1000
0000
,
0001
0001
1000
1000
,
0010
0000
0100
0000
,
0001
0000
1000
0000
,
0001
0000
1000
0000
,
0010
0000
0100
0000
,
0010
0000
1000
0000
,
0001
0000
0100
0000
,
0001
0000
0010
0000
,
0100
0100
1000
1000
,
0001
0000
0100
0000
,
0001
0000
1000
0000
,
0010
0000
1000
0000
,
0100
0000
0010
0000
,
0001
0000
1000
0000
,
0001
0000
0100
0000
,
0001
0000
0010
0000
,
0100
0100
1000
1000
,
0001
0000
0010
0000
,
0001
0000
1000
0000
,
0000
0010
1000
0000
,
0001
0000
1000
0000
,
0010
0000
1000
0000
,
0001
0000
0100
0000
,
0001
0000
0010
0000
,
0100
0000
1000
0000
,
0001
0001
0001
0000
,
1000
1000
1000
0000
,
0010
0010
0010
0000
,
0100
0100
0100
0000
,
0001
0001
0001
0000
,
1000
1000
1000
0000
,
0010
0010
0010
0000
,
0100
0100
0100
0000
,
0001
0000
1000
0000
,
0010
0000
0100
0000
,
0001
0000
1000
0000
,
0010
0000
1000
0000
,
0100
0000
1000
0000
,
0010
0000
1000
0000
,
0001
0000
0100
0000
,
0001
0001
1000
1000
,
0001
0000
1000
0000
,
0100
0000
0010
0001
,
0001
1000
0000
0010
,
0000
1000
0000
0001
,
0000
0010
0000
0001
,
0000
1000
1000
0100
,
0100
1000
0000
0001
,
0000
1000
0000
0001
,
0000
0100
0000
0001
,
0000
1000
1000
0001
,
0001
1000
0000
0010
,
0000
0100
0000
0001
,
0000
0100
0000
0010
,
0000
1000
0000
0001
,
0000
1000
0000
0001
,
0000
0100
0000
0001
,
0000
1000
0000
0010
,
0000
1000
1000
0001
,
0001
1001
0000
0000;

//---------------dance-single - ----------------
#NOTEDATA:;
#CHARTNAME:Kommisar;
#STEPSTYPE:dance-single;
#DESCRIPTION:;
#CHARTSTYLE:;
#DIFFICULTY:Medium;
#METER:6;
#RADARVALUES:0.587,0.634,0,0.426,0.031,530,530,0,55,0,0,6,0,0,0.587,0.634,0,0.426,0.031,530,530,0,55,0,0,6,0,0;
#CREDIT:Kommisar;
#OFFSET:-0.090;
#BPMS:0=181.685
,304=90.843
,311=181.685;
#STOPS:;
#DELAYS:;
#WARPS:;
#TIMESIGNATURES:0=4=4;
#TICKCOUNTS:0=2;
#COMBOS:0=1;
#SPEEDS:0=1=0=0;
#SCROLLS:0=1;
#FAKES:;
#LABELS:0=Song Start;
#DISPLAYBPM:182;
#NOTES:
0000
0000
0000
0000
,
0000
0000
0000
0000
,
0000
0000
0000
0000
,
0000
0000
0000
0000
,
0001
0000
1000
0000
0010
0100
0010
0000
,
1000
0000
0001
0000
0010
0100
1000
0000
,
0010
0000
1000
0000
0001
1000
0001
0000
,
1000
0000
0001
0000
1000
0001
1000
0001
,
0100
0000
0010
0000
1000
0001
1000
0000
,
0001
0000
0100
0000
0001
1000
0100
0000
,
1000
0000
0001
0000
1000
0010
1000
0000
,
0001
0000
1000
0000
0001
0000
1000
0000
0001
0000
1000
0000
0002
0003
2000
3000
,
0001
0010
0100
1000
0000
0001
1000
0000
,
0010
0100
0010
1000
0001
0100
0001
1000
,
0100
0010
0001
1000
0000
0001
0010
0000
,
0001
1000
0100
1000
0001
0100
0010
0100
,
0001
1000
0100
0010
0000
0001
1000
0000
,
0010
1000
0010
1000
0100
0010
0001
1000
,
0010
0100
0001
0100
0000
0001
1000
0000
,
0100
0010
0001
1000
0010
1000
0001
1000
,
0001
0010
0100
1000
0000
0001
1000
0000
,
0010
0100
0010
1000
0001
0100
0001
1000
,
0100
0010
0001
1000
0000
0001
0010
0000
,
0001
1000
0100
1000
0001
0100
0010
0100
,
0001
1000
0100
0010
0000
0001
1000
0000
,
0010
1000
0010
1000
0100
0010
0001
1000
,
0010
0100
0001
0100
0000
0001
1000
0000
,
0001
0000
0010
0000
0001
0000
0010
0000
0001
0000
0010
0000
0002
0003
2000
3000
,
0001
0010
0100
2000
0000
0000
3000
0001
,
0200
0000
0300
0002
0000
0003
1000
0000
0200
0000
0000
0000
0000
0000
0000
0000
,
0000
0300
0010
0001
1000
0100
1000
0001
,
0100
0000
0001
0000
0100
0000
0001
0000
1000
0000
0100
0000
2000
3000
0002
0003
,
1000
0100
0010
0002
0000
0000
0000
0103
,
0020
0000
0030
2000
0000
3000
0001
0000
0200
0000
0000
0000
0000
0000
0000
0000
,
0000
0000
0000
0300
0001
0000
1000
0000
0010
0000
1000
0000
0100
0000
0010
0000
,
0001
0000
1000
0000
0001
0000
1000
0000
0010
0000
1000
0000
0002
0003
0200
0300
,
0001
0010
0100
1000
0000
0010
1000
0001
,
1000
0100
0010
0001
0000
0100
0010
0100
,
0001
0010
0001
1000
0000
1000
0100
0010
,
0004
0003
4000
3000
0400
0300
0040
0030
,
0001
0100
0001
1000
0000
0010
1000
0010
,
1000
0100
0010
0001
0000
0100
0010
0100
,
0001
1000
0010
1000
0000
0001
0010
0100
,
4000
3000
0004
0003
1000
1000
0001
1000
,
0001
0010
0100
2000
0000
0000
3000
0001
,
0200
0000
0300
0002
0000
0003
1000
0000
0200
0000
0000
0000
0000
0000
0000
0000
,
0000
0300
0010
0001
1000
0100
1000
0001
,
0100
0000
0001
0000
0100
0000
0001
0000
1000
0000
0100
0000
2000
3000
0002
0003
,
1000
0100
0010
0002
0000
0000
0000
0103
,
0020
0000
0030
2000
0000
3000
0001
0000
0200
0000
0000
0000
0000
0000
0000
0000
,
0000
0000
0000
0300
0001
0000
1000
0000
0010
0000
1000
0000
0100
0000
0010
0000
,
0001
0000
1000
0000
0001
0000
1000
0000
0010
0000
1000
0000
0002
0003
0200
0300
,
0001
1000
0010
0100
,
0001
0010
0001
1000
,
0010
1000
0100
1000
,
0001
0010
0100
1000
,
0001
0010
0001
0100
,
0001
1000
0010
1000
,
0100
1000
0010
0100
,
0001
0010
0100
1000
,
0001
0100
0001
0000
1000
0100
1000
0000
,
0010
0100
0010
0000
1000
0001
1000
0000
,
0001
0010
0100
0000
1000
0100
0010
0000
,
0001
0100
0001
0000
1000
0100
1000
0000
,
0001
0010
0100
1000
0010
1000
0100
1000
,
0001
0010
0100
1000
0001
0100
0001
1000
,
0100
0010
0001
1000
0100
1000
0010
1000
,
0100
0010
0001
0100
0001
1000
0010
1000
,
0001
0010
0100
1000
0000
0001
0100
0000
,
0001
1000
0100
0010
0001
0100
0010
0100
,
0001
1000
0100
1000
0000
0010
1000
0000
,
0100
0010
0001
0100
0010
1000
0001
1000
,
0001
0010
0100
1000
0000
0001
1000
0000
,
0100
0010
0100
1000
0001
0100
0001
1000
,
0100
0010
0100
1000
0000
0001
0100
0000
,
0001
1000
0001
1000
0001
0100
0001
0100
,
0001
0000
0000
1000
0000
0000
0000
0000
0010
0000
0000
0000
0100
0000
0000
0000
,
0001
0000
1000
0000
0100
0000
0020
0030
,
0002
0000
0000
0003
1000
0000
0100
0000
0010
0000
0002
0000
0000
0000
0000
0000
,
0003
0000
0100
0000
0002
0000
0003
2000
0000
3000
0010
0000
0200
0000
0000
0000
,
0000
0000
0000
0000
0000
0000
0000
0300
0001
0000
1000
0000
0010
0000
1000
0000
,
0100
0010
0001
0100
0001
1000
0010
1000
,
0002
0003
0200
0300
0001
0000
0010
0000
0100
0000
2000
0000
0000
0000
0000
0000
,
0000
0000
3001
0000
0200
0000
0300
0002
0000
0003
1000
0000
0020
0000
0000
0000
,
0000
0000
0000
0000
0000
0000
0000
0030
0100
0000
0010
0000
1000
0000
0100
0000
,
0010
0001
1000
0100
1000
0100
1000
0001
,
0010
0100
1000
0010
1000
0002
0000
0000
,
0003
0000
0100
0000
0010
0000
0000
1000
0000
0000
0001
0000
0200
0000
0000
0000
,
0000
0300
0020
0000
0000
0030
2000
3000
,
0200
0300
0020
0000
0030
0000
0002
0000
,
0000
0003
0020
0000
0000
0000
0030
0000
,
0200
0300
2000
0000
0000
0000
0000
3000
,
0010
0100
0002
0000
1003
2000
0000
0000
,
3000
0000
0010
0100
0010
0100
0001
1000
,
0002
0003
2000
3000
0020
0000
0000
0000
0000
0000
0000
0000
0000
0000
0000
0000
,
0000
0000
0000
0000
,
0000
0000
0000
0030
0000
0000
0000
0000
0000
0000
0000
0000
0000
0000
0000
0000;

//---------------dance-single - ----------------
#NOTEDATA:;
#CHARTNAME:Kommisar;
#STEPSTYPE:dance-single;
#DESCRIPTION:;
#CHARTSTYLE:;
#DIFFICULTY:Easy;
#METER:4;
#RADARVALUES:0.456,0.484,0,0.248,0,412,412,0,32,0,0,0,0,0,0.456,0.484,0,0.248,0,412,412,0,32,0,0,0,0,0;
#CREDIT:Kommisar;
#OFFSET:-0.090;
#BPMS:0=181.685
,304=90.843
,311=181.685;
#STOPS:;
#DELAYS:;
#WARPS:;
#TIMESIGNATURES:0=4=4;
#TICKCOUNTS:0=2;
#COMBOS:0=1;
#SPEEDS:0=1=0=0;
#SCROLLS:0=1;
#FAKES:;
#LABELS:0=Song Start;
#DISPLAYBPM:182;
#NOTES:
0000
0000
0000
0000
,
0000
0000
0000
0000
,
0000
0000
0000
0000
,
0000
0000
0000
0000
,
0001
1000
0010
1000
,
0001
0100
0001
1000
,
0100
1000
0100
0010
,
0001
0000
0000
0000
1000
0000
0000
0000
0001
0000
0000
0000
0200
0300
0002
0003
,
1000
0010
1000
0001
,
0100
0010
0100
0001
,
1000
0100
0010
0001
,
1000
0000
1000
0000
0001
1000
0001
1000
,
0001
0100
0001
1000
,
0010
1000
0100
0010
,
0001
1000
0100
1000
,
0010
0000
0000
0000
0100
0000
0000
0000
0001
0000
0000
0000
2000
3000
0002
0003
,
1000
0010
1000
0001
,
1000
0010
0100
0001
,
0010
0100
1000
0010
,
1000
0000
0000
0000
0100
0000
0000
0000
0010
0000
0000
0000
0002
0003
2000
3000
,
0001
0100
0010
1000
,
0100
0010
0001
1000
,
0010
0100
0010
1000
,
0100
0000
0000
0000
1000
0000
0000
0000
0010
0000
0000
0000
2000
3000
0002
0003
,
1000
0010
0100
0001
,
1000
0100
1000
0001
,
0100
0001
1000
0100
,
1000
0001
1000
0000
0001
0100
0001
0000
,
1000
0000
0100
0020
0000
0000
0030
0001
,
0100
0000
0001
1000
0001
0000
0100
0000
,
0010
1000
0100
0010
,
0001
0000
1000
0000
0010
0000
2000
3002
,
0103
0000
0010
2000
0000
0000
3000
0001
,
0100
0000
0001
1000
0001
0000
1000
0000
,
0100
0010
0001
1000
,
0100
0000
1000
0000
0100
0000
0000
0000
1000
0000
0001
0000
2000
3000
0002
0003
,
0100
0000
0001
1000
0000
0010
1000
0000
,
0001
0000
0100
0001
0000
1000
0001
0000
,
1000
0000
0100
0010
0000
0100
1000
0000
,
0001
1000
0010
1000
,
0001
0000
1000
0010
0000
1000
0001
0000
,
0100
0000
0010
1000
0000
0010
0100
0000
,
0001
0000
1000
0010
0000
1000
0001
0000
,
1000
0000
0100
0000
0010
0000
0001
1000
,
0001
0000
1000
0200
0000
0000
0300
0010
,
0001
0000
1000
0100
1000
0000
0001
0000
,
0100
0010
1000
0100
,
0010
0000
0001
0000
1000
0000
0002
2003
,
3010
0000
0100
0002
0000
0000
0003
1000
,
0010
0000
0100
0001
0100
0000
0001
0000
,
1000
0100
0010
0001
,
1000
0000
0001
0000
1000
0000
0000
0000
0010
0000
0100
0000
0020
0030
0200
0300
,
0001
1000
0001
1000
,
0010
1000
0010
1000
,
0001
0100
0001
0100
,
0001
0010
0001
0010
,
0001
1000
0100
1000
,
0010
1000
0100
1000
,
0001
1000
0100
0010
,
0001
1000
0100
1000
,
0001
0100
0001
0000
1000
0000
0010
0000
,
1000
0100
1000
0000
0001
0000
0100
0000
,
0010
1000
0010
0000
1000
0000
0100
0000
,
0010
0001
0010
0000
0100
0000
1000
0000
,
0001
1000
0001
0000
1000
0000
0010
0000
,
0100
0001
0100
0000
0001
0000
1000
0000
,
0100
0010
0001
0000
1000
0000
0100
0000
,
0010
0001
0010
0000
0100
0000
1000
0000
,
0001
1000
0010
0100
,
0001
0000
1000
0000
0010
0000
1000
0001
,
1000
0010
0100
0001
,
1000
0000
0100
0000
0010
0000
0001
1000
,
0001
1000
0100
1000
,
0010
0000
0100
0000
0001
0000
1000
0010
,
1000
0001
0010
0100
,
1000
0000
0001
0000
1000
0000
0000
0000
0001
0000
1000
0000
0002
0003
2000
3000
,
0001
0000
0100
0000
,
0001
0000
1000
0000
0001
0000
2000
3000
,
0002
0003
1000
0000
0001
0200
0000
0000
,
0300
0010
1000
0000
0100
0010
0001
0000
,
1000
0010
0100
0001
,
0010
0100
1000
0001
,
2000
3200
0310
0000
0001
2000
0000
0000
,
3000
0010
0100
0000
0001
1000
0001
0000
,
1000
0000
0010
0000
0100
0001
0100
0000
,
0001
0000
1000
0000
0100
0000
0010
0001
,
1000
0000
0010
0000
1000
0002
0000
0000
,
0003
1000
0001
0000
1000
0100
1000
0000
,
0010
1000
0001
0010
,
0100
0000
1000
0000
0010
0000
1000
0001
,
1000
0001
1000
0000
0010
0000
1000
0000
,
0100
1000
0001
0010
,
0100
1000
0010
1000
,
0001
0000
1000
0100
1000
0000
0001
0100
,
0002
0003
2000
3000
0002
0000
0000
0000
0000
0000
0000
0000
0000
0000
0000
0000
,
0000
0000
0000
0000
,
0000
0003
0000
0000
0000
0000
0000
0000;

//---------------pump-single - ----------------
#NOTEDATA:;
#CHARTNAME:Vin.il / Aegis;
#STEPSTYPE:pump-single;
#DESCRIPTION:;
#CHARTSTYLE:Pad;
#DIFFICULTY:Medium;
#METER:10;
#RADARVALUES:0.851,0.983,0.581,1.341,0.201,769,694,75,173,0,0,0,0,0,0.851,0.983,0.581,1.341,0.201,769,694,75,173,0,0,0,0,0;
#CREDIT:Vin.il;
#OFFSET:-0.090;
#BPMS:0=181.685;
#STOPS:;
#DELAYS:;
#WARPS:;
#TIMESIGNATURES:0=4=4;
#TICKCOUNTS:0=4
,384=13;
#COMBOS:0=1;
#SPEEDS:0=1=0=0
,384=1.500=0.500=0;
#SCROLLS:0=1
,304=0.500
,318=1
,386=10;
#FAKES:;
#LABELS:0=Song Start;
#DISPLAYBPM:182;
#NOTES:
00000
00000
00000
00000
,
00000
00000
00000
00000
,
00000
00000
00000
00000
,
00000
00000
00000
00000
,
00100
00000
01001
00000
00010
10000
00001
01000
,
00100
00000
10100
00000
00100
01000
00010
00100
,
00001
00000
01001
00000
00001
01000
00100
10000
,
00100
00000
00100
01000
00010
00100
00001
00000
,
00100
00000
00000
00000
01010
00000
00000
00000
01000
00020
00000
00030
00100
00000
00010
00000
,
10000
00000
00000
00000
10010
00000
00000
00000
10000
00200
00000
00300
01000
00000
00001
00000
,
00100
00000
00000
00000
00101
00000
00000
00000
00100
00002
00000
00003
10000
00000
00100
00000
,
01000
00000
00001
00000
01000
00000
00001
00000
10000
00010
10000
00010
00200
00000
00300
00000
,
00001
00100
00001
10000
00000
00010
01000
00001
,
10000
00100
01000
00010
00100
00001
10000
00100
,
00000
01000
00010
00001
00000
00010
00100
00010
,
10000
00010
01000
00100
10000
00001
01000
10000
,
00000
00100
00001
01000
00000
00100
00010
00001
,
00100
10000
00010
00001
00100
00010
01000
00100
,
00000
10000
00001
00100
00000
00010
01000
00100
,
01000
00001
10000
00100
01000
02000
03001
00002
,
10003
00010
01000
00100
10000
00001
01000
00001
,
10000
00010
01000
00100
10000
00010
01000
01000
,
00001
01000
00010
10000
00100
01000
00010
00001
,
00100
10000
00010
00100
00001
10000
00001
00001
,
01000
10000
00100
00001
01000
00100
01000
00010
,
10000
01000
00100
00010
00100
00001
10000
10000
,
00100
10000
00010
01000
00100
10000
00010
00100
,
00001
00002
00003
00000
10000
20000
30000
00000
00001
00002
00003
00000
10000
20000
30000
00000
00010
00020
00030
00000
01000
02000
03000
00000
00010
00020
00030
00000
01000
02000
03000
00000
,
00100
10000
00100
02000
10000
00000
03100
00000
,
10000
01000
00100
00020
00100
00000
01030
00000
,
00010
10000
00001
00100
00010
10000
00001
00100
,
00010
01000
00100
10100
10000
00001
10001
10000
,
00001
01000
10000
02000
00010
00000
03100
00000
,
10000
00010
00100
00020
00001
00000
00130
00000
,
00001
10000
00100
01000
00001
10000
00100
01000
,
00010
00020
00030
00000
01000
02000
03000
00000
00010
00020
00030
00000
01000
02000
03000
00000
00001
00002
00003
00000
10000
20000
30000
00000
00001
00002
00003
00000
10000
20000
30000
00000
,
00010
00100
00010
00002
00003
00010
10000
00010
,
00100
00010
01000
00001
10000
00010
01000
00100
,
10000
00010
01000
20000
30000
01000
00001
01000
,
02100
03100
10200
10300
21000
31000
02100
03100
,
00010
00100
00001
00020
00030
00001
00100
00010
,
01000
00100
10000
01000
00100
00010
00100
00001
,
00100
00010
01000
00200
00300
10000
00010
00100
,
00201
00301
00012
00013
00120
00130
01200
01300
,
00010
00100
00001
02000
00010
00000
03100
00000
,
01000
00010
00100
00002
10000
00000
00103
00000
,
00010
01000
00100
10000
00010
01000
00100
10000
,
00010
01000
00100
10010
00100
00001
01001
00100
,
10000
00010
00100
02000
10000
00000
03100
00000
,
00010
01000
00001
00200
00010
00000
00301
00000
,
10000
00100
01000
00010
10000
00100
01000
00010
,
10000
20000
30000
00000
00001
00002
00003
00000
10000
20000
30000
00000
00001
00002
00003
00000
01000
02000
03000
00000
00010
00020
00030
00000
01000
02000
03000
00000
00010
00020
00030
00000
,
02020
03030
00220
00330
02020
03030
02002
03003
,
02020
03030
20020
30030
02020
03030
02200
03300
,
02002
03003
00202
00303
02002
03003
02200
03300
,
20020
30030
02002
03003
10010
01001
10010
00000
,
20002
30003
02002
03003
20002
30003
20200
30300
,
20002
30003
00202
00303
20002
30003
20020
30030
,
20200
30300
20020
30030
00220
00330
20020
30030
,
00020
20030
30200
02300
03002
00203
00320
10030
,
20100
30100
01200
01300
02010
03010
00120
00130
,
00201
00301
01002
01003
02100
03100
10200
10300
,
20010
30010
10020
10030
20010
30010
10020
10030
,
00200
02300
03020
00230
00302
20003
30020
00130
,
00201
00301
10002
10003
20010
30010
01020
01030
,
02001
03001
10002
10003
20100
30100
01200
01300
,
02001
03001
01002
01003
02001
03001
01002
01003
,
00200
20300
30020
00230
00302
20003
30200
01300
,
00010
00001
00010
00100
00000
00001
00010
00100
,
01000
10000
00100
00001
00100
10000
00100
00001
,
00000
01000
10000
01000
00000
00100
10000
00001
,
01000
10000
00100
00001
10000
00010
00100
00001
,
00000
00100
00010
01000
00000
00010
00100
00001
,
00100
00010
01000
10000
01000
00010
10000
00100
,
00000
10000
01000
00100
00000
00010
01000
00100
,
01000
00000
00001
00000
10000
00000
00010
00000
10000
00010
10000
00010
10000
00010
10000
00010
,
00100
00000
00000
00000
00000
00000
00001
00000
00000
00000
00000
00000
00100
00000
00000
00000
00000
00000
00020
00000
00000
00000
00000
00000
00000
00000
00000
00000
00000
00000
00000
00000
00000
00000
00000
00000
00000
00000
00000
00030
00000
00000
00000
00000
10000
00000
00000
00000
,
00100
00000
00000
00100
00000
00000
01000
00000
00020
00000
00000
00000
00000
00000
00000
00000
,
00000
00000
00030
00000
00100
00000
00010
00000
02000
03000
00002
00003
20000
30000
00100
02000
,
00000
00000
00000
00000
03000
00000
00000
00000
00010
00000
00000
00000
00100
00000
00000
00000
00001
00002
00003
00000
10000
20000
30000
00000
00001
00002
00003
00000
10000
20000
30000
00000
,
00100
01000
10000
01000
00100
01000
10000
01000
,
00100
10000
00001
10000
00100
10000
00001
10000
,
00100
00001
00010
10000
00010
00001
00100
10000
,
00010
00100
01001
00100
10000
01001
10010
00100
,
00001
00010
00100
00010
00001
00010
00100
00010
,
00001
10000
00010
10000
00001
10000
00010
10000
,
00001
01000
10000
01000
00001
01000
10000
00100
,
00001
00000
00000
00000
10000
00000
00000
00000
01000
00000
00000
00000
00100
00000
00000
00000
00010
00020
00030
00000
01000
02000
03000
00000
00010
00020
00030
00000
01000
02000
03000
00000
,
00001
00100
00010
02000
00100
00000
03010
00100
,
00001
10000
00010
01000
00200
00000
10300
00000
,
00010
10000
00010
01000
00001
00100
00010
01000
,
00100
10000
00100
10000
00100
00001
00100
00001
,
00010
00100
01000
10000
00010
00100
00001
00100
,
00010
01000
00100
01000
10000
00100
00001
00100
,
00010
01000
00100
10000
00001
00100
00010
01000
,
00010
00020
00030
00000
01000
02000
03000
00000
00010
00020
00030
00000
01000
02000
03000
00000
00001
00002
00003
00000
10000
20000
30000
00000
00001
00002
00003
00000
10000
20000
30000
00000
,
20002
00000
00000
00000
,
00000
00000
00000
00000
00000
30003
00000
00000;

//---------------pump-single - ----------------
#NOTEDATA:;
#CHARTNAME:Vin.il;
#STEPSTYPE:pump-single;
#DESCRIPTION:;
#CHARTSTYLE:Pad;
#DIFFICULTY:Easy;
#METER:7;
#RADARVALUES:0.558,0.594,0.380,0.101,0.012,504,455,49,13,0,0,0,0,0,0.558,0.594,0.380,0.101,0.012,504,455,49,13,0,0,0,0,0;
#CREDIT:Vin.il;
#OFFSET:-0.090;
#BPMS:0=181.685
,304=90.843
,311=181.685;
#STOPS:;
#DELAYS:;
#WARPS:;
#TIMESIGNATURES:0=4=4;
#TICKCOUNTS:0=2;
#COMBOS:0=1;
#SPEEDS:0=1=0=0
,380=0.063=0.063=0
,380.063=1=0.063=0
,380.500=0.063=0.063=0
,380.563=1=0.063=0
,381=0.063=0.063=0
,381.063=1=0.063=0
,381.250=0.063=0.063=0
,381.313=1=0.063=0
,381.750=0.063=0.063=0
,381.813=1=0.063=0
,382.500=0.063=0.063=0
,382.563=1=0.063=0
,383=0.063=0.063=0
,383.063=1=0.063=0;
#SCROLLS:0=1;
#FAKES:;
#LABELS:0=Song Start;
#DISPLAYBPM:182;
#NOTES:
00000
00000
00000
00000
,
00000
00000
00000
00000
,
00000
00000
00000
00000
,
00000
00000
00000
00000
,
10000
00000
10100
00000
00000
10000
00001
00000
,
00001
00000
00101
00000
00000
00001
01000
00000
,
01000
00000
01100
00000
00000
01000
00010
00000
,
00010
00000
00000
00100
00001
01000
00100
00000
,
01000
00000
01100
00000
00000
01000
00010
00000
,
00010
00000
00110
00000
00000
00010
10000
00000
,
10000
00000
10100
00000
00000
10000
00001
00000
,
00001
00100
00001
00100
00010
10000
00200
00300
,
01000
00000
01001
00000
00001
00000
00100
00001
,
10000
00000
00000
00100
01000
00000
00010
00100
,
00001
00000
01001
00000
01000
00000
00100
01000
,
00010
00000
00000
00100
00001
00000
10000
00100
,
10000
00000
10010
00000
00010
00000
00100
00001
,
00100
00010
00000
01000
00100
00000
10000
00001
,
01000
01001
00001
00100
,
00010
00100
00010
00000
10000
00100
10000
00000
,
00001
00000
00101
00000
00001
00100
00010
00000
,
01000
00100
00000
00100
10000
00000
00010
00100
,
00010
00000
00110
00000
00010
01000
00100
00000
,
10000
00001
00000
00001
00100
00000
00010
01000
,
00010
00000
01010
00000
01000
00100
01000
00000
,
00001
10000
00000
10000
00010
00000
00010
01000
,
00001
00000
00101
00000
00001
01000
00100
00000
,
10000
00010
10000
00010
01000
00001
00200
00300
,
00001
00000
00001
20000
00000
30000
00000
00100
,
10000
00000
00010
00100
00020
00000
00000
00000
,
00030
00000
00100
00000
00001
00100
00001
02000
,
03000
00000
00100
00000
01000
00000
00010
00100
,
00010
00000
00010
02000
00000
03000
00000
00100
,
01000
00000
00001
00100
00002
00000
00000
00000
,
00003
00000
00100
00000
00010
00100
00010
10000
,
00100
00000
01000
00000
00100
10000
00002
00003
,
00100
00000
00001
00000
00100
00000
00010
01000
,
00100
00000
10000
00000
00100
00000
01000
00010
,
00100
00001
00000
10000
00000
00100
00000
00100
,
01000
00010
00100
00000
00001
00000
01000
00100
,
01000
00000
01000
00000
00100
00000
10000
00001
,
00100
00000
00010
00000
00100
00000
00001
10000
,
00100
01000
00000
00010
00000
00100
00000
00100
,
00001
10000
00100
10000
00100
00000
01000
00010
,
00100
00000
00101
00000
00001
10000
00100
00000
,
10000
00000
10100
00000
10000
00010
00100
00000
,
00010
00000
01010
00000
01000
00100
01000
00001
,
00000
00000
00100
00000
00001
00000
10000
00100
,
01000
00000
01100
00000
00100
01000
00010
00000
,
00100
00000
00101
00000
00001
01000
00100
00000
,
01000
01010
00010
00100
,
00010
00100
00001
00000
01000
00100
20000
30000
,
00010
00110
00010
01010
,
01000
01100
01000
01010
,
00001
00101
00001
10001
,
10000
10100
10000
10001
,
01000
00000
00010
00100
00001
00000
01000
00000
,
00001
00000
10000
00100
01000
00000
00001
00000
,
10000
00000
00001
00100
00010
00000
01000
00000
,
00010
00000
01000
00100
10000
00000
00001
00000
,
01000
00000
01010
00000
00010
00100
00001
00000
,
10000
00000
10001
00000
00001
00100
00010
00000
,
01000
00000
01100
00000
00100
10000
00010
00000
,
10000
00000
10100
00000
00100
01000
00001
00000
,
00100
00001
00100
00000
00001
00000
01000
00000
,
00100
10000
00100
00000
10000
00000
00010
00000
,
00100
00010
00100
00000
00010
00000
10000
00000
,
00100
01000
00100
00000
01000
00000
00001
00000
,
00100
00000
00101
00000
00001
01000
00100
00000
,
00100
10000
00000
00010
00100
00000
00001
00000
,
00100
00000
00110
00000
00010
10000
00100
00000
,
00100
01000
00000
00001
00100
00000
00010
00000
,
00100
00000
00110
00000
00010
10000
00100
00000
,
00100
01000
00000
00001
00100
00000
00010
00000
,
00100
00000
00101
00000
00001
01000
00100
00000
,
00100
10000
00000
00010
00100
00000
00001
00000
,
00100
00000
00001
20000
00000
00000
30000
00000
10000
00000
00000
00001
00200
00000
00000
00000
,
00300
00000
00100
00000
00010
01000
00100
00000
10000
00000
00001
00000
00100
00000
00001
00000
,
10000
00100
10001
00000
00001
00000
00100
00001
,
01000
00000
00100
00000
10100
00000
10000
00010
,
00100
00000
00001
00100
00001
00000
10000
00000
,
10100
00000
00010
00100
00010
00000
01000
00000
,
01100
00000
00010
00000
01000
00000
00100
01000
,
00001
00000
00100
00000
00110
00000
00010
10000
,
00100
00000
01000
00100
01000
00000
00010
00000
,
00110
00000
10000
00100
10000
00000
00001
00000
,
00101
00000
00001
01000
00001
01000
00000
00000
,
00000
01000
00100
00000
00100
10000
00010
00000
,
00110
00100
00101
00001
,
10001
00000
10000
00000
00100
10000
00100
00000
,
01000
00000
00001
00100
00001
00000
01000
00000
,
00010
00000
10000
00000
10100
00000
00100
10000
,
00001
00100
00010
00000
01010
00000
01000
00000
,
00100
00000
10000
00100
10000
00100
01000
00001
,
00100
00010
02020
00000
00000
00000
00000
00000
,
00000
00000
00000
00000
00000
00000
00000
03030;

//---------------pump-single - ----------------
#NOTEDATA:;
#CHARTNAME:Vin.il - Another CZ;
#STEPSTYPE:pump-single;
#DESCRIPTION:;
#CHARTSTYLE:Pad - ACZ;
#DIFFICULTY:Challenge;
#METER:21;
#RADARVALUES:1.202,1.248,0.620,0.488,1.224,1086,1006,80,63,0,0,0,0,0,1.202,1.248,0.620,0.488,1.224,1086,1006,80,63,0,0,0,0,0;
#CREDIT:Vin.il;
#OFFSET:-0.090;
#BPMS:0=181.685
,44=363.37
,47=726.74
,48=181.685
,300=363.37
,304=181.685;
#STOPS:;
#DELAYS:44.500=0.083
,45=0.083
,45.500=0.083
,46=0.083
,46.250=0.041
,46.500=0.041
,46.750=0.041
,47=0.041
,48=0.248
,300.500=0.083
,301=0.083
,301.500=0.083
,302=0.083
,302.250=0.041
,302.500=0.041
,302.750=0.041
,303=0.041
,303.250=0.041
,303.500=0.041
,303.750=0.041
,304=0.041;
#WARPS:;
#TIMESIGNATURES:0=4=4;
#TICKCOUNTS:0=4
,384=8;
#COMBOS:0=1;
#SPEEDS:0=1=0=0
,174.750=0.500=0.500=0
,175=1=0.500=0
,175.250=0.500=0.250=0
,175.375=1=0.250=0
,175.500=0.500=0.250=0
,175.625=1=0.250=0
,175.750=0.500=0.250=0
,175.875=1=0.250=0
,304=2=14=0
,384=1000=6.500=0;
#SCROLLS:0=1
,174.500=0
,176=1
,304=0.250
,318=0.500
,384=0.001;
#FAKES:;
#LABELS:0=Song Start;
#DISPLAYBPM:182;
#NOTES:
00000
00000
00000
00000
,
00000
00000
00000
00000
,
00000
00000
00000
00000
,
00000
00000
00000
00000
,
10000
00000
00001
00100
00001
00000
01000
00100
01000
00010
00000
00000
01010
00000
01010
00000
,
10000
00000
00001
00100
00001
00000
01000
00100
01000
00010
00000
00000
01010
00000
01010
00000
,
00010
00000
01000
00100
01000
00000
00001
00100
00001
10000
00000
00000
10001
00000
10001
00000
,
00010
00000
01000
00100
01000
00000
00001
00000
00101
00000
00101
00000
20002
00000
30003
00000
,
00001
00000
01000
00100
01000
00000
00010
00100
00010
10000
00000
00100
10000
00001
00100
00000
,
00001
00000
01000
00100
01000
00000
00010
00100
00010
10000
00000
00100
10000
00001
00100
00000
,
00010
00000
10000
00100
10000
00000
00001
00100
00001
01000
00000
00100
01000
00010
00100
00000
,
00010
00000
00100
00000
00010
00000
10000
00000
00010
01000
00100
10000
00002
00000
00003
00000
,
00001
00000
00010
00100
01000
00000
00001
00000
01000
00100
00010
00100
01000
00000
00001
00000
,
10000
00000
00100
00000
00000
00000
10000
00100
00010
00000
00001
00000
00010
00000
00010
00000
,
00001
00000
10000
00000
10000
00000
01000
00100
00010
00000
10000
00000
00010
00100
01000
00100
,
00010
00000
10000
00000
00000
00000
00001
00100
01000
00000
10000
00000
01000
00100
00010
00100
,
00001
00000
00010
00100
00010
00000
00001
00000
10000
01000
00100
01000
10000
00100
01000
00010
,
00100
00000
00001
00000
00000
00000
00010
00001
00100
00000
01000
00000
10000
00000
00100
00000
,
10000
00000
01000
00100
01000
00000
10000
00000
00001
00010
00100
00010
00001
00100
00010
01000
,
00100
10000
00010
00000
00110
01001
00110
10001
,
00100
00000
10000
00100
10000
00000
00010
00100
00010
00100
00001
00010
00100
00000
01000
00000
,
00010
00000
00100
00000
01000
00000
10000
01000
00100
00000
00010
00000
01000
00000
00001
00000
,
00100
00000
00010
00100
00010
00000
10000
00100
10000
00100
01000
10000
00100
00000
00001
00000
,
10000
00000
00100
00000
00000
00000
01000
00100
00010
00100
01000
00010
00100
00000
00001
00000
,
10000
00000
00010
00100
00001
00000
01000
00100
10000
00010
01000
00001
00100
00000
00010
00000
,
01000
00000
00100
00000
00000
00000
10000
00100
00001
00000
00010
00000
00100
00000
00100
00000
,
00010
10000
10100
00001
00100
00010
01000
00100
,
10000
00001
10000
00001
10000
00001
10000
00001
01000
00010
01000
00010
10000
00000
00001
00000
,
10001
00000
00001
00000
00101
00000
00100
00000
00010
00000
01000
00000
01100
00000
00100
10000
,
00001
00000
01000
00000
01001
00000
00001
00000
10000
00000
00010
00000
10010
00000
00010
10000
,
00010
00100
00010
00000
00110
00000
00010
00000
01000
00100
10000
00001
01000
00010
00100
00001
,
20000
00000
30001
10001
00101
00001
10100
10000
,
01010
00000
01000
00000
01100
00000
00100
00000
10000
00000
00001
00000
00101
00000
00100
00010
,
01000
00000
00001
00000
01001
00000
01000
00000
00010
00000
10000
00000
10010
00000
10000
00010
,
10000
00100
10000
00000
10100
00000
10000
00000
00001
00100
00010
01000
00001
10000
00100
01000
,
00010
00100
00010
00100
00010
00100
00010
00100
00010
10000
00100
10000
00010
00100
00010
01000
,
00002
00003
00200
00000
00000
00300
00020
00000
00000
00030
02000
03000
00020
00030
00002
00003
,
00200
00300
20000
00000
00100
00000
00000
30000
00002
00000
00000
00000
00100
00000
00000
00003
,
20000
30000
00200
00000
00000
00300
00020
00000
00000
00030
00200
00000
00000
00300
00010
00000
,
00001
00100
00010
00001
00100
10000
00100
01000
10000
00100
00001
10000
00010
01000
00100
10000
,
00020
00030
00200
00000
00000
00300
00002
00000
00000
00003
20000
30000
00002
00003
00020
00030
,
00200
00300
02000
00000
00100
00000
00000
03000
00020
00000
00000
00000
00100
00000
00000
00030
,
02000
03000
00200
00000
00000
00300
20000
00000
00000
30000
00002
00000
00000
00003
00100
00000
,
00010
00100
00001
00010
00100
01000
00100
10000
00010
00000
00000
00000
00000
00000
00000
00000
,
01010
00000
00010
00000
00110
00000
01000
00000
00100
00000
10000
00000
10001
00000
00001
10000
,
00100
00000
01000
00010
00100
00001
10000
00000
10010
00000
10000
00000
00101
00000
00001
01000
,
00001
00100
00001
00000
10100
00000
00001
00000
00010
00100
01000
00010
00100
01000
10000
00001
,
00100
00010
01000
00100
10000
00010
00100
01000
00100
00010
01000
00100
00010
00001
00100
00010
,
10000
00000
10000
00000
10100
00000
00001
00000
00100
00000
00010
00000
01010
00000
01000
00010
,
00100
00000
00001
00100
00010
01000
00100
00000
10010
00000
00010
00000
01100
00000
01000
00001
,
01000
00100
01000
00000
00110
00000
01000
00000
10000
00100
00001
10000
00100
00001
00010
01000
,
00100
10000
00001
00100
00010
10000
00100
00001
00100
10000
00001
00100
10000
01000
00100
10000
,
00001
00000
00100
00000
01001
00000
10000
00000
00001
00000
00100
00000
01001
00000
10000
00010
,
01000
00000
00100
00000
01001
00000
00010
00000
01000
00000
00100
00000
01001
00000
00001
01000
,
00010
00000
00100
00000
10010
00000
01000
00000
00010
00000
00100
00000
10010
00000
01000
00001
,
10000
00000
00100
00000
10010
00000
00001
00000
10000
00000
00100
00000
10010
00000
00010
10000
,
00001
00000
00100
00000
01001
00000
10000
00000
00001
00000
00100
00000
01001
00000
10000
00010
,
01000
00000
00100
00000
01001
00000
00010
00000
01000
00000
00100
00000
01001
00000
00001
01000
,
00010
00000
00100
00000
10010
00000
01000
00000
00010
00000
00100
00000
10010
00000
01000
00001
,
10000
00000
00100
00000
10010
00000
00001
00000
10000
00000
00100
00000
10010
00000
00010
10000
,
00001
00000
00100
00001
00100
00010
01000
00100
01000
00010
00100
00001
00100
00010
01000
00100
,
01000
00010
10000
00100
10000
00010
00100
00001
01000
00100
10000
00100
10000
00010
00100
00001
,
01000
00100
00010
00001
01000
00100
00010
00001
10000
01000
00100
00010
10000
01000
00100
00010
,
00200
00300
00002
00003
02000
03000
00002
00003
00200
00300
00002
00003
02000
03000
00020
00030
,
10000
00000
00100
01000
00100
10000
00001
00100
00001
10000
00100
01000
00100
10000
00001
00100
,
00001
10000
00010
00100
00010
10000
00100
01000
00001
00100
00010
00100
00010
10000
00100
01000
,
00001
00100
10000
01000
00001
00100
10000
01000
00010
00001
00100
10000
00010
00001
00100
10000
,
00200
00300
02000
03000
00002
00003
02000
03000
00200
00300
02000
03000
00002
00003
20000
30000
,
00010
00100
00100
00010
00110
01000
00100
10000
,
00001
00000
00100
00000
00100
00000
00010
00100
01000
00000
01000
00100
00010
00000
01000
00000
,
01000
00000
00100
01000
00100
00000
01000
00000
01100
00000
00100
10000
00100
00000
01000
00000
,
00010
00000
00100
00000
00110
00000
01000
00100
10000
00000
00001
10000
00100
01000
00100
10000
,
00001
00010
00110
00100
01000
00100
10100
10000
,
00001
00000
00100
00000
00101
00000
00100
00010
00100
00010
01000
00100
10000
00100
01000
00001
,
10000
01000
01100
00100
00010
00100
00101
00001
,
10001
00000
10001
00000
10001
00000
10001
00000
00001
10000
00001
10000
00010
01000
00010
01000
,
00200
00300
20000
30000
00200
00300
00020
00000
00000
00000
00000
00000
00000
00030
00100
01000
,
00002
00000
00003
00200
00000
00300
00020
00030
02000
00000
00000
00000
00000
00000
00000
00000
,
00000
00000
00000
03000
00200
00300
02000
03000
00010
01000
00100
10000
01000
10000
00100
02000
,
00000
00000
00000
03000
00020
00030
00200
00300
00001
10000
00100
00001
00010
00100
01000
10000
,
00001
00100
00001
00100
00001
01000
00010
00100
00010
00000
10000
00000
10100
00000
00010
10000
,
00100
00000
01000
00010
00100
00010
00001
00100
10000
00000
00001
00000
00101
00000
01000
00000
,
00010
00000
00200
00300
01000
00000
00200
00300
00010
01000
00100
10000
00010
00100
01000
10000
,
00001
00100
00001
00100
00001
00000
10001
00000
00101
00000
00110
00000
01100
00000
10100
00000
,
10001
00000
00001
00100
00001
10000
00100
01000
00010
00000
00100
00010
00100
00000
00001
00100
,
00001
00000
10000
00100
10000
00000
00100
00000
01000
00000
00010
00100
00010
00100
00001
10000
,
00100
01000
00010
00000
00100
00010
01000
00000
00100
01000
00010
00100
00001
00010
00100
01000
,
00010
00100
00001
10000
00100
01000
00010
00100
00001
10000
00010
01000
00001
10000
00100
01000
,
00010
00100
00010
00100
00001
00010
00100
01000
00010
00100
00010
01000
00100
01000
00100
00010
,
00100
01000
00010
00100
00001
10000
00100
01000
00010
00100
00001
00010
00100
01000
00010
00100
,
01000
00100
00010
01000
00100
10000
00001
00100
10000
01000
00010
00100
00001
10000
00100
00001
,
00100
10000
00001
00010
00100
01000
10000
01000
00100
00000
10100
00000
10001
00000
00101
00000
,
10000
00001
00100
00010
00001
00100
10000
00001
00100
10000
01000
00100
10000
00010
00100
00001
,
00100
00010
01000
00100
10000
00100
01000
00100
10000
00010
00100
00001
00100
00010
00001
00010
,
00100
01000
00001
00100
10000
00010
01000
00100
01000
00010
00100
00001
10000
00100
01000
00010
,
10000
00000
00001
00000
10000
00000
00001
00000
01000
00000
00010
00000
01000
00000
00010
00000
00100
00000
00001
00000
00100
00000
00001
00000
10000
00010
00000
00000
00000
00000
00000
00000
,
02020
00000
00000
00000
,
00000
00000
00000
00000
00000
03030
00000
00000;

//---------------pump-single - ----------------
#NOTEDATA:;
#CHARTNAME:Vin.il;
#STEPSTYPE:pump-single;
#DESCRIPTION:;
#CHARTSTYLE:Pad;
#DIFFICULTY:Hard;
#METER:16;
#RADARVALUES:0.985,1.097,0.473,0.395,0.612,890,829,61,51,0,0,0,0,0,0.985,1.097,0.473,0.395,0.612,890,829,61,51,0,0,0,0,0;
#CREDIT:Vin.il;
#OFFSET:-0.090;
#BPMS:0=181.685;
#STOPS:;
#DELAYS:;
#WARPS:;
#TIMESIGNATURES:0=4=4;
#TICKCOUNTS:0=4
,384=8;
#COMBOS:0=1;
#SPEEDS:0=1=0=0
,46.979=0=0=0
,47=1=1=0;
#SCROLLS:0=1
,304=0.500
,318=1
,384=0.063;
#FAKES:;
#LABELS:0=Song Start;
#DISPLAYBPM:182;
#NOTES:
00000
00000
00000
00000
,
00000
00000
00000
00000
,
00000
00000
00000
00000
,
00000
00000
00000
00000
,
10000
00100
10100
00000
00001
00100
00010
01000
,
00001
00100
00101
00000
10000
00100
01000
00010
,
01000
00100
01100
00000
00010
00100
00001
10000
,
00010
00100
00000
00100
00010
01000
00200
00300
,
10000
00001
00101
00000
00001
00100
00010
00100
,
00001
10000
10100
00000
10000
00100
01000
00100
,
01000
00010
00110
00000
00010
00100
00001
00100
,
00110
00000
00010
00000
01010
00000
01000
00000
00100
10000
00100
10000
00002
00000
00003
00000
,
00001
00100
00001
10000
00000
00100
10000
00010
,
00100
00000
00001
00000
00000
00000
00001
00100
00001
00000
01000
00000
00010
00000
00100
00000
,
00010
00100
00010
10000
00000
00100
01000
00001
,
00100
00010
00000
00010
10000
00100
10000
00000
,
00001
00100
00001
10000
00100
01000
00010
00100
,
00001
00000
10000
00000
00000
00000
00100
01000
00100
00000
01000
00000
00001
00000
00100
00000
,
00010
00100
00010
01000
00100
10000
00001
00100
,
00010
00000
01000
00000
00100
00000
00010
00000
00001
00100
00001
00000
10000
00100
10000
00000
,
00010
00000
00100
00010
00100
00000
00001
00000
00100
00000
00001
00000
10000
00000
00100
00000
,
01000
00000
00010
00000
00000
00000
00100
00000
00001
00000
10000
00000
00100
01000
00100
01000
,
00001
00000
00100
00001
00100
00000
00010
00000
00100
00000
00010
00000
01000
00000
00100
00000
,
10000
00000
00001
00000
00000
00000
00100
00000
00010
00000
01000
00000
00100
10000
00100
10000
,
00001
00000
00100
00001
00100
00000
00010
00000
01000
00000
00100
10000
00100
00000
10000
00000
,
00001
00000
00100
00000
00000
00000
00010
00100
00010
00000
01000
00000
00100
00000
00100
00000
,
10000
00000
00100
10000
00100
00000
01000
00000
00010
00000
00100
00001
00100
00000
00010
00000
,
01000
00100
01000
00000
00010
00100
00010
00000
10000
00001
10000
00001
10000
00000
00000
00000
,
00100
00000
10000
00000
00100
00000
01000
00000
00001
00000
00100
00000
00010
00000
01000
00100
,
01000
00000
00000
00100
10000
00000
00001
00000
00100
00000
00001
00000
01000
00010
01000
00010
,
01000
00000
00100
00000
10000
00100
10000
00000
00010
00100
00001
10000
00010
00000
01000
00000
,
00100
10000
00010
01000
00001
00001
10000
10000
,
10001
00000
00001
00100
00010
00000
01000
00000
00100
00000
10000
00000
00001
00000
00100
00010
,
01000
00000
00000
00100
01000
00000
00010
00000
00100
00000
00001
00000
10000
00010
10000
00010
,
10000
00000
00000
00000
00100
00000
01000
00000
00001
00100
00001
00100
00001
00000
10000
00000
,
00100
01000
00010
00000
00100
00010
01000
00000
00100
10000
00100
10000
00001
00100
00001
00100
,
00010
00100
00010
02000
03000
00100
01000
10000
,
01000
00100
10000
00001
00100
00001
01001
00000
,
10010
20000
30000
00002
00003
00200
00300
00100
,
00010
01000
00010
01000
00100
00000
10000
00000
00001
00000
00100
00000
00010
01000
00010
01000
,
00001
00100
00001
20000
30000
00100
10000
01000
,
10000
00100
01000
00010
00100
00010
10010
00000
,
01001
02000
03000
00020
00030
00200
00300
00100
,
00001
10000
00001
10000
00010
01000
00010
01000
00100
00000
00000
10000
00000
00100
00000
01000
,
00001
00000
00100
00000
00001
00000
01001
00000
01000
00000
00010
00000
01010
00000
00010
01000
,
00100
00000
00000
10000
00100
00000
00100
00000
01001
00000
00001
00000
00100
00010
00100
00010
,
01000
00000
00000
00000
00100
00000
10000
00000
01000
00100
01000
00100
00010
00000
00100
00000
,
00001
00001
01001
01000
01010
00010
00110
00100
,
10001
00000
00001
00100
00001
00000
10000
00000
10010
00000
10000
00100
10000
00000
00001
00100
,
00001
00000
00000
00100
00010
00000
01000
00000
01010
00000
01000
00000
00100
10000
00100
10000
,
00001
00000
00000
00000
00100
00000
00001
00000
01000
00010
00100
00000
00001
00000
10000
00000
,
00010
00100
00010
00100
00010
00100
00010
00000
01000
00100
01000
00100
01000
00100
01000
00000
,
01010
00010
00110
00010
10010
00010
01010
00010
,
01010
01000
01100
01000
01001
01000
01010
01000
,
10001
10000
10100
10000
10010
10000
10001
10000
,
10001
00001
00101
00001
01001
00001
10001
00001
,
01001
00000
00001
01000
00001
00000
10000
00000
00001
00000
10000
00010
10000
00000
00010
00000
,
01000
00000
00001
00100
00001
00000
01000
00000
00010
00000
10000
00100
10000
00000
00010
00000
,
00100
00000
00001
01000
00100
00000
10000
00000
00010
00000
10000
00010
00100
00000
00001
00000
,
02000
03000
00002
00003
00200
00300
00002
00003
02000
03000
00200
00300
20000
30000
00020
00030
,
10000
00000
00100
01000
00100
01000
00100
01000
00100
00000
10000
00001
10000
00001
10000
00001
,
10000
00000
00010
00100
00010
00100
00010
00100
00010
00000
01000
00001
01000
00001
01000
00001
,
01000
00000
00010
10000
00010
10000
00010
10000
00010
00000
01000
00010
01000
00010
01000
00010
,
02000
03000
00002
00003
00200
00300
00020
00030
20000
30000
00200
00300
02000
03000
00002
00003
,
01000
00000
00100
10000
00100
10000
00100
10000
00100
00000
01000
00010
01000
00010
01000
00010
,
01000
00000
00001
00100
00001
00100
00001
00100
00001
00000
10000
00010
10000
00010
10000
00010
,
10000
00000
00001
01000
00001
01000
00001
01000
00001
00000
10000
00001
10000
00001
10000
00001
,
20000
30000
00020
00030
00200
00300
00002
00003
02000
03000
00200
00300
20000
30000
00020
00030
,
01000
00000
00100
00000
01100
00000
00100
01000
00001
00000
00100
00000
00001
00000
10000
00000
,
00100
00000
01000
00000
01000
00000
00010
00100
00001
00000
01000
00000
00100
00000
00100
00000
,
10000
00000
00100
00000
10100
00000
00100
10000
00010
00000
00100
00000
00001
00000
01000
00000
,
00001
00000
00100
00000
00100
00000
00010
01000
00100
00000
10000
00000
00001
00000
00001
00000
,
00100
00000
00010
00000
00110
00000
00010
00100
00001
00000
01000
00000
00100
00000
10000
00000
,
00100
00000
01000
00000
01000
00000
00010
00100
00001
00000
01000
00100
10000
00000
10000
00000
,
00010
00000
00100
00000
00101
00000
00001
01000
00100
00000
10000
00000
00100
00000
01000
00000
,
00010
00000
00110
00000
00100
00000
00110
00000
00010
01000
00100
01000
00010
00100
00010
01000
,
00100
00000
10000
00000
00100
00000
02000
00000
00000
00000
00000
00000
00000
03000
00000
00001
,
00100
00000
00000
00100
00000
00000
00010
00000
02000
00000
00000
00000
00000
00000
00000
00000
,
00000
00000
03000
00000
00100
00000
01000
00000
00010
00100
00010
00100
00001
01000
00100
20000
,
00000
00000
30000
00000
00010
00000
00100
00000
00001
00100
00001
00100
00010
10000
00010
10000
,
00100
00000
01000
00000
01001
00000
00001
00000
00100
00000
00010
00000
10010
00000
10000
00100
,
10000
00000
00001
00100
00001
00000
01000
00000
00020
00000
00000
00030
00100
00000
00000
00000
,
00002
00000
00000
00003
00100
00000
00010
00000
01000
00100
10000
00000
00010
00000
00200
00000
,
00000
00300
00001
00001
10100
10000
00101
00001
,
00100
00000
00001
00000
01001
00000
01000
00000
00100
00000
10000
00000
10010
00000
00010
00100
,
00010
00000
01000
00100
01000
00000
00001
00000
20000
00000
00000
30000
00100
00000
00000
00000
,
02000
00000
00000
03000
00100
00000
10000
00000
00001
00100
00010
00000
10000
00000
00100
00000
,
02000
00000
03000
00000
00010
00000
00100
00000
00010
00000
00000
01001
00000
01000
00001
01000
,
00001
00000
00100
00010
00100
00000
00001
00000
10000
00000
00100
01000
00100
00000
01000
00000
,
00010
00000
00100
00001
00100
00000
00010
00000
01000
00000
00100
10000
00100
00000
01000
00000
,
00002
00100
00000
00100
20003
00100
30020
00100
,
02030
00100
00000
00100
03020
00100
20030
00100
,
30001
00001
00101
00100
00110
00010
01010
01000
,
01100
00100
10100
10000
10010
00010
01010
01000
,
01001
00000
00001
01000
00001
00000
10000
00010
10000
00000
00010
01000
00010
00000
10000
00001
,
10000
00010
10000
00010
10000
00010
10000
00010
01000
00001
01000
00001
00100
00000
00000
00000
,
20002
00000
00000
00000
,
00000
00000
00000
00000
00000
30003
00000
00000;
