#VERSION:0.83;
#TITLE:SODA POP;
#SUBTITLE:;
#ARTIST:SAJA BOYS;
#TITLETRANSLIT:;
#SUBTITLETRANSLIT:;
#ARTISTTRANSLIT:;
#GENRE:K-POP DEMON HUNTERS;
#CREDIT:Sony & Netlfix & Republic;
#MUSIC:SODA POP.ogg;
#BANNER:SODA POP.png;
#BACKGROUND:BG.png;
#JACKET:SODA POP-jacket.png;
#TAGS:DMCA;
#CDTITLE:K-POP DEMON HUNTERS.png;
#SAMPLESTART:60.975;
#SAMPLELENGTH:15.000;
#SELECTABLE:YES;
#OFFSET:-0.023;
#BPMS:0.000=126.000
,96.000=63.000
,111.500=126.000
;
#STOPS:111.500=0.238;
#DISPLAYBPM:63.000:126.000;
#BGCHANGES:0.000=SODA POP.avi=0.000=0=0=0=StretchNoLoop====,
99999=-nosongbg-=1.000=0=0=0 // don't automatically add -songbackground-
;
#FGCHANGES:;

//--------------- dance-single - Wrland ----------------
#NOTEDATA:;
#CHARTSTYLE:Pad;
#CREDIT:Wrland;
#STEPSTYPE:dance-single;
#DESCRIPTION:Wrland;
#DIFFICULTY:Beginner;
#METER:3;
#RADARVALUES:0,0,0,0,0;
#NOTES:
0000
0000
0000
0000
,
0000
0000
0000
0000
,
0000
0000
0000
0000
,
0000
0000
0000
0000
,
0000
0000
0000
0000
,
0000
0000
0000
0000
,
0000
0000
0000
0000
,
0000
0000
0000
0000
,
0100
0000
0000
0000
,
0100
0000
0000
0000
,
0010
0000
0000
0000
,
0001
0000
0000
0000
,
1000
0000
0000
0000
,
0100
0000
0000
0000
,
0010
0000
0000
0000
,
0100
0000
0000
0000
,
0100
0000
0000
0000
,
0010
0000
0000
0000
,
0001
0000
0000
0000
,
0100
0000
0000
0000
,
0100
0000
0000
0000
,
1000
0000
0000
0000
,
0100
0000
0000
0000
,
0010
0000
0000
0000
,
2000
0000
0000
0000
,
3000
0000
0000
0000
,
0002
0000
0000
0000
,
0003
0000
0000
0000
,
1000
0000
0000
0000
,
0100
0000
0000
0000
,
0010
0000
0000
0000
,
0100
0000
0000
0000
,
0010
0000
0000
0000
,
0001
0000
0000
0000
,
1000
0000
0000
0000
,
0100
0000
0000
0000
,
0100
0000
0000
0000
,
0100
0000
0000
0000
,
0010
0000
0000
0000
,
0001
0000
0000
0000
,
1000
0000
0000
0000
,
1000
0000
0000
0000
,
0100
0000
0000
0000
,
0010
0000
0000
0000
,
0100
0000
0000
0000
,
0010
0000
0000
0000
,
0001
0000
0000
0000
,
0010
0000
0000
0000
,
0100
0000
0000
0000
,
1000
0000
0000
0000
,
0100
0000
0000
0000
,
0010
0000
0000
0000
,
0100
0000
0000
0000
,
0100
0000
0000
0000
,
0010
0000
0000
0000
,
0100
0000
0000
0000
,
2000
0000
0000
0000
,
3000
0000
0000
0000
,
2002
0000
0000
0000
,
3003
0000
0000
0000
,
0100
0000
0000
0000
,
0010
0000
0000
0000
,
0100
0000
0000
0000
,
0010
0000
0000
0000
,
0001
0000
0000
0000
,
1000
0000
0000
0000
,
0100
0000
0000
0000
,
0010
0000
0000
0000
,
0100
0000
0000
0000
,
0010
0000
0000
0000
,
0100
0000
0000
0000
,
0010
0000
0000
0000
;

//--------------- dance-single - Wrland ----------------
#NOTEDATA:;
#CHARTSTYLE:Pad;
#CREDIT:Wrland;
#STEPSTYPE:dance-single;
#DESCRIPTION:Wrland;
#DIFFICULTY:Easy;
#METER:6;
#RADARVALUES:0,0,0,0,0;
#NOTES:
0000
0000
0000
0000
,
0000
0000
0000
0000
,
0000
0000
0000
0000
,
0000
0000
0000
0000
,
0000
0000
0000
0000
,
0000
0000
0000
0000
,
0000
0000
0000
0000
,
0000
0000
0000
0000
,
0100
0000
0100
0000
,
0100
0000
0010
0000
,
0010
0000
1000
0000
,
0001
0000
0001
0000
,
1000
0000
0010
0000
,
0100
0000
1000
0000
,
0010
0000
0010
0000
,
0100
0000
0100
0000
,
0010
0000
0001
0000
,
0010
0000
0001
0000
,
0100
0000
1000
0000
,
0100
0000
1000
0000
,
0010
0000
0001
0000
,
1000
0000
0100
0000
,
0100
0000
0010
0000
,
0010
0000
0000
0000
,
2000
0000
0000
0000
,
3000
0000
0000
0000
,
0002
0000
0000
0000
,
0003
0000
0000
0000
,
1000
0000
0001
0000
,
0100
0000
1000
0000
,
1001
0000
0000
0000
,
0101
0000
0000
0000
,
0010
0000
0100
0000
,
0001
0000
0010
0000
,
1100
0000
0000
0000
,
0101
0000
0000
0000
,
0100
0000
0100
0000
,
0100
0000
0110
0000
,
0010
0000
0010
0000
,
0010
0000
0011
0000
,
1000
0000
0000
0000
,
1000
0000
0000
0000
,
0100
0000
0000
0000
,
0010
0000
0000
0000
,
0100
0000
0000
0000
,
0010
0000
0000
0000
,
0001
0000
0000
0000
,
0010
0000
0000
0000
,
0100
0000
0000
0000
,
1000
0000
0000
0000
,
0100
0000
0000
0000
,
0010
0000
0000
0000
,
0100
0000
0000
0000
,
0100
0000
0000
0000
,
0010
0000
0000
0000
,
0100
0000
0000
0000
,
2000
0000
0000
0000
,
3000
0000
0000
0000
,
2002
0000
0000
0000
,
3003
0000
0000
0000
,
0100
0000
0100
0000
,
0010
0000
0001
0000
,
0101
0000
0000
0000
,
1010
0000
0000
0000
,
0001
0000
0100
0000
,
1000
0000
0100
0000
,
0101
0000
0000
0000
,
1010
0000
0000
0000
,
0100
0000
0001
0000
,
0010
0000
0100
0000
,
0100
0000
0001
0000
,
0010
0000
1001
0000
;

//--------------- dance-single - Wrland ----------------
#NOTEDATA:;
#CHARTSTYLE:Pad;
#CREDIT:Wrland;
#STEPSTYPE:dance-single;
#DESCRIPTION:Wrland;
#DIFFICULTY:Medium;
#METER:8;
#RADARVALUES:0,0,0,0,0;
#NOTES:
0000
0000
0000
0000
,
0000
0000
0000
0000
,
0000
0000
0000
0000
,
0000
0000
0000
0000
,
0000
0000
0000
0000
,
0000
0000
0000
0000
,
0000
0000
0000
0000
,
0000
0000
0000
0000
,
0100
0010
0100
0010
,
0001
0000
0100
0001
0100
0000
0010
0000
,
0100
1000
0100
1000
,
0100
0100
0100
0000
0010
0010
0010
0000
,
0001
0100
0010
0100
,
0010
0000
0001
0100
0001
0000
0100
0000
,
0010
0100
1000
0100
,
1000
0100
0010
0001
,
0100
0000
0010
0000
0100
0010
0100
0000
,
1000
0000
0100
0000
1000
0100
1000
0000
,
0100
0000
0010
0000
0001
0100
0001
0000
,
0010
0000
0100
0000
1000
0100
1000
0000
,
0100
0000
0010
0000
0001
0100
0001
0000
,
0010
0000
0100
0010
0000
0000
1000
0100
,
0000
0100
0010
0001
1000
0001
1000
0000
,
0100
0010
0100
0010
0000
0000
0000
0000
,
0200
0000
0310
0000
,
0002
0000
1003
0000
,
2000
0000
3001
0000
,
0200
0000
0000
0000
0310
0000
0000
1001
,
0100
0000
0010
0000
0100
0010
0001
0000
,
0010
0000
0100
0000
0010
0001
0100
0000
,
MMMM
0000
0100
0010
0001
0100
0010
0000
,
0100
0000
0010
0001
0100
0000
0101
0000
,
0010
1000
0100
0010
0001
0000
0100
0000
,
0010
0000
0100
0010
0001
0000
0100
0000
,
MMMM
0000
0100
0010
0100
0010
0001
0000
,
0100
0000
0010
0100
0010
0000
1MM1
0000
,
0110
0000
1000
0000
0100
0010
0001
0000
,
1100
0000
0100
0000
0010
0100
0010
0000
,
0101
0000
0010
0100
1000
0000
0100
0000
,
0010
0001
0100
0001
1000
0000
1001
0000
,
0100
0000
0010
0001
0100
0000
0000
0000
,
0010
0000
0100
0010
0001
0000
0100
0000
,
0010
0000
0100
1000
0100
0000
0100
0000
,
0010
0000
0001
0100
0001
0000
0100
0000
,
0010
0000
0100
0100
0100
0000
1000
0000
,
0100
0000
0010
0010
0001
0000
0001
0000
,
0100
0000
0010
0100
0010
0000
0100
0000
,
1000
0000
0100
1000
0100
0000
0110
0000
,
0010
0000
0001
0100
0001
0000
0000
0000
,
0100
0000
1000
0100
1000
0000
0000
0000
,
0100
0000
0010
0100
0010
0000
0000
0000
,
0100
0000
0010
0001
0100
0000
0000
0000
,
0001
0000
0100
0001
0100
0000
0000
0000
,
0010
0000
0100
1000
0100
0000
0000
0000
,
0100
0000
0010
0100
0010
0000
0000
0000
,
0100
0000
0010
0001
0100
0000
0000
0000
,
2002
0000
0000
0000
,
3003
0000
0000
0000
,
2200
0000
0000
0000
,
3300
0000
0000
0000
,
0100
0000
0010
0100
0010
0000
0101
0000
,
0010
0000
1000
0100
0010
0000
0001
0000
,
MMMM
0000
0100
0010
0001
0100
0010
0000
,
0100
0000
1000
0100
0010
0000
0110
0000
,
1000
0100
1000
0100
1000
0000
0100
0000
,
0010
0000
0001
0100
0001
0000
0100
0000
,
MMMM
0000
0100
1000
0100
0010
0001
0000
,
1000
0000
0001
1000
0001
0000
1001
0000
,
0100
0000
0010
0001
0100
0000
0010
0000
,
0100
0000
1000
0100
1000
0000
0100
0000
,
0010
0000
0001
0100
0001
0100
0001
0000
,
0010
0000
0100
0010
0001
0100
0010
0000
;

//--------------- dance-single - Wrland ----------------
#NOTEDATA:;
#CHARTSTYLE:Pad;
#CREDIT:Wrland;
#STEPSTYPE:dance-single;
#DESCRIPTION:Wrland;
#DIFFICULTY:Hard;
#METER:13;
#RADARVALUES:0,0,0,0,0;
#NOTES:
0000
0000
0000
0000
,
0000
0000
0000
0000
,
0000
0000
0000
0000
,
0000
0000
0000
0000
,
1000
0000
0100
1000
0100
0000
0110
0110
,
0001
0000
1000
0100
0010
0101
0101
0101
,
0010
0000
0000
0000
1000
0000
0100
0000
1000
0000
0010
0100
0000
0000
0010
0000
,
0101
1100
0110
1001
0110
1001
0110
0000
,
0100
0010
0100
0010
0001
0100
0010
0100
,
2000
3000
0100
1000
0100
0000
0100
0010
,
0001
0100
0010
0001
0100
0010
0100
0010
,
0000
0100
1000
0100
0010
0100
0010
0001
,
0100
0000
0010
0100
0010
0001
0100
0000
,
0010
0100
1000
0200
0300
0001
0100
0010
,
0000
0100
0010
0001
0000
0100
1000
0100
,
0010
0001
0100
0010
0200
0000
1300
0000
,
0100
0010
0100
0010
0001
0100
0010
0000
,
0100
1000
0100
1000
0100
0010
0001
0000
,
0100
0010
0001
0000
0100
0010
1000
0000
,
0100
1000
0100
0000
0010
0001
0100
0000
,
1001
0000
1000
0100
0010
0001
0100
0001
,
0010
0100
1000
0100
0000
0010
0100
0010
,
0001
0000
0100
1000
0100
1000
0100
0010
,
0001
0100
0001
0000
1000
0100
1000
0000
0100
0000
0010
0000
0001
0000
0000
0000
,
0100
0000
0010
0000
0100
0000
0010
0000
0001
0100
0001
0100
0000
0000
0010
0000
,
0100
0000
1000
0000
0100
0000
1000
0000
0100
1000
0100
1000
0000
0100
0010
0100
,
0010
0000
0001
0000
0010
0100
1000
0000
0100
1000
0100
0010
0000
0001
0100
0001
,
0100
0000
0000
0000
0010
0000
0000
0000
0100
0000
0000
0000
0010
0000
0000
0000
0001
0000
1000
0001
1000
0000
0100
0000
0001
0000
0010
0000
1001
0000
0000
0000
,
0100
0010
0100
0010
0100
0000
0110
0000
,
0010
0001
0010
0001
0010
0000
0011
0000
,
1MM1
0000
1000
0100
1000
0100
0010
0000
,
0001
0000
0100
0001
0100
0000
0010
0000
1000
0000
0000
0000
0100
0000
0000
0000
,
0010
0001
0100
0010
0100
0000
1000
0000
,
0100
0010
0001
0100
0010
0000
0100
0010
,
1MM1
0000
0100
1000
0100
0010
0001
0000
,
1000
0000
0001
1000
0001
0000
1000
0000
0100
0000
0010
0000
1001
0000
0000
0000
,
0110
1001
1100
0110
,
0101
1010
0110
0101
,
0100
0000
0010
0000
0001
0000
0100
0000
0001
0000
0100
0001
0100
0000
0010
0000
,
1000
0000
0100
0001
1000
0000
0100
0000
0010
0000
0001
0000
1001
0000
0000
0000
,
1100
0000
0100
0010
0001
0000
0100
0010
,
0001
0000
1000
0010
0100
0000
0010
0001
0000
0000
0100
0000
0010
0000
0001
1000
,
0100
0000
0010
0001
1000
0000
1000
0000
0100
0001
0000
0000
0001
0000
0100
0000
,
0001
1000
0100
1000
0200
0000
0310
0000
,
0100
0100
0100
0000
1000
1000
1000
0000
,
0100
0010
0001
0100
0001
0000
0101
0000
,
0010
0100
1000
0000
0100
0010
0001
0000
,
0100
0000
0001
0000
0100
0000
0001
0100
0001
0000
0100
0000
1000
0000
0000
0000
,
1001
0000
0000
0100
0000
0000
1000
0000
0100
0000
0000
0000
1000
0000
0000
0000
,
0100
0000
0000
0100
0000
0000
0010
0000
0001
0000
0000
0000
0100
0000
0000
0000
,
0010
0000
0000
0010
0000
0000
0001
0000
0010
0000
0000
0000
0100
0000
0000
0000
,
1000
0000
0000
1000
0000
0000
0100
0000
1000
0000
0000
0000
0100
0000
0000
0000
,
0001
0000
0000
0001
0000
0000
0001
0000
0100
0000
0000
0000
0010
0000
0000
0000
,
0100
0000
0000
0100
0000
0000
0010
0000
0001
0000
0000
0000
0100
0000
0000
0000
,
1000
0000
0000
1000
0000
0000
0100
0000
1000
0000
0000
0000
0100
0000
0000
0000
,
0001
0000
0000
0001
0000
0000
0100
0000
0010
0000
0100
0000
0010
0000
0001
0000
,
0100
0000
0000
0010
0000
0000
0100
0000
0000
0000
1000
0000
0100
0000
0010
0000
,
2002
0000
0000
0000
3003
0000
0100
0010
0100
0000
0010
0000
0001
0000
0100
0000
,
0010
0000
0000
0001
0000
0000
0010
0000
0100
0000
1000
0000
0100
0000
0001
0000
,
2002
0000
0000
0000
0000
0000
0000
0000
0000
0000
0000
0000
0000
3003
0000
0000
,
0100
0010
0100
0010
0001
0000
1001
0000
,
0100
0000
1000
0000
0100
0000
0010
0100
0010
0000
0000
0000
0001
0000
1000
0000
,
1001
0000
0100
1000
0100
0010
0001
0000
,
0100
0000
0001
0100
0001
0000
0100
0000
0010
0000
0100
0000
1000
0000
0000
0000
,
1000
0100
0010
0001
0100
0000
0010
0000
,
0100
0000
1000
0000
0100
0000
1000
0100
1000
0000
0100
0000
0010
0000
0001
0000
,
0101
0000
0010
0100
1000
0100
0010
0000
,
0100
0000
0010
0100
0010
0000
0001
0000
0100
0000
0110
0000
1001
0000
0000
0000
,
1100
1100
1100
0000
0110
0110
0110
0000
,
0011
0000
0011
0000
0011
0000
0000
0000
0100
0000
0010
0001
0100
0000
0001
0000
,
0100
0000
0010
1000
0100
0010
0001
0000
,
0100
0000
0001
0100
0001
0000
0100
0000
0010
0000
1000
0000
0100
0000
0000
0000
;
