#VERSION:0.83 StepPrime;
#TITLE:Signal;
#SUBTITLE:;
#ARTIST:Twice;
#TITLETRANSLIT:;
#SUBTITLETRANSLIT:;
#ARTISTTRANSLIT:;
#CUSTOMBPM:-1;
#HEARTS:2;
#CATEGORY:KPOP;
#VOLUME:100;
#GENRE:;
#ORIGIN:;
#CREDIT:JYP;
#BANNER:Signal.png;
#BACKGROUND:Signal-bg.png;
#PREVIEWVID:Signal.avi;
#JACKET:;
#CDIMAGE:;
#DISCIMAGE:;
#LYRICSPATH:;
#CDTITLE:;
#MUSIC:Signal.mp3;
#OFFSET:1.734000;
#SAMPLESTART:74.420006;
#SAMPLELENGTH:11.541000;
#SELECTABLE:YES;
#DISPLAYBPM:208.000000;
#BPMS:0.000=103.973;
#STOPS:;
#DELAYS:;
#WARPS:;
#TIMESIGNATURES:0.000=4=4;
#TICKCOUNTS:0.000=3,
130.000=6,
132.000=3,
194.000=6;
#COMBOS:0.000=1;
#SPEEDS:0.000=1.000=0.000=0;
#SCROLLS:0.000=2.000;
#FAKES:;
#LABELS:0.000=Song Start;
#DIVISION:;
#BGCHANGES:0.000=Signal-bg.png=1.000=1=0=0=StretchNoLoop====,
3.500=Signal.avi=1.000=0=0=1=====,
99999=-nosongbg-=1.000=0=0=0 // don't automatically add -songbackground-
;
#KEYSOUNDS:;
#ATTACKS:
;

//---------------pump-single - ----------------
#NOTEDATA:;
#CHARTNAME:;
#STEPSTYPE:pump-single;
#DESCRIPTION:;
#LABELTYPE:UCS;
#PRELOADNOTESKIN:;
#SEPARATENOTES:NO;
#PLAYERS:1;
#QUESTDESC:;
#QUESTMODS:;
#QUESTBARINITIAL:500;
#QUESTBARMAX:1000;
#SHOWSKINSCORE:NO;
#RANDOMSKINLIST:;
#CHARTSTYLE:;
#DIFFICULTY:Easy;
#METER:4;
#RADARVALUES:0.198706,0.319851,0.139969,0.201205,0.000000,159.000000,143.000000,16.000000,23.000000,0.000000,0.000000,0.000000,0.000000,0.000000,0.198706,0.319851,0.139969,0.201205,0.000000,159.000000,143.000000,16.000000,23.000000,0.000000,0.000000,0.000000,0.000000,0.000000;
#CREDIT:JasperSteps;
#SPECIALDIVISION:;
#DISPLAYBPM:208.000000;
#DISPLAYPERSPECTIVE:PUMP;
#NOTES:
00000
00000
00000
00000
,
00000
00000
00000
00000
,
00000
00000
00000
00000
,
00100
00000
00000
00000
,
00000
00000
00000
00000
,
00100
00000
00000
00000
,
00100
00000
00000
00000
,
00100
00000
00000
00000
,
00100
00000
00000
00000
,
01000
00010
01000
00010
,
10000
00001
00200
00300
,
00010
01000
00010
01000
,
00001
10000
00200
00300
,
01000
00010
20000
30000
,
10001
00001
00200
00300
,
00100
00010
02000
03000
,
02020
00000
03030
00000
,
00001
00001
10000
10000
,
00001
10000
00200
00300
,
01000
00010
00200
00300
,
00001
10000
00200
00300
,
01000
01000
00010
00010
,
10000
00001
00200
00300
,
00010
01000
00200
00300
,
10000
00001
00200
00300
,
00020
00100
00100
00100
,
00100
00100
00100
00130
,
20000
00100
00100
00100
,
00100
00100
00100
30100
,
10000
10000
00001
00001
,
10000
10000
00010
00010
,
01000
00010
10000
00001
,
00100
00100
00200
00300
,
00010
00110
01000
01100
,
00110
01100
00110
01100
,
00001
00001
10000
10000
,
00001
00100
00010
01000
,
00100
00100
10000
10000
,
00101
10100
00101
10100
,
00001
00001
10000
10000
,
00010
01000
00100
10000
,
00010
00100
00010
01000
,
00001
00100
00020
00030
,
01000
00100
01000
00100
,
10000
00001
00200
00300
,
00010
00100
00002
00003
,
10001
10000
00200
00300
,
10100
00100
02000
03000
,
01010
00000
02020
03030
;

//---------------pump-single - ----------------
#NOTEDATA:;
#CHARTNAME:;
#STEPSTYPE:pump-single;
#DESCRIPTION:;
#LABELTYPE:UCS;
#PRELOADNOTESKIN:;
#SEPARATENOTES:NO;
#PLAYERS:1;
#QUESTDESC:;
#QUESTMODS:;
#QUESTBARINITIAL:500;
#QUESTBARMAX:1000;
#SHOWSKINSCORE:NO;
#RANDOMSKINLIST:;
#CHARTSTYLE:;
#DIFFICULTY:Hard;
#METER:15;
#RADARVALUES:0.689847,0.771579,0.883555,0.603616,0.000000,552.000000,451.000000,101.000000,69.000000,0.000000,2.000000,0.000000,0.000000,0.000000,0.689847,0.771579,0.883555,0.603616,0.000000,552.000000,451.000000,101.000000,69.000000,0.000000,2.000000,0.000000,0.000000,0.000000;
#CREDIT:JasperSteps;
#OFFSET:1.734000;
#BPMS:0.000000=207.945999
;
#STOPS:;
#DELAYS:;
#WARPS:;
#TIMESIGNATURES:0.000000=4=4
;
#TICKCOUNTS:0.000000=6
,391.000000=12
;
#COMBOS:0.000000=1
;
#SPEEDS:0.000000=1.000000=0.000000=0
;
#SCROLLS:0.000000=1.000000
,357.000000=0.500000
,360.000000=1.000000
,365.500000=0.500000
,366.500000=1.000000
,368.000000=0.500000
,368.500000=1.000000
,373.500000=0.500000
,374.500000=1.000000
,376.000000=0.500000
,376.500000=1.000000
,381.500000=0.500000
,382.500000=1.000000
,384.000000=0.500000
;
#FAKES:;
#DIVISION:;
#LABELS:0.000000=Song Start
;
#BRAINHELP:0.000000=BrainHelp ;
#SPECIALDIVISION:;
#DISPLAYBPM:208.000000;
#DISPLAYPERSPECTIVE:PUMP;
#NOTES:
// measure 0
00000
00000
00000
00000
,  // measure 1
00000
00000
00000
00000
,  // measure 2
00000
00000
00000
00000
,  // measure 3
00000
00000
00000
00100
,  // measure 4
10100
00000
10000
00020
00030
00000
00110
00000
,  // measure 5
01010
00000
02000
00200
03300
00000
00000
00000
,  // measure 6
02000
03000
00200
00300
20000
30000
00001
00000
,  // measure 7
00200
00300
00000
00110
,  // measure 8
10100
00000
20000
00002
30003
00000
10001
00000
,  // measure 9
00101
00000
00002
02000
03003
00000
01100
00000
,  // measure 10
00101
00000
00002
20000
30003
00000
10001
00000
,  // measure 11
10100
00000
20000
00020
30030
00000
00110
00000
,  // measure 12
10010
00000
20000
00200
30300
00000
10100
00000
,  // measure 13
10001
00000
20000
00002
30003
00000
10001
00000
,  // measure 14
00101
00000
00002
02000
03003
00000
01001
00000
,  // measure 15
01100
00000
02000
00020
03030
00000
00000
00000
,  // measure 16
00110
10100
00110
10100
,  // measure 17
20002
30003
00000
10100
,  // measure 18
10001
00000
00001
00100
00010
10000
00100
01000
,  // measure 19
00010
00000
00010
01000
00100
10000
00001
00100
,  // measure 20
00010
00110
01000
01100
,  // measure 21
00101
00001
10000
00100
,  // measure 22
01010
00000
01000
00100
10000
00010
00100
00001
,  // measure 23
10000
00000
10000
00001
00100
00010
01000
00100
,  // measure 24
10000
10100
00001
00101
,  // measure 25
02200
00300
00020
00000
03030
00000
00000
00000
,  // measure 26
00000
00000
00010
00100
00010
10000
00100
01000
,  // measure 27
00010
00000
00220
00300
00030
00000
00100
00002
,  // measure 28
00003
00000
00001
00100
00001
01000
00100
10000
,  // measure 29
00010
00000
00220
00030
00300
00000
00010
20000
,  // measure 30
30000
00000
10000
00100
01000
00100
10000
00001
,  // measure 31
00100
00000
00220
00330
00000
00000
00010
00000
,  // measure 32
01010
00000
01000
00100
00000
00000
01100
00000
,  // measure 33
01010
00000
00020
00200
00330
00000
00100
00000
,  // measure 34
00101
00101
00000
10000
,  // measure 35
10100
10100
00000
10000
,  // measure 36
00001
00000
00100
00000
00010
00000
01000
00010
,  // measure 37
00000
00010
00000
00100
00010
00000
01000
00100
,  // measure 38
10000
10100
10100
10001
,  // measure 39
00001
00000
00100
00000
00010
00000
01000
00010
,  // measure 40
00100
00110
00110
00110
,  // measure 41
00010
00000
01000
00100
10000
00001
00100
00010
,  // measure 42
01000
01100
00000
00010
,  // measure 43
00100
00000
00110
00000
00000
00000
00010
10000
,  // measure 44
00100
01000
00010
00110
,  // measure 45
00010
00000
01000
00000
00100
00000
10000
00001
,  // measure 46
00100
00100
00010
00010
,  // measure 47
01000
00000
00010
00000
10000
00000
00001
01000
,  // measure 48
00100
00100
10000
10000
,  // measure 49
00001
00100
00010
01000
00100
10000
00010
01000
,  // measure 50
00002
00000
00100
00000
00100
00000
00100
00003
,  // measure 51
20000
00000
00100
00000
00100
00000
00100
30000
,  // measure 52
00020
00000
00100
00000
00100
00000
00100
00030
,  // measure 53
02000
00000
00100
03000
00100
01000
00100
01000
,  // measure 54
00200
00300
20000
30000
00002
00003
00200
00300
,  // measure 55
00120
00000
00030
00000
00010
00100
00010
00100
,  // measure 56
00001
00101
10000
10100
,  // measure 57
00001
00100
00010
01000
00100
10000
00010
01000
,  // measure 58
00010
00110
01000
01100
,  // measure 59
00001
00101
10000
10100
,  // measure 60
00010
00110
01000
01100
,  // measure 61
00001
00000
00101
00000
00001
00100
00010
01000
,  // measure 62
00100
01100
10100
10001
,  // measure 63
00202
00300
00003
00000
10000
00100
01000
00010
,  // measure 64
00100
00001
10000
00010
,  // measure 65
01000
00010
01000
00010
10000
00001
20000
30000
,  // measure 66
00001
00100
00010
00100
00000
00110
00000
00000
,  // measure 67
00010
10000
00100
01000
00000
02200
00300
03000
,  // measure 68
00101
00101
00000
00000
10100
10100
00000
00000
,  // measure 69
00110
00110
00000
00000
01100
01100
00000
00000
,  // measure 70
00010
01000
00010
01000
00100
10000
00002
00003
,  // measure 71
00100
00001
00100
00001
10000
00100
01000
00010
,  // measure 72
00100
00010
01000
00100
01000
00001
00100
00001
,  // measure 73
10000
00100
01000
00010
01000
00000
01100
00000
,  // measure 74
01000
00100
10000
00100
00000
10100
00000
00000
,  // measure 75
10000
00010
00100
00001
00000
00202
00300
00003
,  // measure 76
01100
01100
00000
00000
00110
00110
00000
00000
,  // measure 77
10100
10100
00000
00000
00101
00101
00000
00000
,  // measure 78
10000
00001
10000
00001
00100
00010
02000
03000
,  // measure 79
00100
01000
00100
01000
00010
00100
00001
10000
,  // measure 80
00100
10000
00001
00100
00001
01000
00100
01000
,  // measure 81
00010
00100
00001
10000
00100
00000
10100
00000
,  // measure 82
10000
00100
01000
00010
00200
00300
00001
00100
,  // measure 83
00010
01000
00100
10000
00002
00003
00100
00010
,  // measure 84
10000
10100
00001
00101
,  // measure 85
20002
00000
30003
00001
,  // measure 86
10100
00000
10000
00100
01000
00010
00100
00001
,  // measure 87
20000
30000
00001
00100
00010
01000
00100
10000
,  // measure 88
00001
00101
10000
10100
,  // measure 89
20002
00000
30203
00300
00000
00000
00000
00000
,  // measure 90
00000
00000
10000
00001
00100
00010
10000
00100
,  // measure 91
01000
00000
01010
00000
00000
00000
00010
00100
,  // measure 92
00000
00000
00010
00100
00001
01000
00100
10000
,  // measure 93
00001
00000
00101
00000
00000
00000
00001
01000
,  // measure 94
00000
00000
01000
00100
10000
00010
00100
01000
,  // measure 95
10000
10100
00000
00100
,  // measure 96
01100
00000
02000
00020
03030
00000
01010
00000
,  // measure 97
00110
00000
00020
02000
00000
00000
00200
00000
,  // measure 98
03330
00000
00000
00000
;
