#TITLE:Sexy Back;
#SUBTITLE:;
#ARTIST:Justin Timberlake;
#TITLETRANSLIT:;
#SUBTITLETRANSLIT:;
#ARTISTTRANSLIT:;
#GENRE:;
#CREDIT:;
#BANNER:Sexy Back.png;
#BACKGROUND:Sexy Back-bg.png;
#LYRICSPATH:;
#CDTITLE:;
#MUSIC:Sexy Back.ogg;
#OFFSET:-1.859;
#SAMPLESTART:44.020;
#SAMPLELENGTH:12.000;
#SELECTABLE:YES;
#BPMS:0.000=131.010;
#STOPS:;
#BGCHANGES:0.000=songbackground=1.000=0=0=1=====,
3.847=Sexy Back.mp4=1.000=0=0=1=====,
220.000=songbackground=1.000=0=0=1=====,
99999=-nosongbg-=1.000=0=0=0 // don't automatically add -songbackground-
;
#KEYSOUNDS:;

//---------------dance-single - ----------------
#NOTES:
     dance-single:
     :
     Easy:
     3:
     0.225,0.211,0.058,0.193,0.000:
0000
0000
0000
0000
,
0000
0000
0000
0000
,
0000
0000
0000
0000
,
0010
0000
0001
0000
,
0100
0000
0001
0000
,
1000
0000
0100
0000
,
1000
0000
0010
0000
,
0100
0100
0000
0000
,
0001
0000
1000
0100
,
0010
0010
0000
0000
,
0010
0000
1000
0001
,
0100
0100
0000
0000
,
0001
0000
1000
0001
,
1000
1000
0000
0000
,
0010
0110
0000
0000
,
0100
0200
0000
0300
,
0000
0001
1000
0001
,
0010
0020
0000
0030
,
0000
1000
0010
0100
,
0001
0002
0000
0003
,
0000
1000
0001
0100
,
0010
0020
0000
0030
,
0000
1000
1001
0000
,
0200
0300
0001
0001
,
0020
0030
1000
1000
,
0200
0300
0001
0001
,
0020
0030
1000
1000
,
0002
0003
0100
0100
,
2000
3000
0010
0010
,
0002
0003
1000
1000
,
0020
0030
0100
0100
,
0002
0000
1000
1003
,
2000
0000
0010
3010
,
0020
0000
0100
0130
,
0200
0000
0001
0301
,
0002
0000
0010
0013
,
0020
0000
0100
0130
,
0200
0000
1000
1300
,
2000
0000
0001
3001
,
0100
0000
0001
0100
,
1000
0000
1000
0010
,
0001
0000
0010
0100
,
0010
0000
0010
0000
,
0001
0000
1000
0100
,
0010
0000
0001
1000
,
0010
0000
0110
0000
,
1000
0000
0001
0100
,
0110
0000
1000
0000
,
0100
0000
0010
0000
,
1001
0000
1000
0000
,
0001
0000
0100
0000
,
0010
1000
0100
0000
,
0010
0001
1000
0000
,
0001
0010
0100
0000
,
1000
0010
0001
1001
;

//---------------dance-single - ----------------
#NOTES:
     dance-single:
     :
     Medium:
     6:
     0.394,0.370,0.174,0.106,0.106:
0000
0000
0000
0000
,
0000
0000
0000
0000
,
0000
0000
0000
0000
,
1000
0000
0000
0100
0000
0000
0100
0000
0000
0000
0001
0000
0000
0001
0000
0000
,
0100
0000
0000
0010
0000
0000
0010
0000
0000
0000
0100
0000
0000
0100
0000
0000
,
0001
0000
0000
1000
0000
0000
1000
0000
0000
0000
0001
0000
0000
0001
0000
0000
,
0100
0000
0000
0010
0000
0000
0010
0000
0000
1000
0000
0000
0100
0000
0000
0000
,
0010
0001
0100
0000
0000
1001
0000
0000
,
0100
0000
0001
0000
1000
0000
0100
0001
,
0100
0010
1000
0000
0000
0110
0000
0000
,
0001
0000
1000
0000
0001
0000
0100
0010
,
1000
0100
0010
0000
0000
0011
0000
0000
,
0100
0000
0001
0000
0100
0000
0001
1000
,
0100
0010
0001
0000
0000
1010
0000
0000
,
0100
0000
0001
0010
0100
0000
1100
0000
,
0011
0200
0010
0310
,
1000
0000
0100
0000
0010
0001
0100
0000
,
0100
0010
2000
0000
0001
0000
3001
0000
,
0100
0000
0010
0000
1000
0100
0010
0000
,
0001
0100
0020
0000
1000
0000
1030
0000
,
0100
0000
0001
0000
1000
0010
0100
0000
,
0100
0001
2000
0000
0010
0000
3010
0000
,
0100
0000
0001
0010
0100
0000
1100
0000
,
0110
0000
0000
0001
0100
0001
0010
0010
,
2000
0000
3000
0010
0100
0001
0100
0100
,
0020
0000
0030
1000
0100
1000
0001
0001
,
0200
0000
0300
0010
1000
0010
0100
0100
,
0002
0000
0003
0010
0100
1000
1000
0010
,
0200
0000
0300
0001
1000
0100
0010
0010
,
0002
0000
0003
0100
0001
0100
0100
0010
,
2000
0000
3000
0100
1000
0010
0100
0100
,
0010
0000
0110
0000
0100
0001
0100
0000
,
1100
0000
1000
0000
0010
0001
0100
0000
,
0101
0000
0100
0000
0010
1000
0100
0000
,
1001
0000
0100
0000
0010
1000
0001
0000
,
0101
0000
1000
0000
0010
0100
1000
0000
,
0110
0000
0100
0000
0001
0010
0100
0000
,
1010
0000
0010
0000
0100
0001
0100
0000
,
0011
0000
0100
0000
0001
1000
0010
0000
,
0100
0000
0100
0000
0010
1000
0010
0000
,
0100
0000
0100
0000
0001
0010
0001
0000
,
0100
0000
0100
0000
1000
0001
1000
0000
,
0001
0000
0100
0000
,
0010
0000
0010
0000
1000
0100
1000
0000
,
0010
0000
0010
0000
0001
0100
0001
0000
,
0010
0000
0010
1000
0100
0000
0000
0000
,
0010
0000
0001
0000
1000
0100
1000
0000
,
0110
0000
0000
0100
0000
0001
0000
0000
,
1001
0000
0000
1000
0000
0000
0100
0000
0000
0000
0010
0000
0000
0010
0000
0000
,
0001
0000
0000
1000
0000
0000
0001
0000
0000
0000
0100
0000
0000
0100
0000
0000
,
0010
0000
0000
1000
0000
0000
0100
0000
0000
0000
0010
0000
0000
0010
0000
0000
,
0001
0000
0000
1000
0000
0000
0001
0000
0000
0000
1000
0000
0000
1000
0000
0000
,
0010
0000
0000
0100
0000
0000
0001
0000
0000
0000
0010
0000
0000
0010
0000
0000
,
0100
0000
0000
1000
0000
0000
0001
0000
0000
0000
1000
0000
0000
1000
0000
0000
,
0100
0000
0000
0010
0000
0000
0001
0000
0000
0100
0000
0000
0100
0000
0000
0000
;

//---------------dance-single - ----------------
#NOTES:
     dance-single:
     :
     Hard:
     9:
     0.572,0.530,0.164,0.125,0.260:
0000
0000
0000
0000
,
0000
0000
0000
0000
,
0000
0000
0000
0000
,
1000
0000
2000
0100
0000
0000
3100
0000
0000
0000
0001
0000
1000
0001
0000
0000
,
0100
0000
0200
0010
0000
0000
0310
0000
0000
0000
0001
0000
0010
0001
0000
0000
,
0010
0000
0020
0100
0000
0000
0130
0000
0000
0000
0010
0000
1000
0001
0000
0000
,
0100
0000
0200
0001
0000
0000
0301
0000
0000
0000
0010
0000
0100
0000
1000
0000
,
0010
0100
0001
0000
1000
1100
0000
0010
,
0000
0001
1000
0001
0100
0010
1000
0100
,
1000
0010
0100
0000
0001
0101
0000
0010
,
0000
1000
0001
0100
0001
0010
0100
1000
,
0001
0010
0100
0000
0010
1001
0000
0100
,
0000
0001
1000
0100
1000
0010
0001
0010
,
1000
0001
1000
0000
0010
0101
0000
0100
,
0010
0000
0000
0000
1000
0001
0100
0001
0010
0000
0000
0000
0110
0000
0100
0000
,
1000
0010
0200
0000
0301
1000
0001
0000
,
0110
1000
0100
1000
0001
0010
0100
1000
,
0010
0100
0002
0000
0013
0100
1000
0000
,
0101
1000
0010
0100
0001
0010
0100
0001
,
1000
0010
0200
0000
1300
0001
0100
0000
,
1001
0100
0001
0010
0100
1000
0010
0100
,
0001
1000
0200
0000
0310
0001
0100
0000
,
1010
0000
0000
0000
0100
0001
0010
0001
1000
0000
0000
0000
1100
0000
0100
0000
,
0010
0001
0000
0010
0000
0000
0100
0000
1000
0000
1000
0000
0010
0000
0100
0000
,
0001
0000
1000
0010
1000
0000
0100
0000
0010
0000
0010
0000
0001
0000
0100
0000
,
0010
1000
0000
0100
0000
0000
0010
0000
0001
0000
0001
0000
0100
0000
0010
0000
,
1000
0000
0001
0000
0100
0000
0010
0000
1000
0000
1000
0100
1000
0000
0100
0001
,
0100
0000
0010
0001
0000
0000
0100
0000
0010
0000
0010
0000
1000
0000
0001
0000
,
0010
0100
0010
0000
0001
0000
0100
0000
0010
0000
0010
0000
0100
0000
0001
0000
,
1000
0000
0100
0010
0000
0000
0001
0000
1000
0000
1000
0000
0010
0000
0100
0000
,
0001
1000
0100
1000
0000
0000
0010
0000
0100
0000
0100
0000
0001
0000
1000
0000
,
0100
0010
0001
1000
0100
0000
0010
0000
0100
0000
1000
0000
0010
0000
0010
0000
,
0100
0001
1000
0100
1000
0000
0010
0000
0100
0000
1000
0000
0100
0000
0100
0000
,
0001
0010
0100
0010
0001
0000
0100
0000
0010
0000
1000
0000
0001
0000
0001
0000
,
0010
0100
1000
0010
0100
0000
0001
0000
1000
0000
0100
0000
0001
0000
0001
0000
,
0100
1000
0001
0010
0100
0000
0001
0000
0100
0000
1000
0000
0010
0000
0010
0000
,
0100
0001
1000
0000
1000
0000
0010
0000
0100
0000
0001
0000
1000
0000
1000
0000
,
0010
0000
0100
0001
0000
0000
0010
0000
0100
0000
0001
0000
0100
0000
0100
0000
,
1000
0001
1000
0100
0000
0000
0010
0000
0001
0000
0100
0000
0010
0000
0010
0000
,
1100
0000
1000
0001
0100
0001
0010
0100
,
1000
0000
0001
0100
0001
0010
0100
1000
,
0010
0000
0100
0001
1000
0100
0001
0100
,
2000
0000
0000
0000
3001
0000
0002
0000
0000
0000
0103
0000
0000
0100
0000
0000
,
0010
0000
1000
0100
1000
0010
0100
0001
,
0010
0000
0001
0100
0010
1000
0100
1000
,
0001
0000
1000
0100
0010
0100
0011
0000
,
0100
0000
0010
1000
0001
0010
0100
1000
,
0110
0000
0000
0000
0100
0000
0001
0000
0000
0000
1000
0000
0000
0010
0000
0000
,
1001
0000
0000
0100
0000
0000
0100
0000
0000
0000
0010
0000
0000
1000
0000
0000
,
0101
0000
0000
0100
0000
0000
0010
0000
0000
0000
1000
0000
0100
1000
0000
0000
,
0001
0000
0000
1000
0000
0000
0100
0000
0000
0000
0010
0000
0001
0010
0000
0000
,
0001
0000
0002
1000
0000
0000
1003
0000
0000
0000
0100
0000
0010
0001
0000
0000
,
0100
0000
0200
0010
0000
0000
0310
0000
0000
0000
1000
0000
0010
0100
0000
0000
,
0001
0000
0002
0100
0000
0000
0103
0000
0000
0000
0001
0000
1000
0010
0000
0000
,
1000
0000
0000
0101
0000
0000
1000
0000
0000
0101
0000
0000
0001
0000
0001
1000
;

//---------------dance-single - ----------------
#NOTES:
     dance-single:
     :
     Beginner:
     1:
     0.138,0.132,0.058,0.000,0.000:
0000
0000
0000
0000
,
0000
0000
0000
0000
,
0000
0000
0000
0000
,
0010
0000
0001
0000
,
0100
0000
0001
0000
,
1000
0000
0100
0000
,
1000
0000
0010
0000
,
0100
0000
0000
0000
,
0001
0000
1000
0000
,
0010
0000
0000
0000
,
0010
0000
1000
0000
,
0100
0000
0000
0000
,
0001
0000
1000
0000
,
1000
0000
0000
0000
,
0000
0110
0000
0000
,
0100
0000
0000
0000
,
0000
0001
0000
0001
,
0000
0010
0000
0000
,
0000
1000
0000
0100
,
0000
0001
0000
0000
,
0000
1000
0000
0100
,
0000
0010
0000
0000
,
0000
0000
1001
0000
,
0100
0000
0001
0000
,
0010
0000
1000
0000
,
0100
0000
0001
0000
,
0010
0000
1000
0000
,
0001
0000
0100
0000
,
1000
0000
0010
0000
,
0001
0000
1000
0000
,
0010
0000
0100
0000
,
0001
0000
1000
0000
,
1000
0000
0010
0000
,
0010
0000
0100
0000
,
0100
0000
0001
0000
,
0001
0000
0010
0000
,
0010
0000
0100
0000
,
0100
0000
1000
0000
,
1000
0000
0001
0000
,
0100
0000
0001
0000
,
1000
0000
1000
0000
,
0001
0000
0010
0000
,
0010
0000
0010
0000
,
0001
0000
1000
0000
,
0010
0000
0001
0000
,
0010
0000
0110
0000
,
1000
0000
0001
0000
,
0110
0000
1000
0000
,
0100
0000
0010
0000
,
1001
0000
1000
0000
,
0001
0000
0100
0000
,
0010
0000
0100
0000
,
0010
0000
1000
0000
,
0001
0000
0100
0000
,
1000
0000
0000
1001
;
