#TITLE:+Danshi;
#SUBTITLE:;
#ARTIST:Giga-P feat. Kagamine Len & Girls;
#TITLETRANSLIT:;
#SUBTITLETRANSLIT:;
#ARTISTTRANSLIT:;
#GENRE:;
#CREDIT:;
#BANNER:Plus Danshi - bn.png;
#BACKGROUND:Plus Danshi - bg.png;
#LYRICSPATH:;
#CDTITLE:gpopcdtitle.png;
#MUSIC:+Danshi.ogg;
#OFFSET:0.681;
#SAMPLESTART:56.166;
#SAMPLELENGTH:21.334;
#SELECTABLE:YES;
#DISPLAYBPM:180.000;
#BPMS:0.000=90.000,20.000=180.000,51.000=270.000,52.000=180.000,54.500=270.000,56.000=180.000,148.000=270.000,150.000=180.000,180.000=360.000,180.500=180.000,180.750=90.000,181.000=180.000,245.000=360.000,246.000=180.000,310.000=90.000,314.000=180.000,344.000=360.000,344.500=180.000,344.750=90.000,345.000=180.000,384.500=270.000,386.000=180.000;
#STOPS:51.000=0.028
,51.250=0.028
,51.500=0.028
,51.750=0.028
,54.500=0.056
,55.000=0.056
,55.500=0.056
,148.000=0.722
,148.500=0.056
,149.000=0.056
,149.500=0.056
,245.000=0.167
,384.500=0.056
,385.000=0.056
,385.500=0.056
;
#BGCHANGES:;
#KEYSOUNDS:;

//---------------dance-single - Gpop----------------
#NOTES:
     dance-single:
     Gpop:
     Challenge:
     10:
     0.848,0.922,0.333,0.578,0.395:
0000
0000
0000
0000
,
0000
0000
0000
0000
,
0000
0000
0000
0000
,
0000
0000
0000
0000
,
0000
0000
0000
0000
,
0110
0000
1001
0000
0010
0010
1001
0000
,
1100
0000
1000
0001
0100
0000
0010
1000
0010
0000
0100
0000
0000
0000
0001
0000
,
0010
0000
0100
1000
0100
0000
0010
0000
0001
0000
0100
0000
0010
0000
1000
0000
,
0002
0000
0003
0000
2000
0000
3010
0100
0010
1000
0001
0000
0000
0000
1000
0100
,
0010
0000
0000
0000
0000
0000
0002
0000
0000
0000
0000
0000
0003
0000
0000
0000
0000
0000
1000
0000
0000
0000
0000
0000
0001
0000
0000
0100
0000
0000
0010
0000
0000
1000
0000
0000
0001
0000
0000
0000
0000
0000
0000
0000
1000
0000
0100
0000
,
1000
0000
0001
1000
0100
0000
1000
0001
0100
0000
0010
0000
0000
0000
1000
0000
,
0001
0000
0010
0001
1000
0000
0010
0000
0100
0000
0010
0000
1000
0000
0001
0000
,
0010
0000
0000
0000
0210
0000
2300
0000
3020
0000
0430
0000
0301
1000
0001
1000
,
0001
0010
0100
0100
1000
0001
0001
0001
,
0101
0000
0100
0010
1000
0000
0001
0000
0010
0000
0100
0000
1000
0000
1000
0000
,
0001
1000
0010
1000
0100
0010
0001
1000
,
0010
0100
0010
0100
0001
0010
0100
1000
,
0001
0000
1000
0000
0020
0000
0000
0000
2030
0000
0000
3100
0040
0000
0000
0000
,
0032
0000
0000
1003
0001
0000
1000
0000
0010
0000
0100
0001
0100
0010
1000
0001
,
1000
0100
0010
0100
1000
0010
0100
0001
,
0012
1003
0012
1003
0012
1003
1000
0010
,
0100
0001
1000
0000
0001
0000
0100
0000
0010
0000
1000
0100
0010
0000
0001
0000
,
2000
3010
0100
0010
1000
0001
0010
0100
,
1000
0100
0010
0001
1000
0010
0100
0001
,
1000
0000
1000
0000
0100
0000
1000
0000
0010
0100
0010
1000
0001
0000
0000
1000
,
0100
0010
0000
0001
0100
0010
1000
0000
0002
0000
1000
0000
1003
0000
0100
0000
,
0010
0001
0000
0001
2000
3010
2000
3100
,
0010
0000
0001
1000
0000
0000
0010
0000
0200
0000
0301
0000
0200
0000
0310
0000
,
1000
0001
0010
0100
0000
0010
0001
1000
0001
0100
0000
0010
1000
0001
1000
0000
,
0100
0010
0001
1000
0010
0000
0100
0001
1000
0100
0010
0001
1000
0000
0010
0000
,
2020
0000
0000
0000
,
3030
0000
0000
0000
0000
0000
0000
0000
0000
0000
0M00
0000
0000
0M00
0000
0000
,
000M
0000
0000
00M0
0000
M000
000M
0000
0000
0000
0000
0000
0000
00M0
0000
0000
,
M00M
0000
0M00
00M0
0000
M000
0000
0000
000M
0000
0000
00M0
0M00
000M
M000
0000
,
0MM0
0000
000M
0000
0000
0000
0000
0000
M000
0000
0000
0000
0000
0000
0000
0000
000M
0000
0000
0000
00M0
0000
0000
0000
0M00
000M
0000
0000
0000
0000
M0M0
0000
,
0000
0000
0M00
0000
0000
0000
0000
00M0
0000
0000
000M
0000
M000
0000
00M0
0000
,
0M00
000M
M000
0000
0000
0000
0000
0000
0000
0000
0000
0000
0000
0000
0000
0000
,
1001
00M0
00M0
00M0
11M0
0000
1001
0001
,
0200
0000
0000
0301
1000
0000
0001
0000
0020
0000
0000
0130
1000
0000
0001
0000
,
0100
0000
1000
0000
0100
0000
0001
0000
1000
0000
0001
0100
0001
0000
1000
0100
,
1000
0010
0100
0002
0000
0103
0010
1000
,
0100
0010
0001
1000
0010
0020
0100
0230
,
0001
0302
1000
1003
0100
0010
0000
0012
,
0000
1003
0010
1000
0001
0010
10M0
0001
,
0010
10M0
0001
0100
1M00
0001
0100
1M00
,
0020
0000
0000
0030
2001
0000
0000
3000
0012
0000
0000
0000
1003
0000
0012
0000
,
0000
1003
0010
0100
0201
0000
0310
0201
,
0000
0310
1000
0100
2100
0000
3001
2100
,
0000
3001
0100
0010
100M
01M0
0M01
10M0
,
0M01
0000
01M0
0000
200M
0000
0000
0000
3010
0000
0000
0100
0001
0000
1000
0000
,
1100
0000
0000
0100
0010
0000
0001
0000
0011
0000
0000
0010
0100
0000
1000
0000
,
0001
0100
1000
0100
0010
0010
1000
1000
,
0001
0010
0100
2000
0000
3001
0100
0010
,
0100
0000
0001
0000
0010
0000
0100
0000
1100
0000
0000
0000
1000
0000
0001
0100
,
0010
0000
0000
0000
1000
0000
0100
0010
0001
0000
1000
0010
0100
0000
0001
0000
,
1000
0000
0100
1000
0100
0000
1000
0000
1010
0000
0000
0000
0010
0000
0100
0001
,
1000
0000
0000
0000
0100
0000
0010
0001
1000
0000
M010
0100
0001
0000
20M0
0000
,
0M00
0000
3001
0000
20M0
0000
0000
0000
3010
0000
0000
0000
0100
0000
0001
0010
,
0100
0000
0000
0000
1000
0000
0001
0100
0010
0000
0100
0010
1000
0000
0001
0000
,
0010
0000
0100
1000
0001
0000
1000
0000
1010
0000
0000
0000
0010
0000
1000
0001
,
0010
0100
1000
0001
0100
0010
1000
0001
,
0020
0000
0130
0000
1001
1000
0100
0010
,
0002
0000
1003
0000
0002
0000
1003
0000
1010
0000
0010
0000
0100
0000
0001
1000
,
0100
0010
0100
0000
0010
0000
0001
1000
0001
0000
0100
0000
0010
0000
1000
0000
,
0200
0000
0310
0000
0200
0000
0310
0000
0001
1000
0001
0000
0100
0000
0010
1000
,
0001
0000
0010
0000
0100
1000
0100
1000
0100
0010
0001
0000
1000
0000
0010
0000
,
0200
0000
0301
0000
0200
0000
0301
0000
1000
0100
0010
0000
0001
0000
0100
0000
,
0010
1000
0001
0000
1000
0000
0100
0000
1000
0010
0100
0000
0101
0000
0001
0000
,
2000
3100
2000
3100
1000
1000
1000
1000
,
2000
0000
3001
0000
0101
0000
0000
0000
1010
0000
1000
0010
1000
0010
1000
0010
,
0100
0001
0010
0100
1000
0001
1000
0100
,
0010
0011
0002
1003
,
1010
0000
1000
0100
0010
0100
1000
0001
,
0100
00M0
00M0
0000
0001
0010
0100
2000
,
0010
0001
0010
3001
1000
0010
0000
0200
,
0001
0010
0302
0000
2003
0000
3200
0000
,
1300
0010
0200
0000
0301
0010
0100
1000
,
0001
1000
0020
0000
203M
0200
0020
0002
,
0000
0000
0000
0000
3333
0000
0000
0000
2MM1
0000
0000
3010
0100
0000
0001
0000
,
0020
0000
0000
0130
1000
0000
0001
0000
2000
0000
0000
3010
0100
0000
0001
0000
,
0010
0000
1000
0000
0010
0000
0001
0000
0100
0000
0010
1000
0010
0000
0100
0001
,
0100
0001
1000
0200
0000
1300
0010
0100
,
0001
0010
0100
1000
0001
0002
1000
2003
,
0010
3020
0100
0130
0001
1000
0000
1200
,
0000
0310
0001
1000
00M1
0100
1000
0M01
,
0010
1000
0M01
0010
1000
00M1
0100
1000
,
0020
0000
0000
0030
1002
0000
0000
0003
2100
0000
0000
0000
3001
0000
2100
0000
,
0000
3001
0100
0010
1020
0000
0130
1020
,
0000
0130
0001
0010
0012
0000
0103
0012
,
0000
0103
0010
0100
M001
0M10
10M0
0M01
,
10M0
0000
0M10
0000
M002
0000
0000
0000
1003
0000
0000
0010
0100
0000
0001
0000
,
0011
0000
0000
0010
0100
0000
1000
0000
1010
0000
0000
0010
1000
0000
0001
0000
,
0010
0100
1000
0000
0001
0000
1000
0000
0010
0000
0010
0000
0100
0000
0100
0000
,
0001
1000
0100
0000
0010
0000
0002
0000
0000
0000
1003
0000
0010
0000
1000
0000
,
0100
0010
0001
0100
0110
0010
2000
0000
,
3001
0000
0010
0100
2000
0000
0000
0000
3001
0000
0100
0010
1000
0000
0001
0000
,
0010
0000
0100
0000
0100
0000
0100
0000
1100
0000
1000
0010
0100
0000
0001
0100
,
0010
0000
1000
0000
0000
0000
0002
0000
0013
0000
0100
0010
0001
0000
1000
0000
,
0010
0000
0100
0000
0010
0000
1000
0000
1001
0000
0000
0000
0001
0100
0010
1000
,
0001
0000
0010
0000
0000
0000
0100
1000
0001
0000
0100
0010
0000
0000
1000
0000
,
0001
0000
0000
0010
0000
0000
0001
0000
0000
0010
0000
0000
0100
0000
0000
0000
0000
0000
0000
0000
1000
0000
0001
0000
1000
0000
0000
0000
0000
0000
0000
0000
0000
0000
0000
0000
1010
0000
0000
0000
0000
0000
0010
0000
0000
0100
0000
0000
,
0001
0000
1000
0000
0000
0000
0100
0000
1000
0000
0001
0100
0010
0000
1000
0000
,
0100
0000
0000
0010
0000
0000
0100
0000
0000
1000
0000
0000
0002
0000
0000
0000
0000
0000
0103
0000
0010
0000
1000
0000
,
0001
0010
0200
0000
0000
0000
1300
0000
1100
0000
0001
0000
0100
0000
0100
0000
,
0020
1030
0000
0000
;

//---------------dance-single - Gpop----------------
#NOTES:
     dance-single:
     Gpop:
     Hard:
     8:
     0.635,0.603,0.340,0.265,0.020:
0000
0000
0000
0000
,
0000
0000
0000
0000
,
0000
0000
0000
0000
,
0000
0000
0000
0000
,
0000
0000
0000
0000
,
1001
0000
1001
0000
1000
0001
0110
0000
,
1001
0000
1100
0000
0100
0010
0000
0001
,
1000
0010
1000
0010
0100
0001
0010
0100
,
1000
0000
1001
0001
0010
0100
0000
0010
,
0001
0000
1000
0000
0000
0000
0010
0000
0400
0004
0000
0000
0303
0000
0000
0000
,
1001
0000
1010
0000
1000
0100
0000
0010
,
0001
1000
0010
1000
0100
0010
0001
0100
,
0010
0000
1000
0000
0001
0010
0400
0000
,
1300
000M
0M00
0M00
00M0
0001
0001
0001
,
1001
0000
1000
0000
0010
0100
0001
0010
,
0100
1000
0100
1000
0001
0100
0010
0100
,
0001
0010
0100
1000
0001
1000
0100
0010
,
0001
1000
0020
0000
2030
0000
3400
0000
,
0310
0000
0000
0001
1000
0000
0001
0000
1000
0000
0010
0000
0100
0000
0001
0000
,
0010
0100
0010
0100
1000
0001
1000
0001
,
0100
0100
0010
0010
0100
0001
1000
0100
,
0010
0001
1000
0010
1000
0001
0010
0100
,
2000
0000
3001
0100
0001
1000
0100
1000
,
0010
0100
0010
1000
0001
0010
0100
1000
,
0001
1000
0100
0010
0001
0100
0010
0000
,
1000
0100
1000
0001
0200
0000
0310
1000
,
0001
0010
0000
0100
1000
1000
0001
0001
,
0100
0000
0000
0100
0000
0000
0010
0000
1000
0000
1000
0000
0001
0000
0001
0000
,
1000
0100
0010
0100
1000
0010
0100
0001
,
1000
0001
0100
0001
0010
0100
1000
0001
,
2002
0000
0000
0000
,
3003
0000
0000
0000
,
0000
0000
0000
0000
,
0000
0000
0000
0000
,
0000
0000
0000
0000
,
0000
0000
0000
0000
,
0000
0000
0000
0000
,
1001
0M00
0M00
0M00
0M11
0000
0001
1000
,
0010
0000
1000
0001
0010
0000
0100
1000
,
0010
0100
0001
0010
0100
0010
0100
1000
,
0001
1000
0001
0200
0000
0310
1000
0010
,
0100
0001
0010
0100
1000
0001
1000
0001
,
1000
0001
1000
0001
0100
0010
0000
2010
,
0000
3001
0010
0100
1000
0001
0001
0100
,
0001
0001
0010
0001
0001
1000
0001
0001
,
0100
0000
2001
0000
3020
0000
1030
0020
,
0000
0130
0001
0010
0200
0000
1300
0200
,
0000
1300
0010
0100
0002
0000
1003
0002
,
0000
1003
0100
1000
0001
1000
0100
0001
,
0100
1000
0002
0000
0103
0000
0010
1000
,
1010
0000
0001
0010
0011
0000
0001
1000
,
1001
0000
0001
0000
0100
0010
1000
0001
,
1000
0100
0010
0002
0000
0013
0100
1000
,
0010
0100
0001
1000
1010
0000
0010
0100
,
0001
0000
1000
0100
0010
0000
0001
1000
,
0010
1000
0100
1000
0001
0000
0100
0010
,
1000
0000
0010
0100
0000
0101
0000
0001
,
1000
0000
1200
0000
0310
0000
0001
1000
,
0010
0000
0100
0001
0010
0000
0100
1000
,
0100
0010
0001
1000
0001
0000
0100
0010
,
1000
0000
0010
0100
0002
0000
1003
0100
,
2000
3001
1001
1000
,
0101
0000
0101
0000
0011
0000
0010
0100
,
1000
1000
0001
0000
0101
0000
0100
0000
,
1010
0000
1010
0000
1000
1000
0000
0000
,
0101
0000
0001
0001
0010
0010
0000
0000
,
1100
0000
1100
0000
0010
0010
0000
0000
,
0100
0100
0000
0000
0010
0010
1001
0000
,
0110
0000
0110
0000
1000
0001
1000
0001
,
1000
0000
0000
0000
1100
0000
0000
0000
0011
0000
0004
4000
0000
0000
0000
0000
,
3003
0000
1000
0010
0100
0001
0010
0100
,
1000
1100
0100
0010
,
0001
0000
1000
0010
0100
0010
1000
0001
,
0010
0000
0110
0000
0100
1000
0001
0100
,
00M0
M000
00M0
M000
0001
0100
0000
0001
,
00M0
0M00
000M
0000
2000
0000
3002
0000
,
0103
0010
2000
0000
300M
00M0
0M00
M000
,
0M00
00M0
000M
0000
10M2
0100
0010
2000
,
0000
0000
3003
0000
1001
0000
1000
0100
,
0010
0000
0001
0010
0100
0000
1000
0010
,
0100
0001
0100
0010
1000
0001
1000
0100
,
0010
0100
0010
0002
0000
0103
0010
0100
,
0001
0010
0100
1000
0010
0100
0010
0100
,
0010
0100
0010
0100
0001
0010
0000
0210
,
0000
1300
0001
0100
0010
1000
1000
0001
,
1000
1000
0100
1000
1000
0001
1000
1000
,
0010
0000
1002
0000
0203
0000
0310
0200
,
0000
0301
1000
0100
0020
0000
0031
0020
,
0000
0130
1000
0001
2000
0000
3010
2000
,
0000
3001
0010
0100
1000
0001
0010
1000
,
0010
0001
2000
0000
3010
0000
0100
0001
,
0011
0000
0010
0100
1100
0000
1000
0001
,
0101
0000
0100
0000
0010
1000
0010
1000
,
0001
0010
0100
2000
0000
3100
0010
0001
,
0100
0010
1000
0001
1001
0000
1000
0000
,
0100
0010
0001
0000
1000
0010
0100
0001
,
0010
0100
0100
0100
1100
0000
1001
0000
,
0001
0100
0000
0010
1000
0001
1000
0100
,
0010
0001
1000
0001
0100
0000
0110
0000
,
0010
0000
1000
0000
0000
0000
0001
0000
0010
0000
0000
0010
0000
0000
0100
0000
,
4000
0004
0000
0000
3003
0000
0000
0000
1010
0000
0000
0000
0101
0000
0000
0000
,
0001
0010
0000
0100
0010
0001
1000
0010
,
1000
0100
0010
0001
2000
0000
3004
0000
,
0000
0203
0000
0310
1000
000M
00M0
0M00
,
M002
1003
0000
0000
;

//---------------dance-single - Gpop----------------
#NOTES:
     dance-single:
     Gpop:
     Medium:
     6:
     0.481,0.567,0.354,0.184,0.000:
0000
0000
0000
0000
,
0000
0000
0000
0000
,
0000
0000
0000
0000
,
0000
0000
0000
0000
,
0000
0000
0000
0000
,
1001
0000
1001
0000
1000
0001
0200
0000
,
0310
0000
1010
0000
1000
0001
0000
0001
,
0010
0000
0100
0000
1000
0010
0100
0000
,
0001
0000
0101
0000
0100
0010
0000
1000
,
0001
0010
0000
0100
1000
0000
0001
0000
,
1000
0000
1100
0000
0100
0010
0000
0001
,
0100
0000
0010
0000
1000
0001
1000
0000
,
0100
0000
0010
0000
0001
1000
0004
0000
,
1003
0000
0000
0000
0000
0M00
0M00
0M00
,
1001
0000
1000
0000
0100
0010
0001
0000
,
1000
0000
0010
0000
0100
0001
1000
0000
,
0100
0010
0001
0000
0100
0000
0010
0000
,
1000
0010
0200
0000
0301
0000
1000
0000
,
0001
0000
0010
0001
0010
0000
0100
0000
,
1000
0000
0010
0000
0100
0001
1000
0000
,
0001
0010
0001
0010
0001
1000
0001
0000
,
0100
0000
0010
0000
1000
0001
1000
0001
,
0010
0000
0100
0000
1000
0000
0100
1000
,
0001
0000
0100
0000
0010
0000
1000
0100
,
0010
0000
0001
0000
0010
0100
1000
0000
,
0010
0000
0100
0010
2000
0000
3001
0000
,
0010
0100
0000
0100
1000
0000
0001
0000
,
1000
0001
0000
0001
0200
0000
0320
0000
,
1030
0001
0010
0100
,
1000
0100
0010
0001
,
2002
0000
0000
0000
,
3003
0000
0000
0000
,
0000
0000
0000
0000
,
0000
0000
0000
0000
,
0000
0000
0000
0000
,
0000
0000
0000
0000
,
0000
0000
0000
0000
,
0100
0000
0000
0000
1001
0000
1000
0100
,
0010
0000
0100
0010
0001
0000
1000
0010
,
0100
0001
0010
0100
,
1000
0000
0001
0100
0000
0100
0010
0000
,
1000
0001
1000
0000
1100
0000
0011
0000
,
1100
0000
0011
0000
0001
1000
0000
0020
,
0000
0000
1030
0000
0001
0100
0000
0100
,
0010
0000
0010
1000
0000
1000
0001
0000
,
0101
0000
1010
0000
2001
0000
3010
0020
,
0000
0100
0130
0000
0002
0000
0010
0023
,
0000
0100
0130
0000
2000
0000
0001
3002
,
0000
0100
0103
0000
0010
1000
0010
1000
,
0001
0010
0100
0000
1100
0000
1000
0001
,
1000
0000
0001
0100
0001
0000
1000
0100
,
1000
0010
0100
0001
,
0010
0000
0100
1000
0000
1000
0001
0000
,
1000
0001
0101
0000
,
1001
0000
1100
0100
,
0110
0000
0011
0000
,
1001
0000
1010
0010
,
0110
0100
0101
0000
,
0011
0000
0110
0100
,
1100
0000
1001
0000
,
0110
0000
1001
0010
,
1100
0MM0
1001
1000
,
0010
0010
0110
0100
,
0001
1000
0000
0000
0011
0000
0010
0000
,
0100
0000
0100
0000
1000
0001
0000
0000
,
1001
0000
1000
0000
0010
0100
0000
0000
,
0010
0000
0010
0000
1000
0001
0000
0000
,
1000
0001
0000
0000
1000
0001
0010
0000
,
0100
0000
0100
0000
1000
0001
1000
0001
,
1000
1001
0101
0100
,
0010
0000
1000
0000
0100
0010
0100
0010
,
0001
0000
1000
0010
,
1000
0000
0100
0000
0010
0001
0010
0001
,
1000
0000
0001
0002
,
1000
2003
0010
3020
,
0100
0130
0001
0010
,
0100
2000
0010
0100
,
0010
3001
1001
0000
,
0000
0000
0000
0000
1001
0000
0001
0100
,
0010
0000
0100
0010
1000
0000
0001
0010
,
0100
1000
0001
1000
,
0010
0000
0100
0001
0000
0001
0010
0000
,
0100
1000
0001
0000
0101
0000
1010
0000
,
0101
0000
1010
0000
1000
0001
0000
2000
,
0000
0000
3010
0000
0100
0001
0000
0001
,
0010
0000
0010
0100
0000
0100
1000
0000
,
1100
0000
0011
0000
0002
0000
0100
0203
,
0000
0010
0310
0000
2000
0000
0001
3002
,
0000
0010
0013
0000
0200
0000
1000
2300
,
0000
0010
3010
0000
1000
0001
1000
0001
,
1000
0100
0010
0000
0011
0000
0001
0100
,
0001
0000
0100
0010
0100
0000
0010
1000
,
0010
1000
0001
0010
,
0100
0000
1000
0010
0000
0010
0100
0000
,
0001
1000
1001
0000
,
0011
0000
1000
0010
,
0100
0000
0101
0001
,
1000
0100
0000
0100
0010
0000
0001
0000
,
1000
0010
0100
0000
0001
0000
0011
0000
,
0010
0100
0000
0100
1000
0001
0000
0100
,
0010
1000
0001
0011
,
0010
0001
0000
0001
0100
0000
0010
0000
,
1000
0100
1000
0000
0020
0000
0000
0000
,
0000
0000
0130
0002
,
0000
1003
0000
0000
;

//---------------dance-single - Gpop----------------
#NOTES:
     dance-single:
     Gpop:
     Easy:
     4:
     0.266,0.284,0.129,0.041,0.000:
0000
0000
0000
0000
,
0000
0000
0000
0000
,
0000
0000
0000
0000
,
0000
0000
0000
0000
,
0000
0000
0000
0000
,
0000
0000
0000
0000
,
1001
1000
0010
0000
,
0100
0100
0001
0001
,
0010
0100
1000
0000
,
0001
0000
1000
0010
,
0100
0001
0010
0000
,
0100
1000
0100
0010
,
0001
0000
0000
0000
,
1001
0000
0000
0000
,
1010
0000
0010
0000
,
1000
0100
0010
0001
,
1000
0000
0010
0000
,
0100
0001
0010
0100
,
1000
0000
0001
0000
,
1000
0010
1000
0100
,
0010
0010
0010
0001
,
1000
0000
0001
0000
,
0101
0000
0100
0010
,
1000
0000
0100
0010
,
0001
0000
1000
0000
,
0010
1000
0001
0010
,
0100
0000
1000
1000
,
0010
0000
0100
0100
,
0001
0000
1000
0000
,
0100
0000
0010
0000
,
2002
0000
0000
0000
,
3003
0000
0000
0000
,
0000
0000
0000
0000
,
0000
0000
0000
0000
,
0000
0000
0000
0000
,
0000
0000
0000
0000
,
0000
0000
0000
0000
,
0010
0000
1001
0000
,
1000
0000
0010
0000
,
0100
0001
0010
0010
,
0100
0000
1000
0000
,
0001
0000
1000
1000
,
1000
1000
0001
0000
,
0100
0000
0000
0000
0010
0000
0000
0010
,
0000
0000
0010
0000
0000
0010
0000
0000
,
0010
0000
0010
0000
1001
0000
0000
1000
,
0000
0000
0000
0000
0001
0000
0000
0001
,
0000
0000
0000
0000
0010
0000
0000
0010
,
0000
0000
0100
1000
,
0001
1000
1010
0000
,
0101
0000
1001
0000
,
1000
0100
0010
0010
,
0001
0000
1000
0000
,
0010
0100
0010
0000
,
1000
0000
0001
0001
,
1000
0000
0100
0000
,
0010
0000
0100
0100
,
1000
1000
0001
0000
,
0100
0000
0010
0010
,
1000
0000
0001
0000
,
1000
0000
0100
0100
,
0010
0000
1001
0000
,
1000
1000
0010
0000
,
0100
0000
0001
0000
,
0010
0010
0001
0000
,
1000
0010
0010
0000
,
0100
0100
0010
0000
,
0010
0000
0010
1000
,
0001
0001
0002
0000
,
1003
0010
0110
0000
,
0100
0000
0001
0010
,
0100
0000
0010
0001
,
1000
0010
0100
0000
,
0001
0000
1000
0001
,
0100
0000
0010
1000
,
0001
0000
0010
0010
,
0100
1000
0001
0000
,
1000
0000
2002
0000
,
3003
0000
1001
0000
,
1000
0000
0001
0000
,
0100
0010
1000
1000
,
0100
0000
0010
0000
,
0001
0100
0010
0010
,
0010
0010
1000
0000
,
0001
0000
0000
0000
1000
0000
0000
1000
,
0000
0000
1000
0000
0000
1000
0000
0000
,
1000
0000
1000
0000
0001
0000
0000
0001
,
0000
0000
0000
0000
0100
0000
0000
0100
,
0000
0000
0000
0000
0010
0000
0000
0010
,
0000
0000
1000
0001
,
1000
0100
0110
0000
,
0011
0000
1001
0000
,
1000
0010
0100
0100
,
0001
0000
1000
0000
,
0100
0010
0001
0000
,
0000
0000
0000
0000
,
0000
0000
1001
1000
,
0001
0000
0010
0100
,
1000
0001
0100
0010
,
1000
0000
0001
0000
,
0010
0100
1000
0001
,
1000
0000
0010
0100
,
0010
1000
0002
0000
,
0000
0000
1003
0000
,
0000
1001
0000
0000
;

//---------------dance-single - Gpop----------------
#NOTES:
     dance-single:
     Gpop:
     Beginner:
     1:
     0.105,0.141,0.048,0.000,0.000:
0000
0000
0000
0000
,
0000
0000
0000
0000
,
0000
0000
0000
0000
,
0000
0000
0000
0000
,
0000
0000
0000
0000
,
0000
0000
0000
0000
,
1001
0000
0000
0000
,
1000
0000
0000
0000
,
0010
0000
0000
0000
,
0100
0000
0000
0000
,
0001
0000
0000
0000
,
0010
0000
0000
0000
,
0100
0000
0000
0000
,
1000
0000
0000
0000
,
1001
0000
0000
0000
,
0001
0000
0000
0000
,
0010
0000
0000
0000
,
0001
0000
0000
0000
,
0100
0000
0000
0000
,
0010
0000
0000
0000
,
1000
0000
0000
0000
,
0001
0000
0000
0000
,
0010
0000
0000
0000
,
0001
0000
0000
0000
,
0100
0000
0000
0000
,
0010
0000
0000
0000
,
1000
0000
0000
0000
,
0001
0000
0000
0000
,
0010
0000
0000
0000
,
0100
0000
0000
0000
,
0110
0000
0000
0000
,
0000
0000
0000
0000
,
0000
0000
0000
0000
,
0000
0000
0000
0000
,
0000
0000
0000
0000
,
0000
0000
0000
0000
,
0000
0000
0000
0000
,
0000
0000
1000
0000
,
1000
0000
1000
0000
,
1000
0000
0001
0000
,
0000
0000
0100
0000
,
0000
0000
0010
0000
,
0000
0000
1000
0000
,
0000
0000
0001
0000
,
0000
0000
0010
0000
,
0010
0000
0100
0000
,
0000
0000
0100
0000
,
0000
0000
0100
0000
,
0000
0000
1000
0000
,
0000
0000
0001
0000
,
0001
0000
0001
0000
,
0001
0000
1000
0000
,
0000
0000
0010
0000
,
0000
0000
0100
0000
,
0000
0000
0010
0000
,
0000
0000
1000
0000
,
0000
0000
0001
0000
,
0000
0000
1000
0000
,
0000
0000
0100
0000
,
0000
0000
0010
0000
,
0000
0000
0001
0000
,
0000
0000
1001
0000
,
0000
0000
0001
0000
,
0000
0000
1000
0000
,
0000
0000
0010
0000
,
0000
0000
0100
0000
,
0000
0000
0010
0000
,
0000
0000
1000
0000
,
0000
0000
0001
0000
,
0000
0000
1000
0000
,
0000
0000
1000
0000
,
0000
0000
0100
0000
,
0000
0000
0100
0000
,
0000
0000
0010
0000
,
0000
0000
0001
0000
,
0000
0000
1000
0000
,
0000
0000
0001
0000
,
0000
0000
1001
0000
,
0000
0000
0001
0000
,
0001
0000
0001
0000
,
0001
0000
0100
0000
,
0000
0000
0010
0000
,
0000
0000
1000
0000
,
0000
0000
0100
0000
,
0000
0000
0010
0000
,
0000
0000
0001
0000
,
0001
0000
1000
0000
,
0000
0000
1000
0000
,
0000
0000
1000
0000
,
0000
0000
0010
0000
,
0000
0000
0100
0000
,
0100
0000
0100
0000
,
0100
0000
0001
0000
,
0000
0000
1000
0000
,
0000
0000
1001
0000
,
0000
0000
0000
0000
,
0000
0000
1001
0000
,
0000
0000
1000
0000
,
0000
0000
0010
0000
,
0000
0000
0100
0000
,
0000
0000
0001
0000
,
0000
0000
0010
0000
,
0000
0000
0100
0000
,
0000
0000
1000
0000
;
