#TITLE:Numb;
#SUBTITLE:;
#ARTIST:Linkin Park;
#TITLETRANSLIT:;
#SUBTITLETRANSLIT:;
#ARTISTTRANSLIT:;
#GENRE:;
#CREDIT:;
#BANNER:Banner.png;
#BACKGROUND:Background.png;
#LYRICSPATH:;
#CDTITLE:;
#MUSIC:Music.ogg;
#OFFSET:-0.787;
#SAMPLESTART:26.693;
#SAMPLELENGTH:21.845;
#SELECTABLE:YES;
#BPMS:0.000=110.040;
#STOPS:;
#BGCHANGES:;
#KEYSOUNDS:;

//---------------dance-single - ----------------
#NOTES:
     dance-single:
     :
     Easy:
     6:
     0.349,0.316,0.368,0.000,0.000:
0010
0100
0000
0100
,
0010
0100
0000
1000
,
0001
0100
0000
0001
,
1000
1000
0100
0000
,
0110
0000
0001
0000
1000
0001
0100
0000
,
0010
0000
1000
0000
0001
1000
1100
0000
,
0010
0000
0101
0000
1000
0001
0100
0000
,
0010
0000
0100
0000
0001
0010
0110
0000
,
1000
0100
0000
0100
,
0010
0010
1000
0001
,
0010
0000
0101
0000
1000
0001
0010
0000
,
0001
0000
1000
0000
0001
1000
0100
0000
,
0001
1100
0010
0100
,
1000
0001
0100
0000
0001
0000
1000
0000
,
1100
0000
0011
0000
0010
0100
0100
0000
,
0001
0000
1010
0000
1000
0001
0100
0000
,
0110
0000
0001
0000
1000
0001
1000
0000
,
0100
0000
0110
0000
0001
1000
1100
0000
,
0010
0000
0100
0000
1000
0001
0001
0000
,
0010
0000
0001
0000
0100
0010
1000
0000
,
0001
0000
1100
0000
0001
1000
0010
0000
,
0100
0000
0001
0000
1000
1000
0100
0000
,
1001
0000
0010
0000
0001
1000
1100
0000
,
0010
0000
0100
0000
1000
0001
0010
0000
,
0101
0000
1100
0000
0001
0010
0100
0000
,
0010
0010
0100
0000
1001
0000
0110
0000
,
1000
0100
1100
0000
0001
0000
0100
0000
,
0010
0000
1000
0001
0010
0100
0110
0000
,
0001
0000
1000
1000
0100
0000
0010
0000
,
0101
0000
1100
0000
0010
0100
1001
0000
,
0010
0000
0100
0000
0001
1000
0110
0000
,
1000
0000
0101
0000
0010
0010
1001
0000
,
0010
0000
1100
0000
0001
0001
0100
0000
,
1000
0000
1100
0000
0001
1000
0110
0000
,
1000
0000
0101
0000
0010
0100
1000
0000
,
0010
0000
0101
0000
1000
0001
0010
0000
,
0100
0011
1001
0010
,
0001
1000
0010
0000
0100
0100
0010
0000
,
0010
0100
0000
0100
,
0010
0100
0000
1000
,
0001
0100
0000
0001
,
1000
1000
0100
0010
;

//---------------dance-single - ----------------
#NOTES:
     dance-single:
     :
     Hard:
     8:
     0.442,0.429,0.465,0.000,0.043:
0100
0010
0000
1000
,
0001
0100
0000
0010
,
1000
0001
0000
0010
,
0100
1000
0001
0010
,
1100
0000
0010
0101
0000
0101
0010
0000
,
1001
0000
0010
1100
0000
1100
0010
0000
,
0100
0000
1001
0010
0000
0100
1001
0000
,
0100
0000
0010
1100
0000
0101
0010
0000
,
0100
0000
0001
1000
0100
0000
0010
0000
,
0100
1000
0001
0010
,
0100
0100
0010
0000
0001
0000
1000
0000
,
0010
0010
0100
0000
0010
0000
1001
0000
,
0110
0001
0010
0000
0100
0000
1000
0000
,
0001
1000
0100
0000
0010
0000
0100
0000
,
1100
0001
0100
0000
0010
0000
0100
0000
,
1001
0110
0001
1000
,
0100
0100
0010
0000
1001
0010
0100
0001
,
1000
0100
0010
0100
0001
0000
0100
0000
,
1000
0000
0010
0000
0100
0100
0001
0000
,
1100
0000
0010
0101
0000
1001
0100
0000
,
0010
0000
1001
0010
0100
1000
0001
0000
,
0100
0000
0010
0001
1000
0000
0000
0000
,
1010
1100
0001
1000
0010
0100
0100
0010
,
1001
0010
0100
0001
1000
0100
0010
0100
,
1001
0100
0010
0100
0010
0001
0100
0010
,
1001
0010
0100
1000
0001
0100
0010
0100
,
1001
0010
0001
1000
0010
0100
0001
0100
,
1100
0001
0010
0100
1000
0010
0010
0100
,
1001
0101
0010
1000
0100
0010
0001
0100
,
0110
0001
1000
0100
0010
0001
0100
0010
,
1100
0000
0000
0010
0100
0000
0010
0000
1001
0000
0010
0000
0010
0000
0100
0000
,
1001
0000
0000
0010
0001
0000
1000
0000
0001
0000
0010
0000
0100
0000
0010
0000
,
1100
0000
0000
0001
1000
0000
0010
0000
0100
0000
0010
0000
1001
0000
0000
0000
,
0010
0001
0100
0010
1100
0010
1001
0000
,
0110
0000
0000
0001
1000
0000
0100
0000
0110
0000
1000
0000
0001
0000
0000
0000
,
0110
0000
0000
0001
0010
0000
0100
0000
1000
0000
0100
0000
0001
0000
0000
0000
,
1100
0000
0000
0100
1000
0000
0001
0000
1000
0000
0100
0000
0001
0000
1000
0000
,
0001
0000
0000
0010
0100
0000
0010
0000
0010
0000
0100
0000
1001
0000
0010
0000
,
0100
0010
0000
1000
,
0001
0100
0000
0010
,
1000
0001
0000
0010
,
0100
0000
0000
0000
1000
0000
0000
0010
0100
0000
0010
0000
1001
0000
0000
0000
;

//---------------dance-single - ----------------
#NOTES:
     dance-single:
     :
     Beginner:
     1:
     0.254,0.226,0.141,0.000,0.000:
0000
0100
0000
0000
,
0010
0000
0000
1000
,
0000
0100
0000
0001
,
0000
1000
0000
0000
,
0110
0000
1000
0000
,
0010
0000
0001
1000
,
0010
0001
1000
0100
,
0010
0100
0001
0110
,
1000
0100
0000
0100
,
0010
0010
1000
0001
,
0010
0100
1000
0010
,
0001
1000
0001
0100
,
0001
0100
0010
0100
,
1000
0100
0001
1000
,
0100
0010
0010
0100
,
0001
0010
1000
0100
,
0110
0001
1000
1000
,
0100
0110
0001
0100
,
0010
0100
1000
0001
,
0010
0001
0100
1000
,
0001
0100
0001
0010
,
0100
0001
1000
0100
,
1001
0010
0001
1000
,
0010
0100
1000
0010
,
0100
1000
0001
0100
,
0010
0100
1001
0110
,
1000
0100
0001
0100
,
0010
1000
0010
0110
,
0001
1000
0100
0010
,
0001
1000
0010
1001
,
0010
0100
0001
0110
,
1000
0001
0010
1001
,
0010
1000
0001
0100
,
1000
0100
0001
0110
,
1000
0001
0010
1000
,
0010
0001
1000
0010
,
0100
0001
1001
0010
,
0001
0010
0100
0010
,
0010
0100
0000
0100
,
0010
0100
0000
1000
,
0001
0100
0000
0001
,
1000
1000
0100
0010
;
