#TITLE:Mother 3;
#SUBTITLE:- Unfounded Revenge / Smashing Song of Praise (Brawl Remix);
#ARTIST:Shogo Sakai (Arranged by Kentaro Ishizaka);
#TITLETRANSLIT:;
#SUBTITLETRANSLIT:;
#ARTISTTRANSLIT:;
#GENRE:;
#CREDIT:;
#BANNER:Mother3.png;
#BACKGROUND:UnfoundedRevenge.png;
#LYRICSPATH:;
#CDTITLE:;
#MUSIC:Super Smash Bros. Wii U - Unfounded Revenge (Mother 3).ogg;
#OFFSET:0.980000;
#SAMPLESTART:3.811666;
#SAMPLELENGTH:13.333334;
#SELECTABLE:YES;
#BPMS:0.000000=144.000000
,108.000000=216.000000
,156.000000=134.000000
,164.000000=216.000000
,236.000000=134.000000
,244.000000=144.000000
,268.000000=216.000000
,280.000000=144.000000
;
#STOPS:
;
#BGCHANGES:;
#KEYSOUNDS:;
#ATTACKS:;

//---------------dance-single - ----------------
#NOTES:
     dance-single:
     :
     Easy:
     3:
     0.230685,0.392853,0.072304,0.297251,0.000000,201.000000,192.000000,9.000000,37.000000,0.000000,0.000000,0.230685,0.392853,0.072304,0.297251,0.000000,201.000000,192.000000,9.000000,37.000000,0.000000,0.000000:
0000
0000
0000
0000
,
0000
0000
0000
0000
,
0000
0000
0000
0000
,
0100
1000
0020
0000
,
0130
0001
1000
0010
,
1000
0000
0100
0100
0100
0000
0010
0010
,
0010
0001
1000
0000
,
0100
0001
0020
0000
,
0130
0001
1000
0100
,
0010
0000
1000
1000
1000
0000
0100
0100
,
0100
0010
0001
0000
,
0200
0000
0000
0000
,
0000
0000
0000
0300
,
0020
0000
0000
0000
,
0000
0000
0000
0030
,
2000
0000
0000
0000
,
0000
0000
0000
3000
,
0002
0000
0000
0000
,
0000
0000
0000
0003
,
2000
0000
0000
3000
,
0020
0000
0000
0030
,
0200
0000
0000
0300
,
0020
0000
0000
0030
,
0002
0000
0000
0003
,
0200
0000
0000
0300
,
0020
0000
0000
0030
,
1000
0100
0010
0001
,
0100
0000
0000
0001
,
0000
0000
0000
0000
0010
0000
0000
0100
,
0000
0010
0000
0000
,
1000
0000
0000
0001
0000
0000
0100
0000
,
0000
0000
0000
0000
0001
0000
0000
0100
,
0000
0010
0000
0000
,
1000
0000
0000
0100
0000
0000
0001
0000
,
0000
0000
0110
0000
,
0000
1001
0000
0000
,
1100
0000
0000
0100
0000
0000
0101
0000
,
0000
0000
0000
0000
0101
0000
0000
0100
,
0000
1100
0000
0000
,
0100
1000
0001
0010
,
0010
1000
0001
0100
,
0100
0000
0000
0001
0000
0000
0100
0000
,
0000
0001
0000
0000
0010
0000
0000
1000
,
0000
0000
1000
0000
0000
0010
0000
0000
,
0001
0000
0000
1000
0000
0000
0010
0000
,
0000
0001
0000
0000
1000
0000
0000
0010
,
0000
0000
0100
0000
0000
1000
0000
0000
,
0002
0000
0000
0000
0000
0003
2000
0000
,
0000
0000
0000
3000
0200
0000
0000
0000
,
0000
0300
0020
0000
0000
0000
0000
0030
,
0200
0000
0000
0000
0000
0300
0020
0000
,
0000
0000
0000
0030
2000
0000
0000
0000
,
0000
3000
0002
0000
0000
0000
0000
0003
,
2000
0000
0000
0000
0000
3000
0020
0000
,
0000
0000
0000
0030
0200
0000
0000
0000
,
0000
0300
0020
0000
0000
0000
0000
0030
,
2000
0000
0000
0000
0000
3000
0002
0000
,
0000
0000
0000
0003
0220
0000
0000
0000
,
0000
0330
0100
0000
0000
0100
0000
0000
,
0100
1000
0010
0001
,
1000
0001
0010
0100
,
0010
0100
2000
0000
,
3002
0000
0000
0000
,
0103
0010
0020
0000
,
2030
0000
0000
0000
,
3100
0000
0001
0000
2200
0000
0000
3300
,
0002
0000
0000
0000
,
0103
0000
0000
1000
0000
0000
0100
0000
,
0000
0001
0000
0000
0010
0000
0000
0100
,
0000
0000
1000
0000
0000
0010
0000
0000
,
0100
0010
0100
1000
,
0001
0010
0100
0001
,
0010
0000
1000
0000
0100
0000
0010
0001
,
0010
0000
1000
0000
0010
0000
0100
0001
,
0100
0000
0001
0000
1000
0000
0010
0010
,
0010
0000
1000
0000
0100
0000
0001
0010
,
0001
0000
1000
0000
0010
0000
0100
0100
,
0100
0000
0010
0000
0100
0000
0010
0001
,
0100
1000
0020
0000
,
0130
0001
1000
0010
,
1000
0000
0100
0100
0100
0000
0010
0010
,
0010
0100
0110
0000
;

//---------------dance-single - ----------------
#NOTES:
     dance-single:
     :
     Medium:
     5:
     0.340863,0.523804,0.409724,0.377589,0.000000,297.000000,246.000000,51.000000,47.000000,0.000000,0.000000,0.340863,0.523804,0.409724,0.377589,0.000000,297.000000,246.000000,51.000000,47.000000,0.000000,0.000000:
0000
0000
0000
0000
,
1000
0000
0010
0000
,
0100
0000
0001
0000
,
0100
0010
0001
0000
0020
0000
0000
0000
,
0130
0010
0001
0000
1000
0100
0010
0000
,
1000
0000
0100
0010
0100
0000
0010
0100
,
0010
1000
0100
0010
1000
0000
0000
0000
,
0100
0010
0001
0000
0020
0000
0000
0000
,
0130
0010
0001
0000
1000
0010
0100
0000
,
0010
0000
1000
0100
1000
0000
0100
0001
,
0100
0010
0001
0000
,
0202
0000
0000
0000
,
0000
0000
0000
0303
,
2020
0000
0000
0000
,
0000
0000
0000
3030
,
2002
0000
0000
0000
,
0000
0000
0000
3003
,
0202
0000
0000
0000
,
0000
0000
0000
0303
,
2020
0000
0000
3030
,
0220
0000
0000
0330
,
0202
0000
0000
0303
,
2020
0000
0000
3030
,
0022
0000
0000
0033
,
0202
0000
0000
0303
,
2020
0000
0000
3030
,
1000
0100
0010
0001
,
0100
0000
0000
1000
0000
0000
0001
0000
,
0000
1000
0000
0000
0010
0000
0000
0100
,
0000
0000
0010
0000
0000
0010
0000
0000
,
1000
0000
0000
0001
0000
0000
0100
0000
,
0000
0010
0000
0000
0001
0000
0000
0100
,
0000
0000
0010
0000
0000
0100
0000
0000
,
1000
0000
0000
0100
0000
0000
0001
0000
,
0000
0000
0000
0100
0010
0000
0000
0000
,
0000
0110
0110
0000
0000
0000
0000
0000
,
1100
0000
0000
0110
0000
0000
0101
0000
,
0000
0000
0000
0000
0101
0000
0000
0110
,
0000
1100
0000
0000
,
0100
1000
0001
0010
,
0011
1100
0011
0110
,
0100
0000
0000
0001
0000
0000
0100
0000
,
0000
0001
0000
0000
0010
0000
0000
1000
,
0000
0000
1100
0000
0000
0011
0000
0000
,
0101
0000
0000
1010
0000
0000
0010
0000
,
0000
0001
0000
0000
1000
0000
0000
0010
,
0000
0000
0100
0000
0000
1000
0000
0000
,
0102
0000
0000
0010
0000
0003
2010
0000
,
0000
0010
0000
3000
0201
0000
0000
1000
,
0000
0300
0021
0000
0000
1000
0000
0030
,
0201
0000
0000
1000
0000
0300
0021
0000
,
0000
0100
0000
0030
2001
0000
0000
0100
,
0000
3000
0102
0000
0000
0100
0000
0003
,
2010
0000
0000
0100
0000
3000
0120
0000
,
0000
0001
0000
0030
0201
0000
0000
1000
,
0000
0300
1020
0000
0000
0001
0000
0030
,
2001
0000
0000
0010
0000
3000
0102
0000
,
0000
0100
0000
0003
1020
0000
0000
1000
,
0000
0030
1000
0000
0000
0001
0000
0000
,
0100
1000
0010
0001
,
1000
0001
0010
0110
,
0010
0100
2000
0010
,
3002
0100
1000
0010
,
0103
0010
0020
0000
,
2030
0001
0010
0001
,
3100
0000
0001
0000
2200
0000
0000
3300
,
0002
1000
0100
0010
,
0103
0000
0000
1000
0000
0000
0100
0000
,
0000
0001
0000
0000
1010
0000
0000
0101
,
0000
0000
1000
0000
0000
0010
0000
0000
,
0100
0010
0100
1000
,
1001
0010
0101
0101
,
0010
0000
1000
0010
0100
0000
0010
0001
,
0010
0000
1000
0001
0010
0000
0100
0001
,
0100
0000
0001
0110
1000
0000
0010
0010
,
0010
0000
1000
0010
0100
0000
0001
0010
,
0001
0000
1000
0000
0010
0000
0100
0100
,
0100
0000
0010
0000
0100
0000
0010
0001
,
0100
0000
1000
0100
0020
0000
0000
0000
,
0130
0010
0001
0000
1000
0100
0010
0100
,
1000
0000
0100
0001
0100
0000
0010
1000
,
0010
1000
0100
0001
0110
0000
0000
0000
;

//---------------dance-single - ----------------
#NOTES:
     dance-single:
     :
     Hard:
     7:
     0.523345,0.654755,0.506130,0.522197,0.096406,456.000000,393.000000,63.000000,65.000000,0.000000,0.000000,0.523345,0.654755,0.506130,0.522197,0.096406,456.000000,393.000000,63.000000,65.000000,0.000000,0.000000:
// measure 0
0000
0000
0000
0000
,  // measure 1
1000
0001
0001
0001
1000
0001
0001
0001
,  // measure 2
1000
0001
0001
0001
1000
0001
0001
1000
,  // measure 3
0100
0010
0001
1000
0020
0000
0030
0001
,  // measure 4
0100
1000
0001
0100
0001
0100
0010
1000
,  // measure 5
2000
3000
0100
0010
0200
0300
0010
0100
,  // measure 6
0010
0000
1000
0100
0010
0000
0010
0000
2000
0000
0000
0000
3000
0000
1000
0000
,  // measure 7
0100
0010
0001
0100
0020
0000
0030
1000
,  // measure 8
0100
0010
0001
0100
1000
0010
0100
0001
,  // measure 9
0020
0030
1000
0100
2000
3000
0100
0001
,  // measure 10
0100
0000
0010
0001
0010
0000
0100
0000
0002
0000
0000
0000
0003
0000
0000
0000
,  // measure 11
0002
0000
0000
0000
0000
0000
0000
0000
0000
0000
0000
0000
0000
0000
1000
0100
,  // measure 12
0010
0010
0010
0010
0010
0010
0013
0010
,  // measure 13
2010
0000
0000
0000
0000
0000
0000
0000
0000
0000
0000
0000
0000
0000
0100
0010
,  // measure 14
0001
0010
0001
0010
0001
0010
3001
0010
,  // measure 15
0002
0000
0000
0000
0000
0000
0000
0000
0000
0000
0000
0000
0000
0000
1000
0100
,  // measure 16
1000
1000
0100
0010
0100
1000
0103
0010
,  // measure 17
0200
0000
0000
0000
,  // measure 18
0000
0000
0000
0300
,  // measure 19
2020
0000
0000
3030
0202
0000
0000
0303
,  // measure 20
0220
0000
0000
0330
2002
0000
0000
3003
,  // measure 21
0202
0000
0000
0303
2020
0000
0000
3030
,  // measure 22
0220
0000
0000
0330
0202
0000
0000
0303
,  // measure 23
0022
0000
0000
0033
2200
0000
0000
3300
,  // measure 24
0202
0000
0000
0303
2020
0000
0000
3030
,  // measure 25
0220
0000
0000
0000
0000
0000
0000
0330
,  // measure 26
1000
0100
0010
0001
,  // measure 27
0100
0000
1000
1000
0000
0001
0001
0000
,  // measure 28
0100
1000
0000
0001
0010
0000
1000
0100
,  // measure 29
0000
0110
0011
0000
1100
0000
0000
0000
,  // measure 30
1000
0000
1000
0001
0000
0010
0100
0000
,  // measure 31
1000
0010
0000
0010
0001
0000
1000
0100
,  // measure 32
0000
0000
0110
0000
1001
0000
0000
1000
,  // measure 33
0100
0000
0010
0100
0000
0002
1000
0000
,  // measure 34
0100
0010
0000
0100
0010
0000
1000
0100
,  // measure 35
0000
0100
0010
0000
0000
0000
0003
1000
,  // measure 36
1000
0000
0010
0100
0000
0010
0001
0000
,  // measure 37
0010
0100
0000
1000
0100
0000
0010
0100
,  // measure 38
0000
0001
2200
0000
0000
0000
3300
0001
,  // measure 39
0100
0010
0100
0010
0000
0010
0001
0000
0100
0010
0000
0001
,  // measure 40
0010
0000
1000
1000
0100
0010
0010
0000
0000
0100
0000
1000
,  // measure 41
0100
0000
0001
0001
0000
0010
0100
0000
,  // measure 42
0100
0001
0000
1000
0010
0000
0001
1000
,  // measure 43
0000
1100
1100
0000
0011
0011
0000
0101
,  // measure 44
0101
0000
1010
1010
0000
0100
0010
0000
,  // measure 45
1000
0001
0000
0001
1000
0000
0100
0010
,  // measure 46
0000
0010
0100
0000
1000
1000
0000
0000
,  // measure 47
0102
0000
0000
0010
0000
0003
2010
0000
,  // measure 48
0000
0010
0000
3000
0201
0000
0000
1000
,  // measure 49
0000
0300
0021
0000
0000
1000
0000
0030
,  // measure 50
0201
0000
0000
1000
0000
0300
0021
0000
,  // measure 51
0000
0100
0000
0030
2001
0000
0000
0100
,  // measure 52
0000
3000
0102
0000
0000
0100
0000
0003
,  // measure 53
2010
0000
0000
0100
0000
3000
0120
0000
,  // measure 54
0000
0001
0000
0030
0201
0000
0000
1000
,  // measure 55
0000
0300
1020
0000
0000
0001
0000
0030
,  // measure 56
2001
0000
0000
0010
0000
3000
0102
0000
,  // measure 57
0000
0100
0000
0003
1020
0000
0000
1000
,  // measure 58
0000
0030
1200
0000
0000
0001
0300
0001
,  // measure 59
0100
0100
1000
1000
0000
0010
0010
0000
0001
0001
0000
1000
,  // measure 60
1000
0000
0001
0001
0001
0010
0010
0000
0000
0010
0000
0100
,  // measure 61
0010
0100
2000
0010
,  // measure 62
3002
0100
1000
0010
,  // measure 63
0103
0010
0020
0000
,  // measure 64
2030
0001
0010
0001
,  // measure 65
3100
0000
0001
0000
2200
0000
0000
3300
,  // measure 66
0002
1000
0100
0010
,  // measure 67
0103
0000
0100
1000
0000
0001
0100
0000
,  // measure 68
0010
0001
0000
0101
1010
0000
1010
0101
,  // measure 69
0000
0110
1001
0000
0100
0010
0000
0000
,  // measure 70
0101
1010
0101
0110
,  // measure 71
1001
1010
0101
0101
,  // measure 72
0011
0100
1000
0010
0100
1000
0010
0001
,  // measure 73
0010
0100
1000
0001
0010
1000
0100
0001
,  // measure 74
0100
0100
0001
0110
1000
0001
0010
0010
,  // measure 75
0010
0001
1000
0010
0100
1000
0001
0010
,  // measure 76
0001
0100
1000
0001
0010
1000
0100
0100
,  // measure 77
0100
0001
0010
1000
0100
0100
0010
0001
,  // measure 78
0100
0010
1000
0100
0020
0000
0030
1000
,  // measure 79
0100
0010
0001
0010
1000
0100
0010
0100
,  // measure 80
1000
0000
0100
0001
0100
0000
0010
1000
,  // measure 81
0110
0000
1000
0010
0100
0000
0001
0000
0110
0000
0000
0000
0000
0000
0000
0000
;
