#TITLE:Luka Luka Night Fever;
#SUBTITLE:;
#ARTIST:samfree feat. Luka Megurine;
#TITLETRANSLIT:;
#SUBTITLETRANSLIT:;
#ARTISTTRANSLIT:;
#GENRE:;
#CREDIT:;
#BANNER:Luka Luka Night Fever - bn.png;
#BACKGROUND:Luka Luka Night Fever - bg.png;
#LYRICSPATH:;
#CDTITLE:cdtitlegpop.png;
#MUSIC:Luka Luka Night Fever.ogg;
#OFFSET:1.302;
#SAMPLESTART:97.711;
#SAMPLELENGTH:11.999;
#LASTBEATHINT:0.805;
#SELECTABLE:YES;
#DISPLAYBPM:80.000:160.000;
#BPMS:0.000=160.000
,200.000=80.000
,216.000=160.000
,243.500=80.000
,245.250=320.000
,246.000=160.000
;
#STOPS:245.250=0.235
;
#BGCHANGES:2.875=Luka Luka Night Fever.avi=1.000=1=0=1=Format3==CrossFade==,
99999=-nosongbg-=1.000=0=0=0 // don't automatically add -songbackground-
;
#KEYSOUNDS:;
#ATTACKS:;

//---------------dance-single - ----------------
#NOTES:
     dance-single:
     :
     Challenge:
     10:
     0.870,0.919,0.421,0.878,0.478,682.000,60.000,125.000,25.000,9.000,0.000,0.870,0.919,0.421,0.878,0.478,682.000,60.000,125.000,25.000,9.000,0.000: // measure 0
0000
0000
0000
0000
,  // measure 1
0000
0000
0000
0000
,  // measure 2
1000
0000
0001
0000
0100
0000
0010
2000
0000
0000
3001
0000
0100
0000
0010
0000
,  // measure 3
1000
0001
0100
0001
1000
0100
0010
0100
1000
0001
0100
0001
1000
0010
0100
0000
,  // measure 4
0001
0000
0001
0000
1000
0000
0010
0200
0000
0000
0301
0000
0010
0000
0010
0000
,  // measure 5
0100
0000
0000
1000
0000
0000
0001
0100
0001
0100
0001
0100
0002
0000
0000
0000
0000
0000
2003
0000
0000
0000
0000
0000
,  // measure 6
3100
0000
0100
0000
0010
0000
0001
2000
0000
0000
3010
0000
0100
0000
0001
0000
,  // measure 7
1000
0100
1000
0001
0100
0001
1000
0010
0100
0001
0100
0001
1000
0100
0010
0000
,  // measure 8
0001
0000
0001
0000
0100
0000
0010
2000
0000
0000
3001
0000
0010
0000
0100
0000
,  // measure 9
1000
0000
0000
1000
0000
0000
0001
0010
0001
0010
0001
0010
0001
0000
0000
0000
0000
0000
0110
0000
0000
0000
0000
0000
,  // measure 10
1001
1000
0001
0000
0100
0010
0000
1000
,  // measure 11
0010
0100
0001
0000
2200
0000
3300
0000
,  // measure 12
0001
0100
0100
0000
0010
1000
0000
0010
,  // measure 13
0100
0001
1000
0000
0022
0000
0033
0000
,  // measure 14
0010
0100
0100
0000
1000
0001
0000
0100
,  // measure 15
0010
1000
0020
0000
0130
0000
0001
1000
,  // measure 16
0200
0000
0320
0000
0032
0000
0103
0010
,  // measure 17
0000
0000
0000
1000
0000
0000
0001
0010
0001
0010
0001
0010
0001
0000
0000
0000
0000
0000
0101
0000
0000
0000
0000
0000
,  // measure 18
1100
1000
0001
0000
0100
0010
0000
1000
,  // measure 19
0010
0100
0001
0000
2200
0000
3300
0000
,  // measure 20
0001
0010
0010
0000
0100
1000
0000
0001
,  // measure 21
0100
0001
1000
0000
0022
0000
0033
0000
,  // measure 22
1000
0010
0010
0000
0100
0001
0000
1000
,  // measure 23
0001
0100
0020
0000
2030
0000
3001
0000
,  // measure 24
0020
0000
0230
0000
2300
0000
3001
0100
,  // measure 25
0000
0000
0000
0010
0000
0000
1000
0001
1000
0001
1000
0001
1000
0000
0000
0000
0000
0000
0110
0000
0000
0100
0000
0000
,  // measure 26
2002
0000
0010
0000
3013
0000
0001
0010
,  // measure 27
2200
0000
0001
0000
3310
0000
1000
0001
,  // measure 28
0000
0100
0110
0000
1000
0001
0011
0000
,  // measure 29
0001
1000
1001
0000
1100
0100
0110
0010
,  // measure 30
0011
0000
0002
0000
0203
0000
0310
2000
,  // measure 31
0000
0000
3002
0000
0023
0000
1030
0010
,  // measure 32
0001
0000
0100
0010
1100
0000
1000
0202
,  // measure 33
0000
0010
1000
0010
1000
0000
M3M3
0000
,  // measure 34
1001
0000
0001
0000
0100
0000
0010
0000
1000
0100
1000
0000
0001
0000
0100
0000
,  // measure 35
0010
1000
0001
0000
0100
0000
0020
0000
2030
0000
3002
0000
0023
0000
0230
0000
,  // measure 36
1300
0001
0010
0000
0100
0000
1000
0000
0001
0100
0010
0000
1000
0000
0001
0000
,  // measure 37
0010
0100
1000
0000
0001
0000
0100
0000
0010
1000
0001
0100
0010
1000
0001
0000
,  // measure 38
1000
0100
1000
0000
0001
0000
0100
0000
0010
1000
0001
0000
0220
0000
0330
0000
,  // measure 39
1000
0001
0010
0000
0200
0000
2300
0000
3002
0000
0203
0000
0320
0000
2030
0000
,  // measure 40
3001
0010
0100
0000
1000
0000
0001
0000
0100
0010
1000
0000
0001
0000
0100
0000
,  // measure 41
0010
0000
0000
1000
0000
0000
0001
0000
0000
0000
0000
0000
0010
0000
0100
0000
0010
0000
0100
0000
0010
0000
0100
0000
0010
0000
0000
0000
0000
0000
0000
0000
0000
0000
0000
0000
1001
0000
0000
0000
0000
0000
0000
0000
0000
0000
0000
0000
,  // measure 42
1100
0000
0100
0000
0010
0000
0001
0000
1000
0010
0100
0000
0001
0000
1000
0000
,  // measure 43
0010
0100
0001
0000
2000
0000
3002
0000
0023
0000
2030
0000
3020
0000
0032
0000
,  // measure 44
0103
0010
1000
0000
0001
0000
0100
0000
0001
0010
0100
0000
1000
0000
0001
0000
,  // measure 45
0100
0010
1000
0000
0001
0000
0100
0000
0001
0010
0100
1000
0001
0010
0100
0000
,  // measure 46
1000
0001
0100
0000
0010
0000
1000
0000
0001
1000
0100
0000
0010
0000
0001
0000
,  // measure 47
1000
0100
0010
0000
0002
0000
0203
0000
2300
0000
3002
0000
0023
0000
2030
0000
,  // measure 48
3001
0010
0100
0000
1000
0000
0001
0000
0010
0100
1000
0000
0001
0000
0202
0000
,  // measure 49
0303
0110
1010
1001
0202
0000
M0M0
0303
,  // measure 50
12MM
0000
0001
0000
1000
0000
0001
0000
1300
1000
0010
0000
0202
0000
0303
0000
,  // measure 51
0201
0000
1000
0000
0001
0000
1000
0000
0301
0001
1000
0100
0010
0010
0001
1000
,  // measure 52
1001
0001
0100
0001
1000
0200
0000
0320
0000
0001
0032
0000
2000
0000
3003
0000
,  // measure 53
1200
0000
0010
0000
0001
0000
1300
0002
0000
0203
0000
0310
1010
0000
0101
0000
,  // measure 54
MM21
1000
0001
1000
,  // measure 55
0031
0100
0010
0000
2002
0000
3003
0000
,  // measure 56
0201
1000
0001
1000
,  // measure 57
0301
1000
0100
1000
0020
0000
0130
0100
,  // measure 58
0101
0001
1000
0100
0010
0001
0000
2000
,  // measure 59
0000
3010
0200
0000
0002
0000
0303
0000
,  // measure 60
2001
0000
0010
0000
0100
0000
3001
M2M0
,  // measure 61
0310
1000
0001
0200
0000
M3MM
0M00
0000
1001
0000
0001
0000
0100
0000
0010
0000
,  // measure 62
1000
0001
1000
0000
0010
0000
0100
0000
0001
0010
0100
0000
2000
0000
3020
0000
,  // measure 63
0230
0000
2300
0000
3200
0000
0302
0000
1003
0100
1000
0000
0010
0000
0100
0000
,  // measure 64
0001
0010
0001
0000
0010
0000
0100
0000
1000
0001
0100
0000
0010
0000
1000
0000
,  // measure 65
0010
0100
0001
1000
0010
0100
0001
0000
1000
0100
1000
0000
0010
0000
0100
0000
,  // measure 66
0001
0010
0001
0000
0010
0000
0100
0000
0010
0001
1000
0000
0020
0000
0230
0000
,  // measure 67
0302
0000
2003
0000
3200
0000
0302
0000
0103
1000
0100
0000
0010
0000
0001
0000
,  // measure 68
0100
0010
1000
0000
0001
0000
0100
0000
0010
1000
0001
0000
0010
0000
0100
0000
,  // measure 69
2200
3300
0202
0303
1001
1000
0001
0010
,  // measure 70
0100
1000
0001
0000
0100
0000
0010
0000
1000
0100
0010
0000
0002
0000
0023
0000
,  // measure 71
2030
0000
3002
0000
0203
0000
2300
0000
3001
0100
0010
0000
1000
0000
0001
0000
,  // measure 72
0010
0100
1000
0000
0001
0000
0100
0000
0001
1000
0100
0000
0010
0000
0001
0000
,  // measure 73
0100
0010
1000
0010
0100
0001
1000
0000
0001
0010
0001
0000
0100
0000
0010
0000
,  // measure 74
1000
0100
1000
0000
0001
0000
0100
0000
0010
1000
0001
0000
2000
0000
3200
0000
,  // measure 75
0302
0000
0203
0000
0320
0000
0032
0000
1003
0010
0100
0000
0001
0000
1000
0000
,  // measure 76
0100
0010
0001
0000
0100
0000
0220
0000
0330
0000
1010
0000
1001
0000
0101
0000
,  // measure 77
2002
0000
0000
0000
3MM3
M00M
0000
0000
1001
0000
0001
0000
0100
0000
0010
2000
,  // measure 78
0000
0000
3001
0000
0100
0000
0010
0000
1000
0100
1000
0001
0100
0001
1000
0100
,  // measure 79
0010
0001
0010
0001
0100
0010
1000
0000
0001
0000
0010
0000
0010
0000
0100
2000
,  // measure 80
0000
0000
0000
3001
0000
0000
0100
0000
0000
0010
0000
0000
1000
0000
0000
1000
0000
0000
0001
0100
0001
0100
0001
0100
,  // measure 81
0001
0000
0000
0000
0101
0000
0000
0000
1010
0000
1000
0000
0001
0000
0100
0020
,  // measure 82
0000
0000
1030
0000
0001
0000
0010
0000
0100
1000
0100
0010
0001
0010
0100
0010
,  // measure 83
0001
1000
0010
0100
0001
0100
0001
0000
1000
0000
0010
0000
0010
0000
0100
0002
,  // measure 84
0000
0000
0000
1003
0000
0000
0100
0000
0000
1000
0000
0000
0001
0000
0000
0001
0000
0000
1000
0001
1000
0001
1000
0001
,  // measure 85
1000
0000
0000
0000
0110
0000
0000
0000
1001
0000
0M00
0000
00M0
0000
M000
000M
,  // measure 86
0M00
00M0
0M00
2002
3003
1100
1001
0101
,  // measure 87
2002
3113
0000
0000
;

//---------------dance-single - ----------------
#NOTES:
     dance-single:
     :
     Hard:
     8:
     0.580,0.613,0.534,0.246,0.067,467.000,76.000,35.000,0.000,0.000,0.000,0.580,0.613,0.534,0.246,0.067,467.000,76.000,35.000,0.000,0.000,0.000:
0000
0000
0000
0000
,
0000
0000
0000
0000
,
1000
0000
0001
0000
0100
0000
0010
2000
0000
0000
0000
0000
3001
0000
0010
0000
,
0100
1000
0100
0010
0100
1000
0001
0100
,
0001
0000
0001
0000
0100
0000
0010
0200
0000
0000
0000
0000
0301
0000
1000
0000
,
0100
0100
0010
0001
0101
0000
1100
0000
,
1001
0000
1000
0000
0010
0000
0100
0002
0000
0000
0000
0000
1003
0000
0100
0000
,
1000
0001
0100
0001
1000
0100
0010
0001
,
0100
0000
0100
0000
0010
0000
1000
0002
0000
0000
0000
0000
0103
0000
0010
0000
,
1000
1000
0001
0010
0110
0000
1001
0000
,
1100
0100
0010
0000
0001
0001
0000
0100
,
0010
1000
0001
0000
1100
0000
0000
0000
,
0001
0100
0010
0000
1000
0001
0000
0100
,
0001
1000
0100
0000
0011
0000
0000
0000
,
1000
0001
0001
0000
0100
0010
0000
1000
,
0010
0100
0001
0000
1100
0000
1000
0001
,
0200
0000
0010
0000
0001
0000
0310
1000
,
0000
0001
0100
0000
0110
0000
0110
0000
,
1001
1000
0001
0000
0100
0010
0000
1000
,
0010
0100
0001
0000
1100
0000
0000
0000
,
0001
0100
0100
0000
0010
1000
0000
0001
,
0100
0001
1000
0000
0011
0000
0000
0000
,
0100
0010
0010
0000
1000
0001
0000
0100
,
0001
1000
0010
0000
1001
0000
0001
0100
,
0020
0000
1000
0000
0100
0000
1030
0001
,
0000
0100
0010
0000
0110
0000
1001
1000
,
1002
0000
0100
0000
1003
0000
0001
1000
,
1020
0000
0001
0000
1030
0000
0001
0100
,
0000
0010
1010
0000
1000
0001
0101
0000
,
0001
1000
1100
0000
0011
0000
1100
0000
,
1001
0000
2000
0000
0010
0000
0100
3100
,
0000
0000
0010
0000
0001
0000
0100
0010
,
2000
0000
3000
0001
0200
0000
0300
2001
,
0000
0100
0100
0100
3100
0000
0110
0000
,
0201
1000
0001
1000
,
0301
1000
0100
0000
1001
0000
0000
0000
,
2001
0100
0001
0100
,
3001
0100
0010
1000
0010
0010
0100
0001
,
0000
1000
0100
0010
0001
1000
0000
0001
,
0100
0001
1000
0000
0110
0000
0000
0000
,
2000
0000
0100
0000
3100
0000
0010
0001
,
0000
0010
0000
0100
0110
0000
0110
0000
,
0021
1000
0001
1000
,
0031
1000
0100
0000
1001
0000
0000
0000
,
1002
0010
1000
0010
,
1003
0010
1000
0001
0100
0100
0001
1000
,
0000
0001
0010
0100
0010
0010
0000
0001
,
1000
0001
0100
0000
0011
0000
0000
0000
,
0002
0000
0100
0000
0103
0000
0010
0120
,
0000
1000
1000
1000
1030
0000
0110
0000
,
1001
0000
1000
0000
0001
0000
0001
0000
0100
0010
1000
0000
0001
0000
0000
0000
,
0100
0000
0100
0000
0010
0000
0010
0000
1000
0001
0100
0000
0010
0000
1000
0001
,
0000
0000
0100
0000
0010
1000
0000
0001
0000
0100
0010
0000
1001
0000
0000
0000
,
0200
0000
1000
0000
1300
0000
0001
0100
0000
0010
0000
1000
1001
0000
1001
0000
,
1100
1100
0101
0101
,
1000
0001
0100
0000
1001
0000
0000
0000
,
0011
0011
1010
1010
,
1000
0001
0100
0000
0010
0000
1000
0001
,
0000
0100
0010
0000
1000
0000
0000
0001
,
0010
0100
1000
0000
0101
0000
0000
0000
,
0002
0000
0100
0000
1003
0000
0010
0100
,
0001
1000
0001
0200
0000
0300
0000
0000
1200
0000
0000
0000
0001
0000
0000
0000
,
1000
0000
0001
0000
1300
0001
0100
0000
,
1001
0000
0002
1000
,
0100
0000
1000
0000
0103
0010
1000
0010
,
0100
0100
0001
1000
0000
0001
0010
0100
,
0010
0001
0000
0100
0010
1000
0010
0000
,
1100
0000
0002
0100
,
0013
0000
1000
0010
0000
0100
0000
0001
,
0101
1100
1020
0001
,
1000
0000
0001
0000
1030
0001
0010
0000
,
1001
0000
2000
0001
,
0100
0000
0001
0000
3010
0100
1000
0001
,
0010
0010
0001
1000
0000
0010
0100
0010
,
1000
0001
0000
0010
1000
0010
0001
0000
,
1100
0000
0002
2003
,
3200
0000
0310
0012
0000
1000
1000
1000
,
1003
0000
0000
0000
0110
0000
0000
0000
1001
0000
1000
0000
0001
0000
0100
0020
,
0000
0000
1030
0001
0100
0010
0100
0010
,
1000
0000
0001
0000
0010
0000
0100
0000
1000
0000
1000
0000
0001
0000
0100
0002
,
0000
0000
1003
0010
0100
0100
0001
1000
,
1100
0000
0000
0000
0101
0000
0000
0000
1001
0000
0001
0000
0100
0000
0010
2000
,
0000
0000
3001
0010
0001
1000
0001
0100
,
0010
0000
1000
0000
0010
0000
0100
0000
0001
0000
0001
0000
1000
0000
0100
0020
,
0000
0000
0031
1000
0100
0010
0100
1000
,
1100
0101
1001
0000
,
0000
0000
0000
1001
0000
1100
0110
0011
,
1001
0110
0000
0000
;

//---------------dance-single - ----------------
#NOTES:
     dance-single:
     :
     Medium:
     6:
     0.476,0.490,0.513,0.049,0.004,394.000,73.000,7.000,0.000,0.000,0.000,0.476,0.490,0.513,0.049,0.004,394.000,73.000,7.000,0.000,0.000,0.000:
0000
0000
0000
0000
,
0000
0000
0000
0000
,
1000
0001
0100
0000
0010
0000
1000
0000
,
0001
0010
0100
0000
0010
0001
1000
0000
,
0010
0100
0001
0000
1000
0000
0001
0000
,
0100
0010
1000
0001
0100
0000
1001
0000
,
1000
0100
0001
0000
0100
0000
1000
0000
,
0010
0100
0001
0000
1000
0100
0010
0000
,
0001
0010
0100
0000
1000
0000
0001
0000
,
0100
0010
1000
0001
0100
0000
1001
0000
,
1000
0001
0100
0010
,
1000
0001
0010
0000
1100
0000
0000
0000
,
0001
0100
0010
1000
,
0001
1000
0010
0000
0101
0000
0000
0000
,
1000
0001
0010
0100
,
1000
0100
0010
0000
1100
0000
0001
1000
,
0100
0000
0010
0000
0010
0000
0001
1000
,
0000
1000
0010
0000
0110
0000
0110
0000
,
1001
0001
0100
0010
,
1000
0001
0100
0000
0011
0000
0000
0000
,
1000
0001
0010
0100
,
1000
0010
0001
0000
1010
0000
0000
0000
,
1000
0001
0010
0100
,
0010
0001
1000
0000
0101
0000
1000
0000
,
0001
0000
0001
0000
0010
0000
0100
1000
,
0000
0001
0010
0000
0110
0000
0110
0000
,
2001
0100
3100
0010
,
0002
0100
0103
0010
,
0100
1001
0010
1100
,
0001
1100
1100
1001
,
0101
0000
0100
0000
0010
0000
1000
0001
,
0000
0000
0100
0000
0010
0000
1000
0100
,
0010
0000
0000
0001
1000
0000
0000
0110
,
0000
1000
0001
1000
0001
0000
0110
0000
,
1001
1001
1100
1100
,
0100
0010
0001
0000
2000
0000
3000
0000
,
0101
0101
1100
1100
,
0001
0100
0010
1000
0001
0000
0100
0000
,
1001
1000
0001
0100
,
0010
1000
0001
0000
0200
0000
0300
0000
,
0001
0000
0001
0000
1000
0000
0100
0010
,
0000
0001
0000
1000
1100
0000
0101
0000
,
1001
1001
0110
0110
,
1000
0001
0010
0000
0200
0000
0300
0000
,
1100
1100
0011
0011
,
0001
1000
0010
0000
0200
0000
0301
0000
,
1000
0000
0100
0000
0010
0001
0000
0100
,
0000
0010
1000
0000
0001
0000
0000
0000
,
0100
0000
0100
0000
0010
0000
1000
0100
,
0000
1000
0001
1000
0001
0000
0110
0000
,
1001
1000
0001
0001
0100
0010
1000
0000
,
0010
0010
0100
0100
0001
0010
0100
1000
,
0001
0000
0100
0000
0010
1000
0001
0000
,
0010
0010
0100
0100
1000
0001
0100
0100
,
1001
1000
0001
0001
,
0100
0010
1000
0000
0001
0000
0000
0000
,
0100
0100
0010
0010
,
1000
0001
0010
0000
0100
0000
1000
0000
,
0101
0100
0010
1000
,
0001
0010
0100
0000
1000
0000
0000
0000
,
0001
0000
0100
0000
0010
0000
1000
0002
,
0000
0000
0000
1003
0000
0000
0000
0000
1100
0000
0000
0000
0101
0000
0000
0000
,
1100
0000
0101
0000
0100
0010
1000
0000
,
0001
0000
1010
1010
,
0011
0000
0011
0000
0100
0010
1000
0000
,
0001
0010
1001
1000
,
0010
0000
0100
0000
0001
0010
0100
0000
,
1000
0000
0001
0001
,
0100
0000
0010
1000
0000
0001
0000
0010
,
0110
0110
0011
1010
,
0011
0000
1010
0000
1000
0001
0100
0000
,
0010
0000
0101
0101
,
1100
0000
1100
0000
1000
0001
0010
0000
,
0100
1000
0001
0100
,
0010
1000
0000
0001
0000
0100
0010
0000
,
1000
0000
0001
1000
,
0100
0000
0010
0001
0000
1000
0001
1000
,
0001
0000
0110
0000
1001
1000
0001
0000
,
0100
0000
0010
0000
1000
0001
0100
0000
,
0010
0000
1000
0000
0001
0010
0100
0000
,
1000
0000
0100
0000
0010
0001
1000
0010
,
0110
0000
1001
0000
0001
0100
0010
0000
,
1000
0000
0001
0000
0010
0100
1000
0000
,
0100
0000
0010
0000
0100
1000
0001
0000
,
0100
0000
0010
0000
1000
0001
0100
0010
,
0110
1001
0110
0000
,
0000
0000
0000
1001
0000
1000
0001
0100
,
0010
1001
0000
0000
;

//---------------dance-single - ----------------
#NOTES:
     dance-single:
     :
     Easy:
     4:
     0.321,0.337,0.337,0.000,0.004,272.000,48.000,0.000,0.000,0.000,0.000,0.321,0.337,0.337,0.000,0.004,272.000,48.000,0.000,0.000,0.000,0.000:
0000
0000
0000
0000
,
0000
0000
0000
0000
,
1000
0000
0001
0000
,
0010
0100
1000
0001
,
0100
0000
0010
0000
,
1000
0100
1001
1001
,
0110
0000
0010
0000
,
1000
0001
0010
0100
,
1000
0000
0010
0000
,
0100
0001
1100
1100
,
1001
0000
0100
0000
,
0010
1000
0001
0000
,
0010
0000
0100
0000
,
1000
0100
0010
0000
,
0001
0000
0100
0000
,
0010
1000
0001
0000
,
0010
0010
0100
0100
,
1000
0001
0101
0101
,
1001
0000
1000
0000
,
0010
0100
0001
0000
,
0010
0000
0100
0000
,
1000
0001
0100
0000
,
0010
0000
1000
0000
,
0001
0010
0100
1000
,
0010
0010
0100
0100
,
0001
1000
1100
1100
,
1001
0001
0001
0100
,
0010
0010
0010
1000
,
0001
0101
0000
1100
,
0000
0110
0110
1001
,
0000
1000
0001
0100
,
0000
0010
1000
0001
,
0010
0000
0000
0000
0100
0000
0000
1001
,
0000
0100
0100
0000
,
1000
1100
0001
0101
,
1000
0001
0100
0000
,
0010
1010
0010
1010
,
1000
0001
0010
0010
,
0100
0000
1000
0000
,
0001
0100
0010
0000
,
1000
1000
0001
0001
,
0100
0010
1100
1100
,
0001
0101
1000
1100
,
0001
1000
0010
0000
,
0100
0110
0100
0110
,
0010
1000
0001
0010
,
0100
0000
1000
0000
,
0001
0100
0010
0000
,
1000
0000
1000
0000
0001
0000
0000
0101
,
0000
1000
1000
0000
,
1001
0001
0100
0100
,
0010
1000
0010
0010
,
0100
0001
0010
0100
,
1000
0000
0001
0000
0100
0000
0010
0010
,
1000
1000
0001
0001
,
0100
0010
1000
0000
,
0001
0001
0010
0010
,
0100
0000
1000
0000
,
0101
0000
0100
0000
,
0010
1000
0001
0000
,
0010
0000
0010
0000
0100
0000
0000
1000
,
0000
0000
0000
0001
0000
0000
0000
0000
1000
0000
0000
0000
1001
0000
0000
0000
,
0001
1001
0100
0010
,
1000
0000
0010
0011
,
0010
0011
0001
0000
,
1000
0000
0100
0000
,
0010
0000
0001
1000
,
0010
0000
0100
0100
,
0001
0000
1000
0001
,
0100
0100
0010
1010
,
0100
0101
1000
0001
,
0010
0000
0100
1100
,
0100
1100
1000
0001
,
0100
0100
0010
0000
,
1000
0000
0001
0010
,
0100
0000
1000
1000
,
0001
0000
0000
1001
0000
0000
0100
0000
,
0100
0000
1001
0000
,
1000
0000
0010
0100
,
0001
0010
0100
0000
,
1000
0000
0001
0100
,
0110
0110
1001
0000
,
1000
0000
0001
0010
,
0100
1000
0001
0000
,
0100
0000
0010
1000
,
0101
0101
1001
0000
,
0000
0000
0000
0100
0000
0100
0100
0100
,
0100
1001
0000
0000
;

//---------------dance-single - ----------------
#NOTES:
     dance-single:
     :
     Beginner:
     2:
     0.131,0.183,0.000,0.000,0.000,131.000,0.000,0.000,0.000,0.000,0.000,0.131,0.183,0.000,0.000,0.000,131.000,0.000,0.000,0.000,0.000,0.000:
0000
0000
0000
0000
,
0000
0000
0000
0000
,
1000
0000
0000
0000
,
0001
0000
0000
0000
,
0100
0000
0000
0000
,
0010
0000
0010
0010
,
0010
0000
0000
0000
,
1000
0000
0000
0000
,
0001
0000
0000
0000
,
0100
0000
0100
0100
,
0100
0000
0100
0000
,
0010
0000
0000
0000
,
1000
0000
1000
0000
,
0001
0000
0000
0000
,
0010
0000
0010
0000
,
0100
0000
0000
0000
,
1000
0000
1000
0000
,
0001
0000
0100
0100
,
0100
0000
0000
0000
,
0010
0000
0000
0000
,
1000
0000
0001
0000
,
0100
0000
0000
0000
,
0010
0000
1000
0000
,
0001
0000
0000
0000
,
1000
0000
0000
0000
,
0001
0000
0001
0000
,
1000
1000
1000
0000
,
0001
0001
0001
0000
,
0100
0000
0100
0000
,
0010
0000
0010
0000
,
1000
0000
0000
0000
,
0001
0000
0000
0000
,
0100
0000
0100
0000
,
0010
0010
0010
0000
,
1000
0000
1000
0000
,
0001
0000
0000
0000
,
0100
0000
0100
0000
,
0010
0000
0000
0000
,
0100
0000
0000
0000
,
0010
0000
0000
0000
,
1000
0000
0000
0000
,
0001
0000
0000
0000
,
0100
0000
0100
0000
,
0010
0000
0000
0000
,
1000
0000
1000
0000
,
0001
0000
0000
0000
,
0010
0000
0000
0000
,
0100
0000
0000
0000
,
1000
0000
0000
0000
,
0001
0001
0001
0000
,
1000
1000
1000
0000
,
0001
0001
0001
0000
,
0100
0000
0100
0000
,
0010
0000
0010
0000
,
1000
0000
0000
0000
,
0001
0000
0000
0000
,
0100
0000
0000
0000
,
0010
0000
0000
0000
,
1000
0000
0000
0000
,
0001
0000
0000
0000
,
0010
0000
0000
0000
,
0000
0000
0001
0000
,
0001
0000
1000
0000
,
0000
0000
0010
0000
,
0010
0000
0100
0000
,
0000
0000
0001
0000
,
0000
0000
1000
0000
,
0000
0000
0010
0000
,
0000
0000
0100
0000
,
0000
0000
0001
0000
,
0001
0000
0010
0000
,
0000
0000
0100
0000
,
0100
0000
1000
0000
,
0000
0000
0010
0000
,
0000
0000
0100
0000
,
0000
0000
0001
0000
,
0000
0000
1000
1000
,
1000
0000
0001
0000
,
0000
0000
0100
0000
,
0000
0000
0010
0000
,
0000
0000
1000
0000
,
1000
1000
1000
0000
,
0000
0000
0001
0000
,
0000
0000
0010
0000
,
0000
0000
0100
0000
,
0100
0100
0100
0000
,
0000
0000
0000
1000
0000
0000
1000
0000
,
1000
0000
0000
0000
;
