#TITLE:Luigi's Mansion;
#SUBTITLE:Luigi's Mansion (2001);
#ARTIST:Pegboard Nerds;
#TITLETRANSLIT:;
#SUBTITLETRANSLIT:;
#ARTISTTRANSLIT:;
#GENRE:;
#CREDIT:;
#BANNER:Luigi's Mansion-bn.png;
#BACKGROUND:Luigi's Mansion-bg.png;
#LYRICSPATH:;
#CDTITLE:cdtitle.png;
#MUSIC:Luigi's Mansion.mp3;
#OFFSET:-0.465000;
#SAMPLESTART:78.232193;
#SAMPLELENGTH:13.199990;
#SELECTABLE:YES;
#DISPLAYBPM:72.500000:290.000000;
#BGCHANGES: 0.000=Luigi's Mansion-bg.png=1.000=1=0=0=StretchNoLoop====,
99999=-nosongbg-=1.000=0=0=0
;
#BPMS:0.000000=72.500000
,22.000000=145.000000
,54.000000=72.500000
,68.000000=1160.000000
,92.000000=145.000000
,94.000000=253.199982
,94.875000=36.250000
,95.000000=290.000000
,99.000000=145.000000
,100.000000=253.199982
,100.875000=36.250000
,101.000000=290.000000
,103.000000=145.000000
,103.500000=290.000000
,109.000000=72.500000
,110.000000=253.199982
,110.875000=36.250000
,111.000000=145.000000
,111.500000=290.000000
,118.000000=145.000000
,118.500000=290.000000
,123.000000=145.000000
,125.000000=72.500000
,126.000000=1160.000000
,131.000000=145.000000
,132.000000=580.000000
,132.500000=145.000000
,133.000000=580.000000
,133.500000=145.000000
,134.000000=580.000000
,134.500000=145.000000
,135.000000=580.000000
,135.500000=145.000000
,136.000000=290.000000
,138.000000=580.000000
,138.500000=290.000000
,139.000000=253.199982
,139.875000=36.250000
,140.125000=253.999985
,141.000000=290.000000
,143.000000=36.250000
,143.125000=253.199982
,144.000000=36.250000
,144.125000=253.999985
,145.000000=290.000000
,149.000000=253.199982
,149.875000=36.250000
,150.000000=253.199982
,150.875000=36.250000
,151.000000=580.000000
,151.500000=145.000000
,152.000000=580.000000
,152.500000=145.000000
,153.000000=580.000000
,153.500000=145.000000
,154.000000=580.000000
,154.500000=145.000000
,155.000000=290.000000
,158.000000=145.000000
,158.500000=290.000000
,163.000000=145.000000
,165.000000=72.500000
,166.000000=9.090000
,167.000000=72.500000
,183.000000=145.000000
,215.000000=652.000000
,219.500000=72.500000
,220.000000=580.000000
,220.500000=145.000000
,221.000000=580.000000
,221.500000=145.000000
,222.000000=580.000000
,222.500000=145.000000
,223.000000=580.000000
,223.500000=145.000000
,224.000000=580.000000
,228.000000=145.000000
,230.000000=580.000000
,230.500000=145.000000
,231.000000=580.000000
,231.500000=145.000000
,232.000000=580.000000
,232.500000=145.000000
,233.000000=580.000000
,233.500000=145.000000
,234.000000=580.000000
,234.500000=145.000000
,237.000000=253.199982
,237.875000=36.250000
,238.000000=580.000000
,238.500000=145.000000
,239.000000=36.250000
,239.125000=253.199982
,240.000000=580.000000
,240.500000=145.000000
,241.000000=36.250000
,241.125000=253.199982
,242.000000=580.000000
,242.500000=145.000000
,243.000000=290.000000
,246.000000=145.000000
,246.500000=290.000000
,251.000000=145.000000
,253.000000=72.500000
,254.000000=652.000000
,258.500000=72.500000
,259.000000=290.000000
,263.000000=145.000000
,264.000000=253.199982
,264.875000=36.250000
,265.000000=290.000000
,267.000000=145.000000
,267.500000=290.000000
,273.000000=72.500000
,274.000000=253.199982
,274.875000=36.250000
,275.000000=145.000000
,275.500000=290.000000
,282.000000=145.000000
,282.500000=290.000000
,287.000000=145.000000
,289.000000=72.500000
;
#STOPS:95.000000=0.103000,
95.500000=0.051000,
95.750000=0.052000,
96.000000=0.052000,
96.250000=0.052000,
96.500000=0.051000,
96.750000=0.052000,
97.000000=0.052000,
97.250000=0.052000,
97.500000=0.051000,
97.750000=0.052000,
98.000000=0.052000,
98.250000=0.052000,
98.500000=0.051000,
98.750000=0.052000,
103.500000=0.052000,
103.750000=0.052000,
104.000000=0.104000,
104.500000=0.104000,
105.000000=0.103000,
105.500000=0.103000,
106.000000=0.103000,
106.500000=0.103000,
111.500000=0.051000,
111.750000=0.052000,
112.000000=0.052000,
112.250000=0.052000,
112.500000=0.051000,
112.750000=0.052000,
113.000000=0.052000,
113.250000=0.052000,
113.500000=0.051000,
113.750000=0.052000,
114.000000=0.052000,
114.250000=0.052000,
114.500000=0.051000,
114.750000=0.052000,
115.000000=0.052000,
115.250000=0.052000,
115.500000=0.051000,
115.750000=0.052000,
116.000000=0.103000,
116.500000=0.103000,
117.000000=0.104000,
117.500000=0.104000,
118.500000=0.103000,
119.000000=0.103000,
119.500000=0.103000,
122.000000=0.104000,
122.500000=0.104000,
131.000000=0.155000,
132.000000=0.155000,
133.000000=0.155000,
134.000000=0.155000,
135.000000=0.156000,
138.000000=0.155000,
138.500000=0.103000,
147.000000=0.103000,
147.500000=0.103000,
148.000000=0.052000,
148.250000=0.052000,
148.500000=0.103000,
151.000000=0.155000,
152.000000=0.155000,
153.000000=0.155000,
154.000000=0.156000,
157.000000=0.103000,
157.500000=0.103000,
158.500000=0.104000,
159.000000=0.104000,
159.500000=0.104000,
162.000000=0.103000,
162.500000=0.103000,
220.000000=0.156000,
221.000000=0.155000,
222.000000=0.155000,
223.000000=0.155000,
230.000000=0.156000,
231.000000=0.155000,
232.000000=0.155000,
233.000000=0.155000,
234.000000=0.155000,
238.000000=0.155000,
240.000000=0.155000,
242.000000=0.155000,
245.000000=0.103000,
245.500000=0.103000,
246.500000=0.103000,
247.000000=0.104000,
247.500000=0.104000,
250.000000=0.103000,
250.500000=0.103000,
259.000000=0.103000,
259.500000=0.051000,
259.750000=0.052000,
260.000000=0.052000,
260.250000=0.052000,
260.500000=0.051000,
260.750000=0.052000,
261.000000=0.052000,
261.250000=0.052000,
261.500000=0.051000,
261.750000=0.052000,
262.000000=0.052000,
262.250000=0.052000,
262.500000=0.051000,
262.750000=0.052000,
267.500000=0.052000,
267.750000=0.052000,
268.000000=0.104000,
268.500000=0.104000,
269.000000=0.103000,
269.500000=0.103000,
270.000000=0.103000,
270.500000=0.103000,
275.500000=0.051000,
275.750000=0.052000,
276.000000=0.051000,
276.250000=0.052000,
276.500000=0.051000,
276.750000=0.052000,
277.000000=0.052000,
277.250000=0.052000,
277.500000=0.051000,
277.750000=0.052000,
278.000000=0.052000,
278.250000=0.052000,
278.500000=0.051000,
278.750000=0.052000,
279.000000=0.052000,
279.250000=0.052000,
279.500000=0.051000,
279.750000=0.052000,
280.000000=0.103000,
280.500000=0.103000,
281.000000=0.104000,
281.500000=0.104000,
282.500000=0.103000,
283.000000=0.103000,
283.500000=0.103000,
286.000000=0.104000,
286.500000=0.104000
;
#BGCHANGES:;
#KEYSOUNDS:;
#ATTACKS:;

//---------------dance-single - ----------------
#NOTES:
     dance-single:
     :
     Challenge:
     1337:
     0.737873,1.551528,1.320295,1.153444,0.554959,712.000000,503.000000,182.000000,159.000000,121.000000,58.000000,0.737873,1.551528,1.320295,1.153444,0.554959,712.000000,503.000000,182.000000,159.000000,121.000000,58.000000:
// measure 0
0000
0000
0000
0000
,  // measure 1
0000
0000
0000
0000
,  // measure 2
0000
0000
0000
0000
,  // measure 3
0000
0000
0000
0000
,  // measure 4
0000
0000
0000
0000
,  // measure 5
0000
0000
0000
0000
1001
0010
0010
0010
,  // measure 6
0120
0000
0230
0302
1023
0130
0210
0010
,  // measure 7
1001
0000
0010
0300
1010
0100
0100
0100
,  // measure 8
0210
0000
0000
0000
2300
0000
3002
0000
1203
0010
0301
0010
0100
0010
2100
0010
,  // measure 9
3021
0000
0000
0100
0000
0000
0031
0000
0000
1000
0000
0000
0210
0000
0000
0001
0000
0000
1300
0000
0100
0000
0010
0000
1001
0000
0000
0000
0000
0000
0010
0000
0000
0000
0000
0000
0010
0000
0000
0000
0000
0000
0010
0000
0000
0000
0000
0000
,  // measure 10
0120
0000
0230
0302
1023
0130
0210
0010
,  // measure 11
1001
0000
0010
0300
1010
0100
0101
0100
,  // measure 12
0210
0000
2301
3200
0312
0023
1230
2300
,  // measure 13
3011
0000
0000
0000
0000
0000
0000
0000
0010
0000
0000
0000
0000
0000
0000
0000
1010
0000
0001
0000
0002
0000
0000
0000
0013
0010
001M
0000
0020
0000
0000
0000
,  // measure 14
0130
0100
01M0
0000
0200
0000
0000
0000
1300
1000
1M00
0000
2000
0000
0000
0000
3001
0001
M001
0000
0002
0000
0000
0000
0103
0100
010M
0000
0200
0000
0302
0000
,  // measure 15
0013
0000
0010
0000
0M10
0000
0000
0000
0020
0000
0000
0000
0000
0000
0000
0000
1030
0000
1000
0000
10M0
0000
0000
0000
2000
0000
0000
0000
0000
0000
0000
3000
1010
0000
0000
0000
0000
0000
0000
0000
0011
0000
0000
0000
0000
0000
0000
0000
1010
0000
0000
0000
0000
0000
0000
0000
0011
0000
0000
0000
0000
0000
0000
0000
,  // measure 16
1010
0000
0000
0000
0011
0000
0000
0000
1010
0000
0000
0000
0011
0000
0000
0000
1100
0000
0011
0000
1001
0000
1010
0000
1001
0110
1001
0110
1001
0110
1001
0110
,  // measure 17
2002
0000
0000
0000
0000
0000
0000
0M00
,  // measure 18
00M0
0M00
00M0
0M00
00M0
0M00
00M0
0M00
,  // measure 19
00M0
0M00
00M0
0M00
00M0
0M00
00M0
0M00
,  // measure 20
00M0
0M00
00M0
0M00
00M0
0M00
00M0
0M00
,  // measure 21
00M0
0M00
00M0
0M00
00M0
0M00
00M0
0M00
,  // measure 22
00M0
0M00
00M0
0M00
00M0
0M00
00M0
0M00
,  // measure 23
30M3
0000
0000
M00M
1111
0000
0000
0000
1000
0000
00MM
0000
2001
3001
0100
0100
,  // measure 24
100M
1000
0100
0100
0011
0001
0100
0100
100M
1000
0100
0010
1002
0000
0000
0000
,  // measure 25
0103
0000
0000
0000
2022
3000
0030
0003
0000
0000
0000
0000
0110
0000
1000
0100
,  // measure 26
0011
010M
100M
010M
101M
M001
2002
3003
,  // measure 27
0000
0000
0000
0000
M00M
0000
0000
0000
1000
0100
0010
0000
0100
0010
0001
0000
2220
0000
3000
0000
0300
0000
0030
0000
2002
0000
0003
0000
3100
0000
0010
0000
,  // measure 28
1001
0001
0100
0100
100M
1000
0100
0100
0011
0001
0100
0100
100M
1000
0100
0100
,  // measure 29
0011
0001
1101
0010
1100
0010
0010
0010
,  // measure 30
1002
0000
0000
0000
0103
0010
1010
0100
,  // measure 31
1010
0000
0000
0000
0000
0000
0000
0000
1010
0000
0000
0000
0000
0000
0000
0000
2001
0000
0000
0000
3200
0000
0000
0000
0320
0000
0000
0000
0032
0000
0000
0003
1001
0000
0000
0000
0000
0000
0000
0000
0MF0
0000
0000
0000
0000
0000
0000
0000
0FM0
0000
0000
0000
0000
0000
0000
0000
0MF0
0000
0000
0000
0000
0000
0000
0000
,  // measure 32
0FM0
0MF0
0FM0
0MF0
0FM0
0MF0
FFFF
MMMM
,  // measure 33
1000
0000
M000
0000
0001
0000
000M
0000
1000
0000
M000
0000
0001
0000
0001
0010
,  // measure 34
2200
0000
0000
0000
0300
0000
0000
0000
3011
0000
0100
0000
2022
0003
0030
3000
,  // measure 35
0001
0010
0000
0000
0000
0000
0000
0000
1101
0000
0000
0000
0000
0000
0000
0000
M000
0000
0000
0000
0000
0000
0000
0000
0001
0010
0000
0000
M000
0000
0000
0000
,  // measure 36
0001
0010
0000
0000
M000
0000
0000
0000
0111
0000
0000
0000
0000
0000
0000
0000
0000
0000
0000
0000
0000
0000
0000
0000
1011
0000
0000
0000
1000
0000
0000
0000
,  // measure 37
1000
0001
1000
0000
2022
3000
0030
0003
0100
0000
0M00
0000
1001
0000
000M
0000
,  // measure 38
1000
0000
0100
0000
0011
0000
000M
0000
1000
0000
1000
0100
1012
0000
0003
0000
,  // measure 39
0002
0003
1101
1000
1010
0100
0100
0100
,  // measure 40
2010
0000
0000
3000
0100
0010
0101
0010
,  // measure 41
1001
0000
0000
0000
0101
0000
0000
0000
2101
0010
3200
0000
0302
0000
0023
0000
0032
MMF0
MFM0
FMM0
MMF0
FMM3
MFM0
MMF0
1001
0000
0021
0030
0001
0000
0021
0030
,  // measure 42
0021
0030
0001
0000
0201
0300
0021
0030
0201
0300
0001
0000
2001
3000
0001
0000
0001
0000
0001
0000
0001
0000
0001
0000
0001
0000
0021
0030
0001
0000
0021
0030
,  // measure 43
0021
0030
0001
0000
0201
0300
0021
0030
0201
0300
0001
0000
0001
0000
0201
0300
0021
0030
0001
0000
2001
3000
0001
0000
0201
0000
0021
0030
0001
0000
0321
0030
,  // measure 44
0221
0300
0001
0000
2001
3000
0231
0300
2201
3000
0001
0000
0021
0030
0301
0000
2001
0000
0001
0000
0001
0000
3001
0000
0201
0000
0021
0030
0001
0000
0321
0030
,  // measure 45
2021
0030
0001
0000
0201
0300
3021
0030
1002
0013
0200
0300
0021
0130
2000
3010
2001
0000
0001
0000
0001
0000
3001
0000
1001
0000
0000
0000
0010
0000
0000
0000
,  // measure 46
0010
0010
0120
0100
0230
0302
1023
0130
,  // measure 47
0210
0010
1001
0010
0010
0310
1010
0100
,  // measure 48
0100
0000
0100
0000
0210
0000
0010
0000
2300
0000
3002
0000
0023
0100
0031
0010
,  // measure 49
0100
0000
0000
0010
0000
0000
0200
0000
0000
1000
0000
0000
0312
0000
0000
0100
0000
0000
0013
0000
0000
0100
0000
0000
2000
0000
0000
0001
0000
3000
1000
0000
0100
0000
0010
0000
1001
0000
0000
0000
0000
0000
0010
0000
0000
0000
0000
0000
,  // measure 50
0010
0010
0120
0100
0230
0302
1023
0130
,  // measure 51
0200
0010
1001
0010
0010
0310
1010
0110
,  // measure 52
0110
0110
0210
0010
2310
3210
0312
0123
,  // measure 53
1230
2310
3120
0000
0000
0030
2112
0000
,  // measure 54
0000
0000
0000
3003
,  // measure 55
1000
M000
0010
00M0
1000
M000
0010
00M0
,  // measure 56
0002
0000
0000
0003
,  // measure 57
0MM0
0000
0000
0000
1202
0300
0003
0000
1000
0000
0001
0000
010M
0000
0000
0000
,  // measure 58
1000
0000
0001
0000
010M
0000
0000
0000
1000
0000
000M
0000
1010
0101
0000
0011
,  // measure 59
0100
0000
1000
0000
0011
0000
0000
0000
2202
0000
0000
0000
3303
0000
0000
0000
2010
0000
3000
0000
0000
0000
0000
0000
1110
0001
0000
0000
0000
0000
0000
0000
,  // measure 60
0001
0000
0000
0000
00M0
0000
0000
0000
1100
0001
0000
0000
0000
0000
0000
0000
0001
0000
0000
0000
00M0
0000
0000
0000
1012
0000
0000
0000
0003
0000
0000
0000
,  // measure 61
0002
0003
1101
1000
1010
0100
0100
0100
,  // measure 62
2010
0000
0000
3000
0100
0010
1001
0011
,  // measure 63
1100
0000
0000
0000
1010
0000
0000
0000
1101
0010
2000
0000
3200
0000
0320
0000
1031
0000
0000
0000
0000
0000
0000
0000
0000
0000
0000
0000
0000
0000
0000
0000
,  // measure 64
0000
0000
0000
0000
0000
0000
0000
0000
0000
0000
M00M
0000
0120
0031
0100
0100
,  // measure 65
100M
1000
0100
0100
0011
0001
0100
0100
100M
1000
0100
0100
2001
0000
0000
0000
,  // measure 66
3100
0000
0000
0000
2022
3000
0030
0003
0000
0000
0000
0000
0110
0000
1000
0100
,  // measure 67
0011
0100
1000
0100
0110
0001
2002
3003
,  // measure 68
0000
0000
0000
0000
0000
0000
0000
0000
1000
0100
0010
0000
0100
0010
0001
0000
0110
0000
0000
0000
0000
0000
0000
0000
1011
0000
0000
0000
0100
0000
0010
0000
,  // measure 69
1001
0001
0100
0100
100M
1000
0100
0100
0011
0001
0100
0100
100M
1000
0100
0100
,  // measure 70
0011
0001
1101
0010
1100
0010
0010
0010
,  // measure 71
1002
0000
0000
0000
0000
0000
0000
0000
0103
0000
0010
0000
1002
0003
0020
0030
,  // measure 72
0201
0000
0300
0000
2000
0000
3000
0000
1001
F00F
0FF0
0FF0
F00F
F00F
0FF0
0FF0
MMMM
0000
0000
0000
0000
0000
0000
0000
0000
0000
0000
0000
0000
0000
0000
0000
;

//---------------dance-single - ----------------
#NOTES:
     dance-single:
     :
     Hard:
     1337:
     0.693310,1.551528,1.269514,1.153444,0.478788,669.000000,467.000000,175.000000,159.000000,119.000000,54.000000,0.693310,1.551528,1.269514,1.153444,0.478788,669.000000,467.000000,175.000000,159.000000,119.000000,54.000000:
0000
0000
0000
0000
,
0000
0000
0000
0000
,
0000
0000
0000
0000
,
0000
0000
0000
0000
,
0000
0000
0000
0000
,
0000
0000
0000
0000
1001
0010
0010
0010
,
0120
0000
0230
0302
1023
0130
0210
0010
,
1001
0000
0010
0300
1010
0100
0100
0100
,
0210
0000
2300
3002
1203
0300
0010
2100
,
3021
0000
0000
0030
0000
0000
0210
0000
0000
1300
0100
0010
1001
0000
0000
0010
0000
0000
0010
0000
0000
0010
0000
0000
,
0120
0000
0230
0302
1023
0130
0210
0010
,
1001
0000
0010
0300
1010
0100
0100
0100
,
0210
0000
2300
3200
0312
0023
1230
2300
,
3011
0000
0000
0000
0000
0000
0000
0000
1010
0001
0002
0000
0013
001M
0020
0000
,
0130
01M0
0200
0000
1300
1M00
2000
0000
3001
M001
0002
0000
0103
010M
0200
0302
,
0013
0000
0000
0000
0M10
0000
0000
0000
0020
0000
0000
0000
0000
0000
0000
0000
1030
0000
0000
0000
10M0
0000
0000
0000
2000
0000
0000
0000
0000
0000
0000
3000
1010
0000
0000
0000
0000
0000
0000
0000
0011
0000
0000
0000
0000
0000
0000
0000
1010
0000
0000
0000
0000
0000
0000
0000
0011
0000
0000
0000
0000
0000
0000
0000
,
1010
0000
0000
0000
0011
0000
0000
0000
1010
0000
0000
0000
0011
0000
0000
0000
1100
0000
0011
0000
1001
0000
1010
0000
1001
0110
1001
0110
1001
0110
1001
0110
,
2002
0000
0000
0000
0000
0000
0000
0M00
,
00M0
0M00
00M0
0M00
00M0
0M00
00M0
0M00
,
00M0
0M00
00M0
0M00
00M0
0M00
00M0
0M00
,
00M0
0M00
00M0
0M00
00M0
0M00
00M0
0M00
,
00M0
0M00
00M0
0M00
00M0
0M00
00M0
0M00
,
00M0
0M00
00M0
0M00
00M0
0M00
00M0
0M00
,
30M3
0000
0000
M00M
1111
0000
0000
0000
1000
0000
00MM
0000
2001
3001
0100
0100
,
1000
1000
0100
0100
0011
0001
0100
0100
1000
1000
0100
0010
1002
0000
0000
0000
,
0103
0000
0000
0000
2022
3000
0030
0003
0000
0000
0000
0000
0110
0000
1000
0100
,
0011
010M
100M
010M
101M
M001
2002
3003
,
0000
0000
0000
0000
M00M
0000
0000
0000
1000
0100
0010
0000
0100
0010
0001
0000
2220
0000
3000
0000
0300
0000
0030
0000
2002
0000
0003
0000
3100
0000
0010
0000
,
1001
0001
0100
0100
100M
1000
0100
0100
0011
0001
0100
0100
100M
1000
0100
0100
,
0011
0001
1101
0010
1100
0010
0010
0010
,
1002
0000
0000
0000
0103
0010
1010
0100
,
1010
0000
0000
0000
0000
0000
0000
0000
1010
0000
0000
0000
0000
0000
0000
0000
2001
0000
0000
0000
3200
0000
0000
0000
0320
0000
0000
0000
0032
0000
0000
0003
1001
0000
0000
0000
0000
0000
0000
0000
0MF0
0000
0000
0000
0000
0000
0000
0000
0FM0
0000
0000
0000
0000
0000
0000
0000
0MF0
0000
0000
0000
0000
0000
0000
0000
,
0FM0
0MF0
0FM0
0MF0
0FM0
0MF0
FFFF
MMMM
,
1000
0000
000M
0000
0001
0000
M000
0000
1000
0000
000M
0000
0001
0000
M001
0010
,
2200
0000
0000
0000
0300
0000
0000
0000
3011
0000
0100
0000
2022
0003
0030
3000
,
0001
0010
0000
0000
0000
0000
0000
0000
1101
0000
0000
0000
0000
0000
0000
0000
M000
0000
0000
0000
0000
0000
0000
0000
0001
0010
0000
0000
M000
0000
0000
0000
,
0001
0010
0000
0000
M000
0000
0000
0000
0111
0000
0000
0000
0000
0000
0000
0000
0000
0000
0000
0000
0000
0000
0000
0000
1011
0000
0000
0000
1000
0000
0000
0000
,
1000
0001
1000
0000
2022
3000
0030
0003
0100
0000
0000
0000
1001
0000
00M0
0000
,
1000
0000
0100
0000
0011
0000
00M0
0000
1000
0000
1000
0100
1012
0000
0003
0000
,
0002
0003
1101
1000
1010
0100
0100
0100
,
2010
0000
0000
3000
0100
0010
0101
0010
,
1001
0000
0000
0000
0101
0000
0000
0000
2101
0010
3200
0000
0302
0000
0023
0000
0032
MMF0
MFM0
FMM0
MMF0
FMM3
MFM0
MMF0
1001
0000
0021
0030
0001
0000
0021
0030
,
0021
0030
0001
0000
0201
0300
0021
0030
0201
0300
0001
0000
2001
3000
0001
0000
0001
0000
0001
0000
0001
0000
0001
0000
0001
0000
0021
0030
0001
0000
0021
0030
,
0021
0030
0001
0000
0201
0300
0021
0030
0201
0300
0001
0000
0001
0000
0201
0300
0021
0030
0001
0000
2001
3000
0001
0000
0201
0000
0021
0030
0001
0000
0321
0030
,
0221
0300
0001
0000
2001
3000
0231
0300
2201
3000
0001
0000
0021
0030
0301
0000
2001
0000
0001
0000
0001
0000
3001
0000
0201
0000
0021
0030
0001
0000
0321
0030
,
2021
0030
0001
0000
0201
0300
3021
0030
1002
0013
0200
0300
0021
0130
2000
3010
2001
0000
0001
0000
0001
0000
3001
0000
1001
0000
0000
0000
0010
0000
0000
0000
,
0010
0010
0120
0000
0230
0302
1023
0130
,
0210
0010
1001
0000
0010
0300
1010
0100
,
0100
0100
0210
0000
2300
3002
1023
0130
,
0010
0000
0000
0000
0000
0000
1200
0000
0000
0000
0000
0000
0312
0000
0000
0000
0000
0000
0003
0000
0000
0000
0000
0000
2000
0000
0000
0000
0000
3000
1000
0000
0100
0000
0010
0000
1001
0000
0000
0000
0000
0000
0010
0000
0000
0000
0000
0000
,
0010
0010
0120
0000
0230
0302
1023
0030
,
0200
0000
1001
0000
0000
0300
1010
0100
,
0100
0100
0210
0000
2300
3200
0312
0023
,
1230
2300
3120
0000
0000
0030
2112
0000
,
0000
0000
0000
3003
,
1000
M000
0010
00M0
1000
M000
0010
00M0
,
0002
0000
0000
0003
,
0MM0
0000
0000
0000
1202
0300
0003
0000
1000
0000
0001
0000
010M
0000
0000
0000
,
1000
0000
0001
0000
010M
0000
0000
0000
1000
0000
000M
0000
1010
0101
0000
0011
,
0100
0000
1000
0000
0011
0000
0000
0000
2202
0000
0000
0000
3303
0000
0000
0000
2010
0000
3000
0000
0000
0000
0000
0000
1110
0001
0000
0000
0000
0000
0000
0000
,
0001
0000
0000
0000
00M0
0000
0000
0000
1100
0001
0000
0000
0000
0000
0000
0000
0001
0000
0000
0000
00M0
0000
0000
0000
1012
0000
0000
0000
0003
0000
0000
0000
,
0002
0003
1101
1000
1010
0100
0100
0100
,
2010
0000
0000
3000
0100
0010
1001
0011
,
1100
0000
0000
0000
1010
0000
0000
0000
1101
0010
2000
0000
3200
0000
0320
0000
1031
0000
0000
0000
0000
0000
0000
0000
0000
0000
0000
0000
0000
0000
0000
0000
,
0000
0000
0000
0000
0000
0000
0000
0000
0000
0000
M00M
0000
0120
0031
0100
0100
,
100M
1000
0100
0100
0011
0001
0100
0100
100M
1000
0100
0100
2001
0000
0000
0000
,
3100
0000
0000
0000
2022
3000
0030
0003
0000
0000
0000
0000
0110
0000
1000
0100
,
0011
0100
1000
0100
0110
0001
2002
3003
,
0000
0000
0000
0000
0000
0000
0000
0000
1000
0100
0010
0000
0100
0010
0001
0000
0110
0000
0000
0000
0000
0000
0000
0000
1011
0000
0000
0000
0100
0000
0010
0000
,
1001
0001
0100
0100
100M
1000
0100
0100
0011
0001
0100
0100
100M
1000
0100
0100
,
0011
0001
1101
0010
1100
0010
0010
0010
,
1002
0000
0000
0000
0000
0000
0000
0000
0103
0000
0010
0000
1002
0003
0020
0030
,
0201
0000
0300
0000
2000
0000
3000
0000
1001
F00F
0FF0
0FF0
F00F
F00F
0FF0
0FF0
MMMM
0000
0000
0000
0000
0000
0000
0000
0000
0000
0000
0000
0000
0000
0000
0000
;
