#TITLE:Love Hina OP;
#SUBTITLE:Sakura Saku;
#ARTIST:林原めぐみ;
#TITLETRANSLIT:;
#SUBTITLETRANSLIT:;
#ARTISTTRANSLIT:Megumi Hayashibara;
#CREDIT:;
#BANNER:Love Hina.png;
#BACKGROUND:Love Hina-bg.png;
#LYRICSPATH:;
#CDTITLE:!Oelmencdtitle.png;
#MUSIC:Love Hina - Sakura Saku (Opening Theme).mp3;
#OFFSET:-1.340;
#SAMPLESTART:40.698;
#SAMPLELENGTH:23.000;
#SELECTABLE:YES;
#BPMS:0.000=169.980,176.500=170.020,208.000=169.980;
#STOPS:;
#BGCHANGES:;

//---------------dance-single - ----------------
#NOTES:
     dance-single:
     :
     Challenge:
     13:
     1.000,1.000,1.000,0.259,0.468: // measure 1
0010
0100
0010
0100
0010
0100
0001
0000
0000
0100
0000
0000
0100
0000
0000
0100
0000
0000
0001
0000
0000
0100
0000
0000
,  // measure 2
0100
0000
0100
0000
0001
1000
0001
1000
0001
1000
0001
1000
0001
1000
0001
1000
,  // measure 3
0001
0000
0001
0000
0110
0000
0011
0000
0110
0000
1010
0001
1100
0010
1001
0000
,  // measure 4
0110
0000
0011
1000
0110
0000
1010
0000
1100
0000
0110
0000
1001
0000
0110
0000
,  // measure 5
0001
0000
0010
0000
0100
0000
1000
0000
0100
0000
0010
0000
0001
0000
0000
0000
0000
0000
0110
0000
0000
0000
0000
0000
0011
0000
0000
0000
0000
0000
0110
0000
0000
0001
0000
0000
1100
0000
0000
0010
0000
0000
0101
0000
0000
0000
0000
0000
,  // measure 6
0011
0000
0110
0001
1100
0000
0110
0000
0011
0000
0110
0000
1001
0000
0110
0000
,  // measure 7
1000
0000
0100
0000
0010
0000
0001
0000
0010
0000
0100
0000
1000
0000
0000
0000
0000
0000
0110
0000
0000
0000
0000
0000
1010
0000
0000
0000
0000
0000
0110
0000
0000
1000
0000
0000
0101
0000
0000
0010
0000
0000
1100
0000
0000
0000
0000
0000
,  // measure 8
1010
0000
0110
1000
0101
0000
0110
0000
1010
0000
0011
0000
0101
0000
0110
0000
,  // measure 9
1000
0000
0100
0000
0010
0000
0001
0000
0010
0000
0100
0000
1000
0000
0000
0000
0000
0000
1100
0000
0000
0000
0000
0000
0110
0000
0000
0000
0000
0000
0011
0000
0000
0100
0000
0000
1001
0000
0000
0010
0000
0000
0101
0000
0000
0000
0000
0000
,  // measure 10
1001
0000
0011
1000
0110
0000
1100
0000
1001
0000
0110
0000
0011
0000
0101
0000
,  // measure 11
1000
0000
0001
0000
0100
0000
0010
0000
1000
0000
0001
0000
0100
0000
0000
0000
0000
0000
2000
0000
0000
0000
0000
3000
0002
0000
0000
0000
0000
0003
0200
0000
0000
0000
0000
0300
0000
0000
0000
0000
0000
0000
0000
0000
0000
0000
0000
0000
,  // measure 12
2000
0000
0000
0000
0000
3000
0002
0000
0000
0000
0000
0003
0200
0000
0000
0000
0000
0300
2000
0000
0000
0000
0000
3000
0011
0000
0000
0000
0101
0000
0000
0000
1010
0000
0000
0000
0110
0000
0000
0000
0000
0000
0000
0000
0000
0000
0000
0000
,  // measure 13
1001
0000
0101
0110
0011
1001
0101
1000
,  // measure 14
0110
1010
0001
1100
0110
0101
1001
0100
,  // measure 15
0011
1001
0010
1100
1010
1001
0110
0101
,  // measure 16
0011
0000
1001
0000
0100
0000
1001
0000
0001
0000
1000
0010
0100
0001
1010
0000
,  // measure 17
0110
1000
0101
0110
1010
0110
0101
1000
,  // measure 18
0110
1010
0001
1100
0110
0011
0101
1000
,  // measure 19
0110
0001
1001
1010
0101
0011
1100
0010
,  // measure 20
0110
0000
1001
0000
0100
0000
0010
0000
0001
0000
0001
0010
1000
0001
0110
0000
,  // measure 21
1001
1000
1000
0000
2222
0000
3333
0000
,  // measure 22
0111
0000
0110
1100
0000
1110
0000
0021
,  // measure 23
0100
0130
0000
0000
2222
0000
3333
0000
,  // measure 24
1101
0000
0110
0011
0000
1011
0000
1200
,  // measure 25
0010
0310
0000
0011
1110
0011
1110
0101
,  // measure 26
0000
1010
0000
1001
1011
0110
1011
1100
,  // measure 27
0000
0011
1022
0000
0000
0000
0000
0000
,  // measure 28
0000
0033
1202
0000
0000
0000
0000
0000
0000
0000
0000
0000
0000
0303
1000
0000
,  // measure 29
1100
1110
1111
0001
1100
0010
1010
0001
,  // measure 30
0110
0010
1001
0001
0101
0020
0001
1030
,  // measure 31
0011
0100
0101
1000
1010
0100
0011
1000
,  // measure 32
0110
0100
1001
1000
0110
0200
0001
0310
,  // measure 33
1000
0100
0001
0110
1010
0110
1110
0110
,  // measure 34
1100
1000
1011
0100
0101
0110
1000
1000
,  // measure 35
0100
0100
0010
0011
0111
0001
0110
0110
,  // measure 36
0101
0000
1101
0000
0001
0000
0001
0000
0010
0000
0010
0000
0110
0001
1010
0100
,  // measure 37
0011
0100
1010
0100
1011
0000
0001
0000
1100
0000
0010
0000
0101
0000
0001
0000
,  // measure 38
1100
0010
0110
0001
1100
0010
1000
0011
,  // measure 39
0110
0011
0111
0001
0110
0010
1100
0010
,  // measure 40
0101
0001
1100
0011
0110
1101
0010
0010
,  // measure 41
0001
0001
0010
1010
0011
1010
1011
1000
,  // measure 42
0011
0100
0110
0010
1110
0111
1000
1000
,  // measure 43
0100
0100
0110
0111
1011
1110
0001
1101
,  // measure 44
0010
2222
0000
0000
0000
0000
0000
0000
,  // measure 45
3333
0000
0000
0000
0000
0000
0000
0010
0101
0000
0000
0000
0000
0000
0000
0000
0000
0000
0000
0000
1110
0000
0000
0000
0000
0000
0000
0000
0000
0000
0000
0000
,  // measure 46
0000
0000
0000
0000
0000
0000
0000
0010
1101
0000
0000
0000
0000
0000
0000
0000
0000
0000
0000
0000
0111
0000
0000
0000
0000
0000
0000
0000
0000
0000
0000
0000
,  // measure 47
0000
0000
0000
1111
0000
1111
1110
0000
,  // measure 48
1110
0000
0000
0000
0000
0000
0000
0100
0011
0000
0000
0000
0111
0000
0000
0000
0000
0000
0000
0000
1110
0000
0000
0000
0000
0000
0000
0000
0000
0000
0000
0000
,  // measure 49
0000
0000
0000
0000
0101
0000
0000
0110
0000
0000
1010
0000
0110
0000
0000
0011
,  // measure 50
0000
0000
1001
0000
1010
0000
0000
0110
0000
0000
0101
0000
1001
0000
0000
0110
,  // measure 51
0000
1010
0001
0100
0010
1000
0000
0000
,  // measure 52
0001
0100
0010
1000
0000
0001
0100
0010
,  // measure 53
0100
0010
0100
0010
0100
0010
1000
0000
0000
0110
0000
0000
1100
0000
0000
1001
0000
0000
1010
0000
0000
0001
0000
0000
,  // measure 54
0110
0101
1000
0011
0110
1010
1001
0010
,  // measure 55
1100
1001
0100
0011
0101
1001
0110
1010
,  // measure 56
1100
0000
1001
0000
0010
0000
0001
0000
1000
0000
0001
0100
0010
1000
0101
0000
,  // measure 57
0110
0001
1010
0110
0101
0110
1010
0001
,  // measure 58
0110
0101
1000
0011
0110
1100
1010
0001
,  // measure 59
0110
1001
0010
0101
1010
1100
0011
0100
,  // measure 60
0110
0000
1001
0000
0010
0000
0100
0000
1000
0000
1000
0010
0100
0001
0110
0000
,  // measure 61
1001
0010
0010
0000
2222
0000
3333
0000
,  // measure 62
1110
0000
0110
0011
0000
0111
0000
1020
,  // measure 63
0100
0130
0000
0000
2222
0000
3333
0000
,  // measure 64
1011
0000
0110
1100
0000
1101
0000
0201
,  // measure 65
0010
0310
0000
0011
1101
0011
1101
0101
,  // measure 66
0000
1010
0000
1001
0111
0110
1110
1100
,  // measure 67
0000
0011
1022
0000
0000
0000
0000
0000
,  // measure 68
0000
0033
1202
0000
0000
0000
0000
0000
0000
0000
0000
0000
0000
0303
0001
0000
,  // measure 69
0011
0111
1111
0001
1100
0010
1010
0001
,  // measure 70
0110
0010
1001
0001
0101
0020
0001
1030
,  // measure 71
0011
0100
0101
1000
1010
0100
0011
1000
,  // measure 72
0110
0100
1001
1000
0110
0200
0001
0310
,  // measure 73
1000
0100
0001
0110
1010
0110
1110
0110
,  // measure 74
1100
1000
1011
0100
0101
0110
1000
1000
,  // measure 75
0100
0100
0010
0011
0111
0001
0110
0110
,  // measure 76
0101
0000
1101
0000
0001
0000
0001
0000
0010
0000
0010
0000
0110
0001
0110
1000
,  // measure 77
0101
0010
1100
0001
1110
0000
0001
0000
1100
0000
0010
0000
0101
0000
0001
0000
,  // measure 78
1100
0010
0110
0001
1100
0010
1000
0011
,  // measure 79
0110
0011
0111
0001
0110
0010
1100
0010
,  // measure 80
0101
0001
1100
0011
0110
1101
0010
0010
,  // measure 81
0001
0001
0010
1010
0011
1010
1011
1000
,  // measure 82
0011
0100
0110
0010
1110
0111
1000
1000
,  // measure 83
0100
0100
0110
0111
1011
1110
0001
1101
,  // measure 84
0010
2220
3331
0010
1000
0110
0000
0000
,  // measure 85
1001
0010
0100
1001
0000
0011
0100
1010
,  // measure 86
0001
0100
0001
0100
0001
0100
0011
0000
0000
0100
0000
0000
0010
0000
0000
1100
0000
0000
0000
0000
0000
0000
0000
0000
,  // measure 87
0101
0100
0001
1010
0000
0101
1000
1010
,  // measure 88
0010
0100
0010
0100
0010
0100
0011
0000
0000
0100
0000
0000
0010
0000
0000
1100
0000
0000
0000
0000
0000
0000
0000
0000
,  // measure 89
0101
0100
0010
1010
0000
0011
0100
1010
,  // measure 90
0010
1000
0010
1000
0010
1000
0011
0000
0000
1000
0000
0000
0010
0000
0000
0101
0000
0000
0000
0000
0000
0000
0000
0000
,  // measure 91
1001
1000
0010
1001
0000
0011
1000
1100
,  // measure 92
0010
0100
0010
0100
0010
0100
0011
0000
0000
0001
0000
0000
0100
0000
0000
1001
0000
0000
0000
0000
0000
0000
0000
0000
,  // measure 93
0110
0010
0001
1100
0000
0101
0100
0011
,  // measure 94
0001
1000
0001
1000
0001
1000
0101
0000
0000
0010
0000
0000
0100
0000
0000
1010
0000
0000
0000
0000
0000
0000
0000
0000
,  // measure 95
0110
0100
0001
1010
0000
1010
0100
0101
,  // measure 96
0001
0100
0001
0100
0001
0100
0011
0000
0000
0100
0000
0000
0001
0000
0000
1100
0000
0000
0000
0000
0000
0000
0000
0000
,  // measure 97
0101
0010
0100
1010
0000
1001
0010
0100
,  // measure 98
0001
0010
0100
1000
0001
0010
1100
0000
0000
0000
0000
0000
0010
0000
0000
0010
0000
0000
1000
0000
0000
0000
0000
0000
,  // measure 99
0010
0000
0010
0000
0001
1000
0000
1000
0001
1000
0000
1000
0001
1000
0000
0001
,  // measure 100
1100
1110
1111
0001
1100
0010
1010
0001
,  // measure 101
0110
0010
1001
0001
0101
0020
0001
1030
,  // measure 102
0011
0100
0101
1000
1010
0100
0011
1000
,  // measure 103
0110
0100
1001
1000
0110
0200
0001
0310
,  // measure 104
1000
0100
0001
0110
1010
0110
1110
0110
,  // measure 105
1100
1000
1011
0100
0101
0110
1000
1000
,  // measure 106
0100
0100
0010
0011
0111
0001
0110
0110
,  // measure 107
0101
0000
1101
0000
0001
0000
0001
0000
0010
0000
0010
0000
0101
0010
1100
0010
,  // measure 108
0101
1000
0110
1000
0111
0000
0001
0000
1100
0000
0010
0000
0101
0000
0001
0000
,  // measure 109
1100
0010
0110
0001
1100
0010
1000
0011
,  // measure 110
0110
0011
0111
0001
0110
0010
1100
0010
,  // measure 111
0101
0001
1100
0011
0110
1101
0010
0010
,  // measure 112
0001
0001
0010
1010
0011
1010
1011
1000
,  // measure 113
0011
0100
0110
0010
1110
0111
1000
1000
,  // measure 114
0100
0100
0110
0111
1011
1110
0001
1101
,  // measure 115
0010
1100
1101
0011
0111
1100
0010
1011
,  // measure 116
0100
0010
0110
0111
1011
1110
0001
1101
,  // measure 117
0010
0100
0111
1100
0110
1011
0100
1101
,  // measure 118
0010
0000
0100
0000
0011
1100
0011
1100
0011
1100
0011
1100
0011
1100
0011
1100
,  // measure 119
0011
0000
1100
0000
0101
1000
0110
1000
0011
0100
1010
0001
0110
1000
0010
0001
,  // measure 120
0110
1000
0011
1000
0110
0001
1100
0001
0110
0001
0010
0100
1000
0010
0100
0010
,  // measure 121
1000
0100
0010
0001
0110
1000
0101
1000
0110
0001
1010
0001
0110
1000
0100
0010
,  // measure 122
1001
0010
1100
0010
0101
0010
1100
0001
0110
1000
0001
0010
0001
0100
0010
0100
,  // measure 123
0001
0010
0100
0001
1010
0001
0110
1000
0101
0010
1100
0010
0101
1000
0100
0001
,  // measure 124
1010
0001
0110
1000
0101
0010
1001
0100
1001
0100
0010
0001
1000
0100
1000
0001
,  // measure 125
0010
0001
1000
0100
0011
0100
1010
0100
1001
0010
1100
0001
0110
0001
0010
0100
,  // measure 126
0011
1000
0110
1000
0011
0100
1010
0100
1001
0100
0010
0001
0100
0010
0100
0001
,  // measure 127
0010
0100
1000
0001
0010
0100
0001
0000
0000
1000
0000
0000
0010
0000
0000
0100
0000
0000
0000
0000
0000
0000
0000
0000
,  // measure 128
1000
0001
0100
0010
0000
1000
0001
1000
,  // measure 129
0010
0100
0010
0100
0010
0100
2002
0000
0000
0000
0000
0000
0000
0000
0000
0000
0000
0000
0000
0000
0000
0000
0000
0000
,  // measure 130
0000
0000
0000
0000
,  // measure 131
3003
0000
0000
0000
;

//---------------dance-single - ----------------
#NOTES:
     dance-single:
     :
     Hard:
     10:
     1.000,1.000,1.000,0.466,0.124: // measure 1
0020
0000
0000
0000
0000
0000
0000
0030
0001
0000
0000
0000
0100
0000
0000
0000
0100
0000
0000
0000
0100
0000
0000
0000
0001
0000
0000
0000
0100
0000
0000
0000
,  // measure 2
0100
0000
0100
0000
0001
1000
0001
1000
0001
1000
0001
1000
0001
1000
0001
1000
,  // measure 3
0001
0001
0110
0011
0110
1010
1100
0001
,  // measure 4
0110
0101
0110
1010
1100
0010
0001
0010
,  // measure 5
0001
0010
0100
1000
0011
0000
0110
0000
0011
0000
0110
0000
1100
0000
0010
0000
,  // measure 6
0011
0110
1100
0110
0011
0100
0010
0100
,  // measure 7
1000
0100
0010
0001
1100
0000
0110
0000
1010
0000
0110
0000
0101
0000
0100
0000
,  // measure 8
1010
0110
0101
0110
1010
0001
0010
0100
,  // measure 9
1000
0100
0010
0001
1010
0000
1100
0000
0110
0000
0011
0000
1001
0000
0001
0000
,  // measure 10
1001
0011
0110
1100
1001
0110
0011
0101
,  // measure 11
1000
0000
0000
0001
0000
0000
1000
0000
0000
0010
0000
0000
0100
0000
0000
0000
0000
0000
2000
0000
0000
0000
0000
3000
0002
0000
0000
0000
0000
0003
0200
0000
0000
0000
0000
0300
0000
0000
0000
0000
0000
0000
0000
0000
0000
0000
0000
0000
,  // measure 12
2000
0000
0000
0000
0000
3000
0002
0000
0000
0000
0000
0003
0200
0000
0000
0000
0000
0300
2000
0000
0000
0000
0000
3000
0001
0000
0000
0000
1000
0000
0000
0000
0010
0000
0000
0000
0100
0000
0000
0000
0000
0000
0000
0000
0000
0000
0000
0000
,  // measure 13
1001
0000
0101
0110
0011
1001
0101
1000
,  // measure 14
0110
1010
0001
1100
0110
0101
1001
0100
,  // measure 15
0011
1001
0010
1100
1010
1001
0110
0101
,  // measure 16
0011
0000
1001
0000
0100
0000
1001
0000
0001
0000
1000
0010
0100
0001
1010
0000
,  // measure 17
0110
1000
0101
0110
1010
0110
0101
1000
,  // measure 18
0110
1010
0001
1100
0110
0011
0101
1000
,  // measure 19
0110
0001
1001
1010
0101
0011
1100
0010
,  // measure 20
0110
0000
1001
0000
0100
0000
0010
0000
0001
0000
0001
0010
1000
0001
0110
0000
,  // measure 21
1001
1000
1000
0000
0220
0000
0330
0000
,  // measure 22
0011
0000
0110
1100
0000
1010
0000
0021
,  // measure 23
0100
0130
0000
0000
2002
0000
3003
0000
,  // measure 24
1001
0000
0110
0011
0000
0101
0000
1200
,  // measure 25
0010
0310
0000
0011
1010
0011
1010
0101
,  // measure 26
0000
1010
0000
0110
1010
0110
1010
1001
,  // measure 27
0000
0011
0202
0000
0000
0000
0000
0000
,  // measure 28
0000
0303
2020
0000
0000
0000
0000
0000
0000
0000
0000
0000
3030
0000
1000
0000
,  // measure 29
1000
1000
0110
0001
1100
0010
1010
0001
,  // measure 30
0110
0010
1001
0001
0101
0020
0001
1030
,  // measure 31
0011
0100
0101
1000
1010
0100
0011
1000
,  // measure 32
0110
0100
1001
1000
0110
0200
0001
0310
,  // measure 33
1000
0100
0001
0110
1010
0110
1010
0110
,  // measure 34
1100
1000
1001
0100
0101
0110
1000
1000
,  // measure 35
0100
0100
0010
0011
0101
0001
0110
0110
,  // measure 36
0101
1001
0001
0001
0010
0010
1000
0110
,  // measure 37
0101
0110
1001
0001
1100
0010
0101
0001
,  // measure 38
1100
0010
0110
0001
1100
0010
1000
0011
,  // measure 39
0110
0011
0101
0001
0110
0010
1100
0010
,  // measure 40
0101
0001
1100
0011
0110
1001
0010
0010
,  // measure 41
0001
0001
0010
1010
0011
1010
1001
1000
,  // measure 42
0011
0100
0110
0010
1010
0101
1000
1000
,  // measure 43
0100
0100
0110
0101
1001
1010
0001
1001
,  // measure 44
0010
2020
0000
0000
0000
0000
0000
0000
,  // measure 45
3030
0000
0101
0000
0000
1010
0000
0000
,  // measure 46
0000
0000
1001
0000
0000
0101
0000
0000
,  // measure 47
0000
0000
0000
0011
0000
0101
1010
0000
,  // measure 48
1100
0000
0011
0110
0000
1010
0000
0000
,  // measure 49
0000
0000
0000
0000
0001
0000
0000
0100
0000
0000
0010
0000
0100
0000
0000
0001
,  // measure 50
0000
0000
1000
0000
0010
0000
0000
0100
0000
0000
0001
0000
0100
0000
0000
0010
,  // measure 51
0000
1000
0001
0100
0010
1000
0000
0000
,  // measure 52
0001
0100
0010
1000
0000
0001
0100
0010
,  // measure 53
0200
0000
0000
0300
1000
0000
0110
0000
1100
0000
1001
0000
1010
0000
0001
0000
,  // measure 54
0110
0101
1000
0011
0110
1010
1001
0010
,  // measure 55
1100
1001
0100
0011
0101
1001
0110
1010
,  // measure 56
1100
0000
1001
0000
0010
0000
0001
0000
1000
0000
0001
0100
0010
1000
0101
0000
,  // measure 57
0110
0001
1010
0110
0101
0110
1010
0001
,  // measure 58
0110
0101
1000
0011
0110
1100
1010
0001
,  // measure 59
0110
1001
0010
0101
1010
1100
0011
0100
,  // measure 60
0110
0000
1001
0000
0010
0000
0100
0000
1000
0000
1000
0010
0100
0001
0110
0000
,  // measure 61
1001
0010
0010
0000
0220
0000
0330
0000
,  // measure 62
1100
0000
0110
0011
0000
0101
0000
1200
,  // measure 63
0010
0310
0000
0000
2002
0000
3003
0000
,  // measure 64
1001
0000
0110
1100
0000
1010
0000
0021
,  // measure 65
0100
0130
0000
1100
0101
1100
0101
1010
,  // measure 66
0000
0101
0000
0110
0101
0110
0101
1001
,  // measure 67
0000
1100
2020
0000
0000
0000
0000
0000
,  // measure 68
0000
3030
0202
0000
0000
0000
0000
0000
0000
0000
0000
0000
0303
0000
0001
0000
,  // measure 69
0001
0001
0110
1000
0011
0100
0101
1000
,  // measure 70
0110
0100
1001
1000
1010
0200
1000
0301
,  // measure 71
1100
0010
1010
0001
0101
0010
1100
0001
,  // measure 72
0110
0010
1001
0001
0110
0020
1000
0130
,  // measure 73
0001
0010
1000
0110
0101
0110
0101
0110
,  // measure 74
0011
0001
1001
0010
1010
0110
0001
0001
,  // measure 75
0010
0010
0100
1100
1010
1000
0110
0110
,  // measure 76
1010
1001
1000
1000
0100
0100
0001
0110
,  // measure 77
1010
0110
1001
1000
0011
0100
1010
1000
,  // measure 78
0011
0100
0110
1000
0011
0100
0001
1100
,  // measure 79
0110
1100
1010
1000
0110
0100
0011
0100
,  // measure 80
1010
1000
0011
1100
0110
1001
0100
0100
,  // measure 81
1000
1000
0100
0101
1100
0101
1001
0001
,  // measure 82
1100
0010
0110
0100
0101
1010
0001
0001
,  // measure 83
0010
0010
0110
1010
1001
0101
1000
1001
,  // measure 84
0100
2200
3301
0010
1000
0010
0000
0000
,  // measure 85
0001
0010
0100
0001
0000
0010
0100
1000
,  // measure 86
0002
0000
1003
0100
0010
1000
0000
0000
,  // measure 87
0100
0001
1000
0010
0000
0001
1000
0010
,  // measure 88
0200
0000
0301
0100
0010
1000
0000
0000
,  // measure 89
0001
0100
0010
1000
0000
0001
0100
0010
,  // measure 90
2000
0000
3010
1000
0010
0001
0000
0000
,  // measure 91
0001
1000
0010
1000
0000
0010
1000
0100
,  // measure 92
0020
0000
1030
0001
0100
0001
0000
0000
,  // measure 93
0100
0010
0001
1000
0000
0001
0100
0010
,  // measure 94
0002
0000
1003
0010
0100
1000
0000
0000
,  // measure 95
0010
0100
0001
0010
0000
0010
0100
0001
,  // measure 96
0200
0000
0310
0100
0001
1000
0000
0000
,  // measure 97
0001
0010
0100
1000
0000
1000
0010
0100
,  // measure 98
2002
0000
0000
3003
0100
0000
0000
0000
0010
0000
0010
0000
0100
0000
0000
0000
,  // measure 99
0010
0000
0010
0000
0001
1000
0000
1000
0001
1000
0000
1000
0001
1000
0000
0001
,  // measure 100
1000
1000
0110
0001
1100
0010
1010
0001
,  // measure 101
0110
0010
1001
0001
0101
0020
0001
1030
,  // measure 102
0011
0100
0101
1000
1010
0100
0011
1000
,  // measure 103
0110
0100
1001
1000
0110
0200
0001
0310
,  // measure 104
1000
0100
0001
0110
1010
0110
1010
0110
,  // measure 105
1100
1000
1001
0100
0101
0110
1000
1000
,  // measure 106
0100
0100
0010
0011
0101
0001
0110
0110
,  // measure 107
0101
1001
0001
0001
0010
0010
1000
0110
,  // measure 108
0101
0110
1001
0001
1100
0010
0101
0001
,  // measure 109
1100
0010
0110
0001
1100
0010
1000
0011
,  // measure 110
0110
0011
0101
0001
0110
0010
1100
0010
,  // measure 111
0101
0001
1100
0011
0110
1001
0010
0010
,  // measure 112
0001
0001
0010
1010
0011
1010
1001
1000
,  // measure 113
0011
0100
0110
0010
1010
0101
1000
1000
,  // measure 114
0100
0100
0110
0101
1001
1010
0001
1001
,  // measure 115
0010
0100
0011
0101
1100
1010
0010
0101
,  // measure 116
1000
0010
0101
1001
1010
1001
0100
1010
,  // measure 117
0001
0100
1100
0110
0011
0101
0010
1010
,  // measure 118
0100
0000
0010
0000
0001
1000
0001
1000
0001
1000
0001
1000
0001
1000
0001
1000
,  // measure 119
0001
1000
0020
0032
0023
0230
2300
3000
,  // measure 120
0020
0032
0023
0230
2300
3000
1000
1000
,  // measure 121
0001
0010
0100
1000
0200
0000
2300
0000
3200
0000
0320
0000
0032
0000
0003
0000
,  // measure 122
0200
2300
3200
0320
0032
0003
0001
0001
,  // measure 123
1000
0001
0100
0010
0002
0000
0023
0000
0230
0000
2300
0000
3020
0000
0030
0000
,  // measure 124
2000
3200
0320
0032
0203
0300
0100
0100
,  // measure 125
0010
1000
0001
0010
0200
0000
0302
0000
2003
0000
3020
0000
0230
0000
0300
0000
,  // measure 126
0020
2030
3002
0203
0320
0030
0010
0010
,  // measure 127
0001
1000
0001
1000
0001
0000
1000
0000
0010
0000
0100
0000
0000
0000
0000
0000
,  // measure 128
1000
0001
0100
0010
0000
1000
0010
0100
,  // measure 129
0002
0000
0000
0003
0220
0000
0000
0000
0000
0000
0000
0000
0000
0000
0000
0000
,  // measure 130
0000
0000
0000
0000
,  // measure 131
0330
0000
0000
0000
;
