#VERSION:0.83;
#TITLE:Lost Woods;
#SUBTITLE:Zelda Ocarina of Time;
#ARTIST:VGR;
#TITLETRANSLIT:;
#SUBTITLETRANSLIT:;
#ARTISTTRANSLIT:;
#GENRE:;
#CREDIT:;
#MUSIC:Lost Woods (From Zelda OOT).ogg;
#BANNER:Lost Woods (From Zelda OOT)-ban.png;
#BACKGROUND:Lost Woods (From Zelda OOT)-bg.png;
#CDTITLE:;
#SAMPLESTART:30.470;
#SAMPLELENGTH:22.969;
#SELECTABLE:YES;
#OFFSET:0.000;
#BPMS:0.000=128.000;
#STOPS:;
#SPEEDS:0.000=1.000=0.000=0;
#SCROLLS:0.000=1.000;
#TICKCOUNTS:0.000=4;
#TIMESIGNATURES:0.000=4=4;
#LABELS:0.000=Song Start;
#COMBOS:0.000=1;
#BGCHANGES:;
#FGCHANGES:;

//--------------- dance-single - No Tech ----------------
#NOTEDATA:;
#STEPSTYPE:dance-single;
#DESCRIPTION:No Tech;
#DIFFICULTY:Challenge;
#METER:7;
#RADARVALUES:0,0,0,0,0;
#CREDIT:HellKiteChaos;
#CHARTNAME:430 (P) + 645 (S);
#NOTES:
0000
0000
0000
0000
,
0000
0000
0000
0000
,
0000
0000
0000
0000
,
0000
0000
0000
0000
,
0000
0000
1000
0001
0200
0000
0301
1000
,
0200
0000
0310
0001
0100
0010
2000
0000
,
3010
1000
0001
0010
0200
0000
0300
0000
,
0000
1000
0001
0100
0020
0000
0030
0000
,
0000
0000
1000
0010
0100
0001
0000
0001
,
1000
0100
0000
0100
0010
0001
1000
0010
,
0100
0001
0010
0100
1000
0001
0000
1000
,
0010
0100
0010
1000
0001
0010
0000
0100
,
1000
0001
0100
0010
0100
0001
0000
0010
,
0100
1000
0000
0010
0100
0001
1000
0000
,
0100
0010
0001
0000
0001
0000
1000
0000
,
1000
0000
0010
0100
0010
0100
0001
0001
,
1000
0000
0001
1000
0001
0000
1000
0001
,
1000
0000
0001
0010
0100
1000
0001
0000
,
1000
0001
0100
0010
0100
0001
0100
0010
,
0100
0001
0100
0010
0100
0001
0010
0100
,
1000
0000
0001
1000
0010
1000
0001
1000
,
0010
1000
0001
0100
0010
1000
0100
0010
,
0001
0000
1000
0100
0010
0100
1000
0100
,
0010
0100
1000
0100
0010
0100
1000
0001
,
0100
0000
0010
1000
0001
1000
0010
1000
,
0001
0100
0010
0100
0001
1000
0001
0100
,
0010
0000
1000
0001
1000
0000
0010
0100
,
0010
0000
1000
0100
0010
0001
1000
0000
,
0001
1000
0002
0000
0000
0000
0000
0000
,
0000
0000
0000
0000
,
0000
0000
1003
0001
1000
0001
0100
0010
,
0100
0010
1000
0100
0010
0001
1000
0010
,
0100
0000
0001
1000
0002
0000
0103
0010
,
0200
0000
0301
1000
0001
0010
0200
0000
,
1300
0001
1000
0100
0020
0000
0030
0000
,
0000
0001
1000
0010
0200
0000
0300
0000
,
0000
0000
0010
0100
0002
0000
0013
0100
,
2000
0000
3001
0100
0010
1000
0002
0000
,
1003
0100
0010
0100
2000
0000
3000
0000
,
0000
0001
0100
0010
2000
0000
3000
0000
,
0000
0000
0001
1000
0200
0000
1300
0001
,
0200
0000
0310
0100
0002
0000
0013
0100
,
0010
0100
1000
0001
0200
0000
0301
1000
,
0020
0000
1030
0001
0020
0000
0130
0010
,
0100
0010
0001
1000
0020
0000
1030
0001
,
0020
0000
0031
1000
0200
0000
0310
0100
,
0010
0100
1000
1000
0001
0001
0100
0100
,
0010
0010
1000
1000
0001
0001
0010
0010
,
0100
0000
1000
0001
1000
0001
0100
0001
,
1000
0000
0001
1000
0001
0010
0001
1000
,
0010
0000
0100
0010
0100
0010
1000
0001
,
0010
0000
0100
0010
0100
0010
0100
1000
,
0001
1000
0000
0100
0010
0001
0000
0100
,
0010
1000
0000
0001
0010
0100
0000
1000
,
0001
0100
0000
0010
0000
1000
0000
0001
,
0000
0010
0100
0010
0100
0010
0100
0100
,
0100
0100
1000
0100
2000
3000
0001
0100
,
0002
0000
1003
0010
0100
0001
2000
0000
,
3000
0000
0001
0100
0020
0000
0030
1000
,
0001
1000
0010
0100
0002
0000
0003
1000
,
0001
0010
0001
1000
0200
0000
0300
1000
,
0010
1000
0001
0100
0020
0000
0030
1000
,
0001
1000
0010
0100
0002
0000
0003
1000
,
0001
1000
0100
0010
0002
0000
0003
1000
,
0001
1000
0010
0010
0200
0300
0010
0010
,
0200
0300
0001
0010
0100
1000
0002
0003
,
1000
0001
1000
0100
0010
0100
1000
0001
,
1000
0001
1000
0010
0100
0010
1000
0001
,
1000
0001
1000
0010
0100
0010
1000
0001
,
1000
0001
0010
0100
0010
0001
0100
0010
,
1000
0000
0001
1000
0001
0100
0010
0100
,
0001
1000
0001
0010
0100
0010
0001
1000
,
0001
0000
1000
0001
0200
0300
0001
1000
,
0200
0300
0010
0001
0100
0010
2000
3000
,
0001
1000
0001
0000
0000
0000
0000
0000
;
