
//----- song ID: suns -----//
#TITLE:LOVE♥SHINE;
#ARTIST:小坂りゆ;
#TITLETRANSLIT:LOVE LOVE SHINE;
#ARTISTTRANSLIT:RIYU KOSAKA;
#BANNER:LOVE LOVE SHINE.png;
#BACKGROUND:LOVE LOVE SHINE-bg.png;
#CDTITLE:./CDTitles/DDR EXTREME.png;
#MUSIC:LOVE LOVE SHINE.ogg;
#SAMPLESTART:44.751;
#SAMPLELENGTH:15;
#DISPLAYBPM:177;
#BPMS:0=177.34,4=177.013;
#NOTES:
     dance-single:
     :
     Beginner:
     3:
     :
0000
0000
0000
0000
,
0000
0000
0000
0000
,
0000
0000
0000
0000
,
0000
1000
0000
0001
,
0001
0000
0000
0000
,
1000
0000
0000
0000
,
0001
0000
0000
0000
,
1000
0000
0000
0000
,
0010
0000
0010
0000
,
1000
0000
0000
0000
,
1000
0000
0000
0000
,
0001
0000
0000
0000
,
0001
0000
0000
0000
,
1000
0000
1000
0000
,
0001
0000
0001
0000
,
1000
0000
1000
0000
,
0001
0000
0001
0000
,
0100
0100
0100
0000
,
0001
0000
0001
0000
,
0100
0100
0100
0000
,
1000
0000
1000
0000
,
0001
0001
0001
0000
,
0100
0000
0001
0000
,
1000
1000
1000
0000
,
0100
0000
1000
0000
,
1001
0000
0100
0000
,
0010
0000
0100
0000
,
0010
0000
0100
0000
,
1001
0000
1001
0000
,
1001
0000
0100
0000
,
0010
0000
0100
0000
,
0010
0000
0100
0000
,
1001
0000
1001
0000
,
1000
0000
0100
0000
,
0001
0000
1001
0000
,
0010
0000
0100
0000
,
0010
0000
0100
0000
,
1000
0000
0100
0000
,
0001
0000
1001
0000
,
0010
0000
0010
0000
,
0100
0100
0100
0000
,
0000
1000
0000
1000
,
0000
1000
0000
1000
,
0000
1000
0000
1000
,
1000
1000
1000
1000
,
1000
0000
0100
0000
,
0001
0000
0100
0000
,
1000
0000
0100
0000
,
0001
0000
0100
0000
,
1001
0000
0000
0000
,
1001
0000
0000
0000
,
0001
0000
0100
0000
,
1000
0000
0100
0000
,
1001
0000
0000
0000
,
1001
0000
0000
0000
,
0001
0000
0100
0000
,
1000
0000
0100
0000
,
1001
0000
0000
0000
,
1001
0000
0000
0000
,
0010
0000
0010
0000
,
0100
0000
0100
0000
,
1001
0000
0000
0000
,
1001
0000
0000
0000
,
0010
0000
0010
0000
,
0100
0000
0100
0000
,
0110
0000
0001
0000
,
0110
0000
1000
0000
,
0010
0000
1000
0000
,
0100
0000
0001
0000
,
1000
1000
1000
0000
,
0001
0001
0001
0001
,
0000
0000
0000
0000
;
#NOTES:
     dance-single:
     :
     Easy:
     6:
     :
0000
0000
0000
0000
,
0000
0000
0000
0000
,
0000
0000
0000
0000
,
0000
1000
0000
0001
,
0001
0001
0100
0000
,
1000
1000
0100
0000
,
0001
0001
0100
0000
,
1000
1000
0100
0000
,
0010
0001
0100
1000
,
1000
0000
1000
0000
,
0010
0000
0010
0000
,
0001
0000
0001
0000
,
0100
0000
0100
0000
,
1000
0000
1000
0000
,
0010
0000
0010
0000
,
0001
0000
0001
0000
,
0100
0000
0100
0000
,
1000
0100
1000
0100
,
0001
0100
0001
0100
,
1000
0100
1000
0100
,
0001
0100
0001
0100
,
0001
0001
1000
1000
,
0001
0001
1000
1000
,
0001
0010
1000
0100
,
0001
0010
1000
0000
,
1000
0100
1001
0000
,
0010
0010
0100
0000
,
0010
0010
0100
0000
,
0001
0100
1001
0000
,
1000
0100
1001
0000
,
0010
0010
0100
0000
,
0010
0010
0100
0000
,
0001
0100
1001
0000
,
1001
0100
1001
0100
,
1000
0001
1001
0000
,
0010
0001
0100
1000
,
0010
0001
1001
0000
,
1001
0100
1001
0100
,
1000
0001
1001
0000
,
0010
0001
0100
1000
,
0010
0001
1001
0000
,
0000
1000
0000
1000
,
0000
0001
0000
0001
,
0000
1000
0000
1000
,
0001
0001
0001
0001
,
1000
0000
1000
0000
,
0001
0000
0001
0000
,
1000
0000
1000
0000
,
0001
0000
0001
0000
,
0002
0000
0000
0003
,
2000
0000
0000
3000
,
0001
0001
0100
0100
,
1000
1000
1001
0000
,
0002
0000
0000
0003
,
2000
0000
0000
3000
,
0001
0001
0100
0100
,
1000
1000
1001
0000
,
0020
0000
0000
0030
,
0200
0000
0000
0300
,
0010
0010
0001
0001
,
0100
0100
1001
0000
,
0020
0000
0000
0030
,
0200
0000
0000
0300
,
0010
0010
0001
0001
,
0100
0100
1001
0000
,
0001
0001
1000
1000
,
0001
0001
1000
1000
,
0010
1000
0100
0001
,
0010
1000
0100
0001
,
1000
1001
0001
1001
,
0010
0100
0010
1001
,
0000
0000
0000
0000
;
#NOTES:
     dance-single:
     :
     Medium:
     7:
     :
0000
0000
0000
0000
,
0000
0000
0000
0000
,
0000
0000
0000
0000
,
0000
1000
0000
0001
,
1000
0100
0001
0001
,
0001
0100
1000
1000
,
1000
0100
0001
1001
,
0000
0100
0000
0100
,
2000
0100
0002
3003
,
2000
0000
0200
3300
,
0002
0000
0200
0303
,
2000
0000
0200
3300
,
0002
0000
0200
0303
,
0010
0000
0000
1000
0100
0000
0000
0000
,
0010
0001
0100
0000
,
1000
0010
1000
0100
,
0010
0001
0100
0000
,
1000
0000
1000
0100
,
0001
0000
0001
0100
,
1000
0000
1000
0100
,
0001
1000
0100
0001
,
0001
0000
0001
0100
,
1000
0000
1000
0100
,
0001
0010
1000
0100
,
0001
0010
1000
0000
,
1000
0000
1100
0000
,
0010
0000
0100
0000
,
0010
0000
0001
0000
,
0010
0001
0100
0000
,
0001
0001
0101
0100
,
0010
0000
0100
0000
,
0010
0000
1000
0000
,
0010
1000
0100
0000
,
1000
1100
0001
0101
,
1000
0100
0001
1001
,
0010
0001
0100
0001
,
1000
0100
1000
0010
,
0001
0101
1000
1100
,
0001
0100
1000
1001
,
0020
0000
0200
0330
,
1000
0100
0001
0000
,
0000
1000
0000
1000
,
0000
0100
0000
0100
,
0000
0001
0000
0001
,
0001
0100
1000
0100
,
0001
0000
0100
0000
,
1000
0000
0100
0000
,
0001
0000
0010
0000
,
1000
0100
0001
0000
,
0001
0000
0100
0000
,
1000
0100
0001
0000
,
0010
0001
1000
0010
,
0100
0001
1000
0000
,
1000
0000
0100
0000
,
0001
0000
0100
0000
,
1000
0100
0001
0010
,
1000
0100
0001
0001
,
0001
0000
0100
0000
,
1000
0100
0001
0000
,
0010
0001
1000
0010
,
0100
0001
1000
0000
,
1000
0000
0100
0000
,
0001
0000
0100
0000
,
1000
0100
0001
0010
,
1000
0100
0001
0001
,
0001
0101
1000
1100
,
0001
0010
1000
0100
,
0001
1001
0100
1001
,
0100
1000
0001
0100
,
0010
0000
1001
0000
0010
0001
0100
0000
,
0010
0100
0001
1000
0000
0100
0010
0000
,
0000
0000
0000
0000
;
#NOTES:
     dance-single:
     :
     Hard:
     9:
     :
0000
0000
0000
0000
,
0000
0000
0000
0000
,
0000
0000
0000
0000
,
0100
1001
0100
1001
,
0010
1000
0010
0000
1001
0000
0101
0000
,
0120
1000
0100
1030
,
0201
0010
0001
0310
,
0100
0001
0100
0000
1001
0000
1010
0000
,
1100
0101
2002
3003
,
0100
0000
0100
0000
0010
1000
0010
0000
,
1001
1100
1001
0011
,
0100
0000
0100
0000
0010
0001
0010
0000
,
1001
0101
1001
1010
,
0001
0100
0010
0100
,
1000
0100
0010
0100
,
0010
0000
0001
0100
0001
0000
1000
0000
,
0001
0100
0001
1000
0100
0000
1001
0000
,
0100
0000
0100
0000
0010
0001
0010
0000
,
1001
0101
1001
1010
,
0100
0000
0100
0000
0010
1000
0010
0000
,
1001
1100
1001
0011
,
1000
0100
0010
0100
,
0001
0100
0010
0100
,
0010
1000
0010
0000
0100
0001
0100
0001
,
0000
0110
1001
0010
,
2200
0000
3300
0001
0010
0000
0000
0000
,
0202
0000
0303
1000
0010
0000
0010
0000
,
0102
1000
0100
1003
,
2010
0001
0010
3001
,
2020
0000
3030
0001
0100
0000
0000
0000
,
0022
0000
0033
1000
0100
0000
0100
0000
,
0010
0100
0010
0100
,
1100
0101
1100
0101
,
0010
1000
0010
0100
0000
0001
0001
0000
,
1000
0100
1000
0000
0010
0000
1001
0000
,
0010
0100
0010
1000
0000
0001
0001
0000
,
0101
1100
1010
0011
,
0010
0001
0010
0100
0000
1000
1000
0000
,
0001
0100
0001
0000
0010
0000
1001
0000
,
0120
0000
0000
0000
0100
0000
0130
0100
,
0000
1000
0100
1000
0100
0000
1001
0000
,
0011
0101
1100
1010
,
1100
0101
0011
1001
,
1100
0101
1100
0101
,
0010
0100
0010
0100
,
1010
1100
0101
0011
,
0101
1100
1010
1001
,
0010
1000
0010
0000
0001
1000
0001
0100
,
0010
1000
0100
0000
2002
0000
3003
0000
,
0200
0000
0000
0010
0310
0000
0101
0000
,
0020
0000
0000
0100
0130
0000
1010
0000
,
0001
0010
0100
1000
,
0001
0000
0000
0001
0000
0000
0001
0000
0100
0000
0000
0000
1001
0000
0000
0000
,
0010
1000
0010
1000
0001
0100
0001
0000
,
0010
0001
0010
0001
1000
0100
1000
0000
,
2010
0001
0100
3001
,
0012
1000
0100
1003
,
0200
0000
0000
0010
0310
0000
1100
0000
,
0020
0000
0000
0100
0130
0000
0011
0000
,
1000
0010
0100
0001
,
1000
0100
0010
0001
0100
0000
1001
0000
,
0010
0001
0010
0001
1000
0100
1000
0000
,
0010
1000
0010
1000
0001
0100
0001
0000
,
0012
1000
0100
1003
,
2010
0001
0100
3001
,
0020
0000
0000
0100
0130
0000
0101
0000
,
0020
0000
0000
0100
0130
0000
1100
0000
,
0010
0000
0010
0001
0100
0000
0010
1000
,
0100
0100
0010
0010
,
0110
0000
1001
0000
1000
0100
1000
0000
,
0001
0100
0001
1000
0000
0001
1001
0000
,
0000
0000
0000
0000
;
#NOTES:
     dance-single:
     :
     Challenge:
     13:
     :
0000
0000
0000
0000
,
0000
0000
0000
0000
,
0000
0000
0000
0000
,
1000
1100
0001
0101
,
0000
0100
0100
0100
0001
0100
0010
2000
,
0001
0000
0001
0000
3001
0010
1000
0020
,
0100
0000
0130
2000
0000
0000
3000
0000
,
1000
0100
1000
0010
1000
0001
1000
0010
,
0000
0100
0010
1000
2020
0000
3030
0000
,
1000
0100
1000
0100
0001
0100
0001
0100
,
1000
0001
0100
0010
0100
0000
1001
0000
,
0001
0010
0001
0010
1000
0010
1000
0010
,
0001
0000
0000
0001
0100
0000
0000
0100
0010
0000
0000
0010
1000
0000
0000
0000
,
0001
0100
0001
0010
0001
1000
0001
0100
,
1000
0000
0000
1000
0100
0000
0000
0100
0010
0000
0000
0010
1000
0000
0000
0000
,
0100
0000
1000
0100
0010
0001
1000
0100
,
0001
0100
1000
0002
0000
1003
1000
1000
,
0001
0010
0001
0010
0100
1000
0100
1000
,
0001
0100
0010
1000
0010
0000
1001
0000
,
1000
0100
1000
0100
0010
0001
0010
0001
,
1000
0010
0100
0001
0100
0000
1001
0000
,
2000
0000
3001
0010
0200
0000
1300
0100
,
0000
1000
0100
1000
0001
0010
0100
0010
,
0200
0300
1000
2000
3000
0001
0010
0001
,
0000
1000
0001
1000
0001
0000
0110
0000
,
0220
0000
0000
0330
0000
0000
0001
0000
0010
0000
1000
0000
0010
0000
0001
0000
,
0220
0000
0000
0330
0000
0000
1000
0000
0010
0000
0001
0000
0010
0000
1000
0000
,
0002
0003
0020
0030
0200
0300
2000
3001
,
0100
0000
0100
0010
0000
1000
0010
0100
,
0220
0000
0000
0330
0000
0000
0001
0000
0100
0000
1000
0000
0100
0000
0001
0000
,
2000
3000
0010
0100
0010
0000
1000
0100
,
1000
0002
0000
0010
0000
0100
0000
0013
,
0000
0001
0100
0010
1000
0100
0010
0001
,
1000
0100
1000
0200
0300
0001
0100
2000
,
3000
1000
0100
0010
0001
0000
1100
0000
,
1000
0100
1000
0020
0030
1000
0100
0010
,
0001
0000
0000
0001
0100
0000
0000
0100
0010
0000
0000
0010
1000
0000
0000
1000
,
0001
0100
0001
0200
0300
1000
0100
0001
,
0000
0001
0010
0100
1000
0000
0011
0000
,
0000
0001
0010
0100
0010
0100
1000
1000
,
0000
0001
0100
0001
0100
0010
1001
0000
,
0000
0110
0000
1000
0100
0001
1000
0010
,
0000
0110
0000
0001
0100
1000
0001
0010
,
0000
0110
0000
1000
0100
0001
0100
1000
,
1010
0110
0101
1001
,
1000
0001
0100
0020
0030
0100
0010
0100
,
0010
0000
0100
0000
0010
0000
0000
0000
1010
0000
0000
0000
2200
0000
0000
3300
,
0000
1000
0100
0010
0001
0010
0001
0010
,
0100
0010
0100
0010
0002
0000
0103
0001
,
2000
0000
0000
3000
0000
0000
1000
0000
0200
0000
0000
0300
0000
0000
0100
0000
,
0020
0000
0000
0031
0000
0000
0100
0000
0200
0000
0000
0000
0300
0000
0000
0000
,
0001
1001
1000
1001
,
1100
0000
0000
0000
0011
0000
0000
0000
0110
0000
0000
0000
0000
0000
0000
0001
0000
0000
1000
0000
0000
0001
0000
0000
,
2000
0000
0000
3000
0000
0000
1000
0000
0020
0000
0000
0030
0000
0000
0010
0000
,
0200
0000
0000
0300
0002
0000
1003
0000
2000
0000
0000
0000
3001
0000
0010
0000
,
0001
2000
0000
0100
0000
0010
0000
3100
,
0000
1000
0010
1000
0100
1000
0010
0100
,
0002
0000
0000
0003
0000
0000
0001
0000
0200
0000
0000
0300
0000
0000
0100
0000
,
0020
0000
0000
1030
0000
0000
0100
0000
0200
0000
0000
0000
0300
0000
0010
0000
,
0110
0000
1001
0000
0110
0000
1001
1000
,
0001
0000
0010
0001
0000
1000
0100
1000
,
0002
0000
0000
0003
0000
0000
0001
0000
0020
0000
0000
0030
0000
0000
0010
0000
,
0200
0000
0000
0300
2000
0000
3010
0000
0020
0000
0000
0000
1030
0000
0010
0000
,
1000
0002
0000
0100
0000
0010
0000
1003
,
0000
1000
0100
1000
0010
0001
0010
1000
,
2000
0000
0000
3000
0000
0000
1000
0000
0200
0000
0000
0300
0000
0000
0100
0000
,
0020
0000
0031
0010
0001
0000
1000
0100
,
1000
0100
1100
0000
0001
0100
0101
0000
,
0100
0001
0100
0001
0100
1000
0100
1000
,
0110
0000
1001
0000
0100
0100
0100
0000
,
0001
0100
0010
1000
0000
0001
0011
0000
,
0000
0000
0000
0000
;
#NOTES:
     dance-double:
     :
     Easy:
     5:
     :
00000000
00000000
00000000
00000000
,
00000000
00000000
00000000
00000000
,
00000000
00000000
00000000
00000000
,
00000000
00000001
00000000
00000001
,
00000001
00000000
00000100
00000000
,
00001000
00000000
00010000
00000000
,
01000000
01000000
01000000
01000000
,
00010000
00000000
00001000
00000000
,
00000100
00000001
00000101
00000000
,
00000002
00000000
00000000
00000003
,
00000200
00000000
00000000
00000300
,
00002000
00000000
00000000
00003000
,
00020000
00000000
00000000
00030000
,
01000000
00000000
01000000
00000000
,
10000000
00000000
10000000
00000000
,
01000000
00000000
00010000
00000000
,
00001000
00000100
00000001
00000000
,
00000001
00000110
00001000
00000000
,
00001000
00010000
01000000
00000000
,
10000000
01100000
00010000
00000000
,
00010000
00001000
00000100
00000000
,
00000010
00000000
00000100
00000000
,
00001000
00000000
00010000
00000000
,
01000000
00000000
00100000
00000000
,
00010000
01000000
10000000
00000000
,
20000000
30000000
02000000
03000000
,
00020000
00030000
00002000
00003000
,
00020000
00030000
02000000
03000000
,
00020000
00030000
00002000
00003000
,
00020000
00030000
00002000
00003000
,
00000200
00000300
00002000
00003000
,
00020000
00030000
00002000
00003000
,
00000200
00000300
00000002
00000003
,
00000100
00000100
00001000
00001000
,
00010000
00010000
00010000
00000000
,
01000000
00000000
10000000
00000000
,
01000000
00000000
00010000
00000000
,
01000000
01000000
00010000
00010000
,
00001000
00001000
00001000
00000000
,
00000100
00000000
00000001
00000000
,
00000100
00000000
00001001
00000000
,
00000000
00000110
00000000
00001000
,
00000000
00010000
00000000
01100000
,
00000000
00010000
00000000
00001000
,
00001000
00001000
00001000
00001000
,
00010000
00000000
01100000
00000000
,
00010000
00000000
00001000
00000000
,
00000110
00000000
00001000
00000000
,
00010000
00000000
01000000
00000000
,
10010000
00000000
00000000
00000000
,
01100000
00000000
00000000
00000000
,
10010000
00000000
01100000
00000000
,
00010000
00001000
00000100
00000000
,
00000001
00000000
00000010
00000000
,
00001000
00000000
00000010
00000000
,
00000100
00001000
00010000
00000000
,
00100000
00010000
00001000
00000000
,
00010100
00000000
00011000
00000000
,
00001000
00000000
00001000
00000000
,
00000100
00000000
00001000
00000000
,
00010000
01000000
10000000
00000000
,
10010000
00000000
01100000
00000000
,
10010000
00000000
01000000
00000000
,
00100000
00010000
00001000
00000000
,
00000010
00001000
00010000
00000000
,
00010010
00000000
00011000
00000000
,
00101000
00000000
00011000
00000000
,
01000000
00010000
00001000
00000100
,
00000100
00001000
00010000
01000000
,
10000000
10000000
00100000
00100000
,
00010000
00001000
00000100
00000001
,
00000000
00000000
00000000
00000000
;
#NOTES:
     dance-double:
     :
     Medium:
     7:
     :
00000000
00000000
00000000
00000000
,
00000000
00000000
00000000
00000000
,
00000000
00000000
00000000
00000000
,
00000000
00100000
00000000
01000000
,
11000000
00100000
01000000
00110000
,
00101000
00010000
01000000
10000000
,
01000000
00010000
00001000
00000100
,
00000001
00000101
00001000
00001100
,
00000010
00000100
00001000
00010000
,
01000000
00000000
00010000
00000000
,
00001000
00000100
00000001
00000100
,
00000100
00000000
00001000
00000000
,
00010000
01000000
10000000
01000000
,
10000000
00000000
11000000
00000000
,
00010000
00001000
00000100
00000000
,
00000001
00000000
00000101
00000000
,
00000100
00001000
00010000
00000000
,
01000000
10000000
00100000
01000000
,
00010000
00100000
01000000
00010000
,
00001000
00000100
00000010
00000001
,
00000010
00000100
00001000
00001000
,
00000100
00000001
00001000
00000100
,
00000010
00000001
00000100
00001000
,
00010000
01000000
10000000
01000000
,
00100000
01000000
10000000
00000000
,
00020000
00000000
00001000
00000000
,
01000000
00000000
00001000
00030000
,
00000100
00000001
00001000
00000100
,
00000010
00000001
00001000
00000010
,
00000200
00000000
00001000
00000000
,
00000001
00000000
00001000
00000300
,
00010000
01000000
00100000
00010000
,
01000000
00100000
00010000
00001000
,
00010100
00011000
00000100
00001000
,
00010000
01000000
00010000
00001000
,
00001010
00001000
00000100
00001000
,
00010100
00011000
00010010
00011000
,
01001000
00011000
01000000
00010000
,
00001000
00000100
00001000
00010000
,
02000000
00000000
00000000
03000000
,
00010000
00001000
00000200
00000300
,
00000000
00001000
00000000
00010000
,
00000000
00100000
00000000
10000000
,
00000000
01000000
00000000
00010000
,
00001000
00000100
00000001
00000100
,
00001000
00000000
00000001
00000000
,
00001000
00010000
01000000
10000000
,
00100000
00000000
00100000
00000000
,
10000000
01000000
00010000
00000000
,
01000000
00000000
00010000
00000000
,
00001000
00000000
00000100
00000000
,
00000001
00000100
00001000
00010000
,
01000000
10000000
00100000
00000000
,
00100000
00000000
01000000
00000000
,
00100000
00000000
01000000
00000000
,
10000000
01100000
00010000
00001000
,
00000110
00000001
00001000
00000000
,
00000100
00000000
00001000
00000000
,
00010000
00000000
01000000
00000000
,
10000000
01000000
00010000
00001000
,
00000100
00000001
00000010
00000000
,
00000010
00000000
00000100
00000000
,
00000010
00000000
00000100
00000000
,
00000001
00000110
00001000
00010000
,
01100000
10000000
00010000
00000000
,
00100000
00010000
01000000
00100000
,
00010000
00001000
00000010
00000100
,
00001000
00001100
00000001
00000101
,
00000100
00001000
00010000
01000000
,
11000000
00000000
01010000
00000000
10000000
00010000
01000000
00000000
,
10000000
01000000
00010000
00001000
00000000
00010000
01000000
00000000
,
00000000
00000000
00000000
00000000
;
#NOTES:
     dance-double:
     :
     Hard:
     11:
     :
00000000
00000000
00000000
00000000
,
00000000
00000000
00000000
00000000
,
00000000
00000000
00000000
00000000
,
00101000
00011000
00101000
00110000
,
00100000
00001000
01000000
00010000
00100000
00010000
01000000
20000000
,
00000000
00000000
00000000
00000000
00000000
01000000
01000000
02000000
,
30000000
00000000
00000000
00020000
00000000
00000000
03030000
00000000
,
00100000
00001000
00010000
00000010
00001000
00000100
00010000
00001000
,
01000000
00010000
00100000
01000000
20000000
00000000
30000000
00000000
,
01100000
00000000
00110000
00000000
01000000
00001000
00010000
00000000
,
00001000
00010000
00000100
00000000
00001100
00000000
00000110
00000000
,
00000001
00000000
00000100
00000000
00000010
00010000
00001000
00000000
,
00000100
00001000
00000100
00000000
00000110
00000000
00000101
00000000
,
00000010
00000001
00000100
00000000
00000010
00001000
00000100
00000000
,
00000100
00010000
00001000
00000000
00010000
00001000
01000000
00000000
,
01000000
00010000
00100000
00000000
01000000
10000000
00100000
00000000
,
00010000
01000000
10000000
01000000
10000000
01000000
00010000
00000000
,
01010000
00000000
10100000
00000000
00100000
00010000
00001000
00000000
,
00000010
00001000
00010000
00000000
00001100
00000000
00000011
00000000
,
00001100
00000000
00000011
00000000
00000001
00000100
00001000
00000000
,
00010000
01000000
10000000
00000000
00110000
00000000
11000000
00000000
,
00100000
10000000
01000000
00000000
00100000
00010000
01000000
00000000
,
01000000
00001000
00010000
00000000
00001000
00010000
00000100
00000000
,
00000100
00001000
00000010
00000000
00000100
00000001
00000010
00000000
,
00000001
00001000
00000100
00000000
00001001
00000000
00000000
00000001
,
00000100
00000000
00000000
00000100
00001000
00000000
00000000
00001000
,
00010000
00000000
00000000
00010000
01000000
00000000
00000000
10000000
,
00100000
00000000
00100000
00000000
00100000
00000000
01000000
00001000
,
00100000
00000000
00010000
01000000
00000000
10000000
01000000
10000000
,
00100000
00000000
00000000
00100000
00010000
00000000
00000000
00010000
,
00001000
00000000
00001000
00000010
00000001
00000000
00000100
00001000
,
00010000
02000000
00000000
00000000
00000000
00000000
00000000
00000000
,
00000000
00000000
00000000
03000000
,
00100000
00010000
01000000
10000000
00000000
10000000
01000000
00010000
,
00000000
00100000
00001000
00010000
00000010
00000000
00001010
00000000
,
00000010
00001000
00000100
00000001
00000000
00000001
00000100
00001000
,
00000010
00010000
00001000
00100000
00010000
00000000
01000000
00000000
,
00100000
00010000
01000000
10000000
00000000
10000000
01000000
00010000
,
00000000
00100000
00001000
00010000
00000010
00000000
00001010
00000000
,
00001000
00000001
00000100
00000010
00001000
00000001
00000010
00000100
,
00000000
00000001
00000100
00001000
00000010
00000000
00000000
00000000
,
00000000
00000110
00000000
00000100
00001000
00010000
01000000
10000000
,
00000000
01100000
00000000
01000000
00010000
00001000
00000100
00000001
,
00000000
00000110
00000000
00000100
00001000
00010000
01000000
10000000
,
01100000
00110000
00011000
00001010
,
00000010
00000001
00000100
00000000
00000010
00001000
00000100
00000000
,
00000010
00010000
00001000
00000000
00110000
00000000
22000000
00000000
,
00000000
00000000
00000000
00000000
,
00000000
00000000
00000000
00000000
00000000
00000000
33000000
10000000
,
01000000
00000000
00000000
01000000
00010000
00000000
00000000
00010000
,
00001000
00000000
00000000
00000100
00000000
00000000
00000100
00000000
00000001
00000000
00000000
00000000
00000001
00000000
00000000
00000000
,
00001010
00010010
00011000
00101000
,
00110000
00000000
00000000
00010000
00000000
00000000
10000000
00000000
00100000
00000000
01000000
00000000
00010000
00000000
10000000
00000000
,
00100000
00000000
00000000
00100000
00010000
00000000
00000000
00010000
,
00001000
00000000
00001000
00000010
00000001
00000000
00001000
00000100
,
00000001
00001010
00010010
00001000
,
00000100
00001000
00000010
00001000
00000001
00000010
00000001
00000001
,
00000100
00000000
00000000
00000100
00001000
00000000
00000000
00001000
,
00010000
00000000
00000000
01000000
00000000
00000000
01000000
00000000
10000000
00000000
00000000
00000000
10000000
00000000
00000000
00000000
,
11000000
00000000
00110000
00000000
11000000
00000000
00100000
00010000
,
01000000
00000000
00001000
00010000
00000000
00010000
00100000
10000000
,
00100000
00000000
00000000
00100000
00010000
00000000
00000000
00010000
,
00001000
00000000
00001000
00000010
00000001
00000000
00001000
00000100
,
00000010
00002000
00000000
00000000
00000000
00000000
00000000
00000000
,
00000000
00000000
00000000
00000000
00000000
00000000
00003000
00000100
,
00000010
00000000
00000000
00000010
00001000
00000000
00000000
00001000
,
00010000
00000000
00010000
00100000
01000000
00000000
00010000
01000000
,
10000000
01100000
01010000
01001000
,
00001000
00010000
01000000
00000000
00010000
00001000
00000100
00000000
,
00000110
00000000
00000101
00000000
00000010
00001000
00010000
00000000
,
01000000
00010000
00001000
00000100
00000000
00000001
00001000
00000000
,
00000000
00000000
00000000
00000000
;
#NOTES:
     dance-double:
     :
     Challenge:
     13:
     :
00000000
00000000
00000000
00000000
,
00000000
00000000
00000000
00000000
,
00000000
00000000
00000000
00000000
,
00101000
00011000
00010010
00011000
,
00000000
00001000
00000100
00001000
00010000
00001000
00100000
00002000
,
00000000
00000000
00000000
00000000
00013000
00001000
00001000
00020000
,
00000000
00000000
00000000
00230000
00000000
00000000
00300000
00000000
,
01000000
00100000
01000000
00010000
00100000
00010000
00001000
00000100
,
00000000
00000100
00000010
00000100
00000220
00000000
00000330
00000000
,
00000100
00001000
00000100
00001000
00000010
00001000
00000010
00001000
,
00000010
00001000
00010000
01000000
00100000
00000000
01100000
00000000
,
01000000
00010000
01000000
00010000
00100000
00010000
00100000
00010000
,
01000000
00000000
00000000
01000000
00010000
00000000
00000000
00010000
00001000
00000000
00000000
00001000
00000010
00000000
00000000
00000010
,
00010000
00001000
00010000
00001000
00100000
00010000
01000000
00100000
,
01000000
00000000
00000000
01000000
00010000
00000000
00000000
00010000
00001000
00000000
00000000
00001000
00000100
00000000
00000000
00000100
,
00000010
00000000
00000100
00000010
00000100
00001000
00000010
00010000
,
00001000
00000100
00000010
00002000
00000000
00003010
00000010
00000010
,
00000100
00000010
00000100
00000010
00001000
00000100
00001000
00010000
,
00100000
00001000
00010000
01000000
00100000
00000000
01100000
00000000
,
01000000
00100000
01000000
00100000
00010000
00100000
00010000
00001000
,
00000100
00001100
00010100
00011000
,
00002000
00000000
00003000
00010000
00200000
00000000
00300000
01000000
,
00000000
00100000
01000000
00001000
00100000
00010000
00001000
00000100
,
00000020
00000030
00000100
00002000
00003000
00010000
00100000
01000000
,
00000000
00010000
00001000
00010000
00001000
00000000
00011000
00000000
,
00022000
00000000
00000000
00033000
00000000
00000000
00001000
00000000
00000010
00000000
00001000
00000000
00010000
00000000
00001000
00000000
,
00022000
00000000
00000000
00033000
00000000
00000000
00010000
00000000
00100000
00000000
00010000
00000000
00001000
00000000
00010000
00000000
,
00002000
00003000
00200000
00300000
02000000
03000000
20000000
31000000
,
00100000
00000000
00100000
00010000
00000000
00100000
00001000
00010000
,
00022000
00000000
00000000
00033000
00000000
00000000
00001000
00000000
00000100
00000000
00001000
00000000
00010000
00000000
00001000
00000000
,
00020000
00030000
00000100
00001000
00000100
00000000
00000010
00000001
,
00000010
00000002
00000000
00000010
00000000
00000100
00000000
00001003
,
00000000
00001000
00000100
00010000
00001000
00100000
01000000
10000000
,
01000000
10000000
01000000
20000000
30000000
00010000
00100000
00002000
,
00003000
00010000
00001000
00000100
00000001
00000000
00000101
00000000
,
00000100
00000001
00000100
00000002
00000003
00001000
00000010
00000200
,
00000300
00001000
00010000
00001000
01000000
00000000
01010000
00000000
,
00010000
01000000
00010000
02000000
03000000
00100000
00010000
00001000
,
00000000
00010000
00001000
00000100
00000010
00000000
00001010
00000000
,
00000000
00000010
00000100
00001000
00000100
00001000
00010000
00010000
,
00000000
00001000
00100000
00001000
00010000
00001000
00011000
00000000
,
00000000
00011000
00000000
00010000
00001000
00000100
00001000
00010000
,
00000000
00011000
00000000
00001000
00010000
01000000
00010000
00001000
,
00000000
00011000
00000000
00010000
00001000
00000010
00000001
00000100
,
00000101
00001010
00011000
00110000
,
00010000
00100000
00010000
00200000
00300000
01000000
00100000
01000000
,
00100000
00000000
01000000
00000000
00100000
00000000
00000000
00000000
00110000
00000000
00000000
00000000
22000000
00000000
00000000
33000000
,
00000000
10000000
01000000
00100000
00010000
00100000
00010000
00001000
,
00000100
00001000
00000100
00000010
00000002
00000000
00000013
00000001
,
00000200
00000000
00000000
00000300
00000000
00000000
00000100
00000000
00002000
00000000
00000000
00003000
00000000
00000000
00001000
00000000
,
00020000
00000000
00000000
00031000
00000000
00000000
01000000
00000000
02000000
00000000
00000000
00000000
03000000
00000000
00000000
00000000
,
01100000
00110000
00011000
00001000
,
00101000
00000000
00000000
00000000
00011000
00000000
00000000
00000000
00010100
00000000
00000000
00000000
00000000
00000000
00000000
00000100
00000000
00000000
00001000
00000000
00000000
00000001
00000000
00000000
,
00000200
00000000
00000000
00000300
00000000
00000000
00000100
00000000
00002000
00000000
00000000
00003000
00000000
00000000
00001000
00000000
,
00020000
00000000
00000000
00030000
00200000
00000000
10300000
00000000
20000000
00000000
00000000
00000000
31000000
00000000
00100000
00000000
,
00001000
00020000
00000000
00001000
00000000
00000100
00000000
00030010
,
00000000
00010000
00001000
00010000
00000100
00000010
00000001
00000010
,
00000002
00000000
00000000
00000003
00000000
00000000
00000001
00000000
00000200
00000000
00000000
00000300
00000000
00000000
00000100
00000000
,
00002000
00000000
00000000
00013000
00000000
00000000
00100000
00000000
00200000
00000000
00000000
00000000
00300000
00000000
01000000
00000000
,
01100000
00000000
01010000
00000000
00110000
00000000
00010000
00100000
,
00001000
00000000
00010000
00000100
00000000
00000010
00000100
00000010
,
00000002
00000000
00000000
00000003
00000000
00000000
00000001
00000000
00000200
00000000
00000000
00000300
00000000
00000000
00000100
00000000
,
00002000
00000000
00000000
00003000
00020000
00000000
00031000
00000000
00200000
00000000
00000000
00000000
00310000
00000000
01000000
00000000
,
00010000
02000000
00000000
00100000
00000000
00010000
00000000
03100000
,
00000000
01000000
00100000
00010000
00001000
00000100
00001000
00010000
,
00000200
00000000
00000000
00000300
00000000
00000000
00000100
00000000
00002000
00000000
00000000
00003000
00000000
00000000
00001000
00000000
,
00020000
00000000
01030000
00010000
01000000
00000000
00010000
00100000
,
00010000
00100000
00110000
00000000
00001000
00000010
00001010
00000000
,
00000001
00000100
00000010
00001000
00000100
00010000
00001000
00010000
,
00010010
00000000
00011000
00000000
01000000
01000000
01000000
00000000
,
01000000
00100000
00010000
00001000
00000000
00000100
00001100
00000000
,
00000000
00000000
00000000
00000000
;
