#VERSION:0.83;
#TITLE:LEMON MELON COOKIE;
#SUBTITLE:;
#ARTIST:TAK;
#TITLETRANSLIT:;
#SUBTITLETRANSLIT:;
#ARTISTTRANSLIT:;
#GENRE:;
#ORIGIN:;
#CREDIT:;
#BANNER:LEMON MELON COOKIE.png;
#BACKGROUND:LEMON MELON COOKIE-bg.png;
#PREVIEWVID:;
#JACKET:LEMON MELON COOKIE-jacket.jpg;
#CDIMAGE:;
#DISCIMAGE:;
#LYRICSPATH:;
#CDTITLE:;
#MUSIC:LEMON MELON COOKIE.ogg;
#OFFSET:0.250150;
#SAMPLESTART:33.086182;
#SAMPLELENGTH:12.000000;
#SELECTABLE:YES;
#BPMS:0.000=180.000;
#STOPS:;
#DELAYS:;
#WARPS:;
#TIMESIGNATURES:0.000=4=4;
#TICKCOUNTS:0.000=4;
#COMBOS:0.000=1;
#SPEEDS:0.000=1.000=0.000=0;
#SCROLLS:0.000=1.000;
#FAKES:;
#LABELS:0.000=Song Start;
#BGCHANGES:;
#KEYSOUNDS:;
#ATTACKS:
;

//---------------dance-single - Flicks----------------
#NOTEDATA:;
#CHARTNAME:1292 (P) + 1941 (S);
#STEPSTYPE:dance-single;
#DESCRIPTION:;
#CHARTSTYLE:;
#DIFFICULTY:Challenge;
#METER:9;
#RADARVALUES:0.645947,0.674935,0.191158,0.316146,0.000000,615.000000,589.000000,26.000000,43.000000,0.000000,0.000000,0.000000,0.000000,0.000000,0.645947,0.674935,0.191158,0.316146,0.000000,615.000000,589.000000,26.000000,43.000000,0.000000,0.000000,0.000000,0.000000,0.000000;
#CREDIT:Flicks;
#NOTES:
// measure 0
0000
0000
0000
0000
,  // measure 1
0000
0000
0000
0000
,  // measure 2
0000
0000
0000
0000
,  // measure 3
0000
0000
0000
0000
,  // measure 4
1000
0000
0010
0000
0100
0000
0001
1000
,  // measure 5
0001
1000
0000
0001
0000
1000
0100
0000
,  // measure 6
1000
0100
0010
0000
0010
0002
0000
0000
,  // measure 7
1003
0010
0000
0000
0010
0200
0000
0000
,  // measure 8
0301
0000
0101
0000
1100
0000
0001
0011
,  // measure 9
0000
1010
0000
1000
0001
1000
0100
0100
,  // measure 10
0000
2000
0000
3001
1000
0001
0100
0010
,  // measure 11
1000
0001
1000
0100
1000
0001
1000
0010
,  // measure 12
0000
1000
0000
0001
0010
0001
0010
0100
,  // measure 13
1000
0001
1000
0010
0100
0000
0001
0010
,  // measure 14
0100
0010
0001
0000
2000
0000
0000
0010
,  // measure 15
0000
3001
0000
1000
0001
0000
1000
0100
,  // measure 16
0010
0100
1000
0000
0002
0100
0000
1000
,  // measure 17
0000
0103
0000
0001
1000
0100
0010
0000
,  // measure 18
1001
0000
1000
0001
0100
0001
1000
0001
,  // measure 19
0010
0001
1000
0001
0100
0001
1000
0001
,  // measure 20
0010
0001
1000
0100
1000
0001
1000
0010
,  // measure 21
1000
0001
1000
0100
1000
0001
0010
0000
,  // measure 22
1100
0000
0001
1000
0010
1000
0100
1000
,  // measure 23
0001
1000
0010
1000
0001
0010
0100
1000
,  // measure 24
0100
0010
0001
1000
0001
0100
0001
0010
,  // measure 25
0001
1000
0010
0000
0100
0000
0001
1000
,  // measure 26
0001
1000
0002
0023
,  // measure 27
2030
0000
3020
0000
0031
1000
0001
0000
,  // measure 28
1000
0000
0010
0100
0001
0100
0010
0000
,  // measure 29
0100
0000
0110
0000
0000
0001
0010
0000
,  // measure 30
1001
0000
1000
0010
0100
1000
0100
0010
,  // measure 31
0100
1000
0100
0010
1000
0001
0010
0001
,  // measure 32
1000
0010
1000
0010
0100
0001
1000
0100
,  // measure 33
0010
0100
1000
0001
0100
1000
0200
0000
,  // measure 34
0301
1000
0001
0010
0100
0001
0100
0010
,  // measure 35
0100
0001
0100
0010
0001
1000
0010
1000
,  // measure 36
0001
0010
0001
0010
0100
1000
0001
0100
,  // measure 37
0010
0100
0001
0000
1000
0000
0100
0001
,  // measure 38
0100
1000
0001
0000
0100
0000
0010
0100
,  // measure 39
0001
0010
0000
0010
0100
1000
0001
0100
,  // measure 40
0010
1000
0001
0000
1000
0100
0000
0100
,  // measure 41
0010
0001
1000
0001
0100
0010
1000
0100
,  // measure 42
0010
0001
1000
0010
1000
0001
0100
0001
,  // measure 43
1000
0100
0110
0000
0001
0000
1000
0000
,  // measure 44
0001
0000
0100
0010
0100
0010
1000
0001
,  // measure 45
1000
0001
0020
0000
1030
0000
0010
0001
,  // measure 46
1001
0000
1000
0001
0100
0010
0100
0000
,  // measure 47
0001
0010
0000
0100
1000
0001
0100
0000
,  // measure 48
0101
0000
0001
1000
0100
0010
0100
0000
,  // measure 49
1000
0010
0000
0100
0000
0001
0000
1000
,  // measure 50
0100
1000
0001
1000
0010
0100
0010
0000
,  // measure 51
1000
0100
0000
0010
0001
1000
0010
0000
,  // measure 52
1010
0000
1000
0001
1000
0001
0010
0100
,  // measure 53
0010
0100
1000
0000
0001
0000
0100
0010
,  // measure 54
0100
0000
0000
0001
0000
1000
0001
0000
,  // measure 55
0010
0000
0100
0000
1000
0000
0001
0100
,  // measure 56
0020
0000
1030
0000
0001
0010
0100
0000
,  // measure 57
0100
0010
0001
0000
0001
0100
0010
0000
,  // measure 58
0010
0100
0001
1000
0001
1000
0001
0010
,  // measure 59
0200
0000
1300
0001
0100
0010
1000
0010
,  // measure 60
0100
0000
0001
0000
1000
0100
0010
0000
,  // measure 61
0010
0100
1000
0100
0001
0100
2000
0000
,  // measure 62
3002
2003
0010
3002
,  // measure 63
0010
0000
1003
0000
0010
0100
0001
0000
,  // measure 64
1000
0002
0023
0230
,  // measure 65
2300
3002
0203
0320
,  // measure 66
2030
0000
3001
0010
0000
0001
1000
0001
,  // measure 67
0100
0010
2000
0000
0000
3001
0010
0000
,  // measure 68
0000
1002
0000
0000
,  // measure 69
0000
0000
0000
0103
,  // measure 70
0010
0000
1010
0000
0000
0011
0000
0110
,  // measure 71
0000
1100
0000
0001
0101
0000
0000
0000
,  // measure 72
0000
0110
0000
0000
,  // measure 73
0000
1010
0000
1000
1001
0000
0000
0000
,  // measure 74
1001
0000
1000
0100
0020
1000
0000
0100
,  // measure 75
0000
1030
0010
0100
1000
0001
0100
0010
,  // measure 76
1000
0100
1000
0100
0010
0001
0100
0010
,  // measure 77
1000
0001
0010
0001
0010
1000
0020
0000
,  // measure 78
0031
1000
0001
0100
0010
0001
0010
0100
,  // measure 79
0010
0001
0010
0100
0001
1000
0100
0010
,  // measure 80
0001
0100
0001
0100
0010
1000
0100
0010
,  // measure 81
0001
0010
0001
0000
1000
0000
0010
0001
,  // measure 82
0010
1000
0001
0000
0010
0000
0100
0010
,  // measure 83
0001
0100
0000
0100
0010
1000
0001
0010
,  // measure 84
0100
1000
0001
0000
1000
0010
0000
0010
,  // measure 85
0100
0001
1000
0001
0010
0100
1000
0010
,  // measure 86
0100
0001
1000
0100
1000
0001
0010
0001
,  // measure 87
1000
0010
0110
0000
0001
0000
1000
0000
,  // measure 88
0001
0000
1000
0100
0010
0001
1000
0010
,  // measure 89
0100
0001
1000
0100
0010
0001
0020
0000
,  // measure 90
1030
0010
0002
0000
0000
0000
1003
0000
,  // measure 91
0000
0010
2000
0000
3020
0000
0032
0000
,  // measure 92
0023
0000
1030
0001
1000
0001
0010
0100
,  // measure 93
0010
0100
0002
0000
0203
0000
1300
0001
,  // measure 94
1001
0000
1000
0001
0100
0001
1000
0000
,  // measure 95
0002
0010
0000
1003
0001
0100
0010
0000
,  // measure 96
1001
0000
0001
1000
0100
1000
0001
0000
,  // measure 97
0200
0010
0000
0302
0000
1000
0000
0013
,  // measure 98
0001
1000
0001
1000
0010
1000
0001
0000
,  // measure 99
2000
0100
0000
3001
1000
0010
0100
0000
,  // measure 100
1001
0000
0001
0010
0001
0010
0001
0100
,  // measure 101
0001
0100
2000
0000
3200
0000
0301
0010
,  // measure 102
0100
0000
0000
0000
;
