#VERSION:0.83 StepPrime;
#TITLE:Knock Knock [Full Version];
#SUBTITLE:;
#ARTIST:Twice;
#TITLETRANSLIT:;
#SUBTITLETRANSLIT:;
#ARTISTTRANSLIT:;
#CUSTOMBPM:-1;
#HEARTS:4;
#CATEGORY:KPOP;
#VOLUME:100;
#GENRE:;
#ORIGIN:;
#CREDIT:JYP;
#BANNER:Knock Knock.png;
#BACKGROUND:Knock Knock-bg.png;
#PREVIEWVID:Knock Knock-p.mp4;
#JACKET:;
#CDIMAGE:;
#DISCIMAGE:;
#LYRICSPATH:;
#CDTITLE:;
#MUSIC:Knock Knock.mp3;
#OFFSET:0.100000;
#SAMPLESTART:43.006008;
#SAMPLELENGTH:12.923000;
#SELECTABLE:YES;
#BPMS:0.000=130.000;
#STOPS:;
#DELAYS:;
#WARPS:;
#TIMESIGNATURES:0.000=4=4;
#TICKCOUNTS:0.000=4;
#COMBOS:0.000=1;
#SPEEDS:0.000=1.000=0.000=0;
#SCROLLS:0.000=1.000;
#FAKES:;
#LABELS:0.000=Song Start;
#DIVISION:;
#BGCHANGES: 0.000=Knock Knock-bg.png=1.000=1=0=0=StretchNoLoop====,
0.250=Knock Knock.avi=1.000=0=0=0=StretchNoLoop====,
99999=-nosongbg-=1.000=0=0=0
;
#KEYSOUNDS:;
#ATTACKS:
;

//---------------pump-single - ----------------
#NOTEDATA:;
#CHARTNAME:;
#STEPSTYPE:pump-single;
#DESCRIPTION:;
#LABELTYPE:UCS;
#PRELOADNOTESKIN:;
#SEPARATENOTES:NO;
#PLAYERS:1;
#QUESTDESC:;
#QUESTMODS:;
#QUESTBARINITIAL:500;
#QUESTBARMAX:1000;
#SHOWSKINSCORE:NO;
#RANDOMSKINLIST:;
#CHARTSTYLE:;
#DIFFICULTY:Beginner;
#METER:2;
#RADARVALUES:0.183141,0.292150,0.015323,0.347311,0.000000,251.000000,248.000000,3.000000,68.000000,0.000000,0.000000,0.000000,0.000000,0.000000,0.183141,0.292150,0.015323,0.347311,0.000000,251.000000,248.000000,3.000000,68.000000,0.000000,0.000000,0.000000,0.000000,0.000000;
#CREDIT:Haruki-kun;
#OFFSET:-0.612000;
#BPMS:0.000000=130.000000
;
#STOPS:;
#DELAYS:;
#WARPS:;
#TIMESIGNATURES:0.000000=4=4
;
#TICKCOUNTS:0.000000=2
,156.500000=4
,157.500000=2
;
#COMBOS:0.000000=1
;
#SPEEDS:0.000000=1.000000=0.000000=0
;
#SCROLLS:0.000000=1.000000
;
#FAKES:;
#DIVISION:;
#LABELS:0.000000=Song Start
;
#BRAINHELP:0.000000=BrainHelp ;
#SPECIALDIVISION:;
#DISPLAYBPM:130.000000;
#DISPLAYPERSPECTIVE:PUMP;
#NOTES:
00000
00000
00000
00000
,
00000
00000
00000
00000
,
00000
00000
00000
00000
,
00000
00000
00000
00000
,
00000
00000
00000
00000
,
00000
00000
00000
00000
,
00200
00000
00300
00000
,
10000
00000
10000
00100
,
01000
00000
00001
00100
,
00020
00030
10000
00100
,
02000
03000
00001
01000
,
00200
00300
10000
00001
,
00000
00200
00300
00010
,
01000
00001
00000
10000
,
00000
00100
02000
03000
,
00100
10000
00001
00000
,
10000
00001
10000
00000
,
02000
03000
00020
00030
,
00200
00300
00002
00003
,
10000
00100
01000
00000
,
00010
00000
00100
00001
,
20000
00000
00000
00000
,
30200
00300
00000
00000
,
00200
00300
02000
03000
,
00020
00030
00100
00000
,
00001
10000
00001
00000
,
00100
00000
00100
00010
,
02000
03000
00200
00300
,
20000
30000
00200
00300
,
01000
00000
00100
00000
,
00010
00000
00100
00001
,
00100
10000
00001
00000
,
10000
00100
01000
00000
,
00001
00100
00010
00000
,
02000
00000
03000
00001
,
00200
00300
00020
00030
,
02000
03000
00200
00300
,
10000
01000
00001
00010
,
10000
01000
00001
00010
,
00200
00000
00300
00001
,
00000
00100
00001
01000
,
00000
00100
10000
00010
,
00000
00100
00001
10000
,
00000
00100
01000
00010
,
00000
00100
00001
10000
,
00200
00000
00000
00000
00300
10000
00001
00000
,
00200
00300
00010
01000
,
00200
00300
10000
00001
,
10000
00001
10000
00000
,
00100
00000
00100
00000
,
01000
00010
01000
00010
,
01000
00000
00100
00000
,
00200
00300
20000
30000
,
00020
00030
00200
00300
,
00002
00000
00000
00000
00003
00000
00000
00001
,
10000
00010
00100
00010
,
00200
00300
00002
00003
,
20000
30000
00100
00000
,
01000
00010
01000
00000
,
00100
00000
00100
10000
,
00002
00003
00200
00300
,
00020
00030
00200
00300
,
00001
00000
00100
00000
,
10000
00000
00100
01000
,
00100
00010
01000
00000
,
00010
00100
00001
00000
,
01000
00100
10000
00000
,
00002
00000
00003
01000
,
00200
00300
20000
30000
,
00002
00003
00200
00300
,
00010
00001
01000
10000
,
00010
00001
01000
10000
,
00100
00000
00000
00000
,
00000
00000
00000
00000
,
00000
00000
00000
00000
,
00000
00000
00000
00000
,
00100
00100
00100
00100
,
00100
00100
00200
00300
,
00000
00000
00000
00000
,
20002
00000
30003
00000
,
01000
00010
01000
00010
,
10000
00001
01000
00010
,
20000
00000
30000
00000
,
00002
00000
00003
01000
,
00100
00100
00100
00000
,
10000
10000
10000
00001
,
00200
00000
00000
00300
,
00020
00000
00000
00030
,
02000
03000
00020
00030
,
20000
30000
00002
00003
,
20000
30000
00001
10000
,
00200
00000
00300
10001
,
00100
01000
00010
00000
00200
00000
00300
00000
,
00001
10000
00100
00000
00100
00000
01000
00000
,
00002
00000
00000
00000
,
20003
00000
00000
00000
,
30100
10000
00001
10000
,
00010
01000
00010
01000
,
00100
00100
20000
30100
,
00002
00103
00100
01010
,
02000
03000
00020
00030
,
00200
00300
00100
00100
,
00002
00003
10000
00100
,
02000
00000
03000
00100
,
00100
00000
00000
00000
;

//---------------pump-single - ----------------
#NOTEDATA:;
#CHARTNAME:;
#STEPSTYPE:pump-single;
#DESCRIPTION:;
#LABELTYPE:UCS;
#PRELOADNOTESKIN:;
#SEPARATENOTES:NO;
#PLAYERS:1;
#QUESTDESC:;
#QUESTMODS:;
#QUESTBARINITIAL:500;
#QUESTBARMAX:1000;
#SHOWSKINSCORE:NO;
#RANDOMSKINLIST:;
#CHARTSTYLE:;
#DIFFICULTY:Easy;
#METER:5;
#RADARVALUES:0.302073,0.398386,0.045968,0.388171,0.000000,414.000000,405.000000,9.000000,76.000000,0.000000,0.000000,0.000000,0.000000,0.000000,0.302073,0.398386,0.045968,0.388171,0.000000,414.000000,405.000000,9.000000,76.000000,0.000000,0.000000,0.000000,0.000000,0.000000;
#CREDIT:Haruki-kun;
#OFFSET:-0.612000;
#BPMS:0.000000=130.000000
;
#STOPS:;
#DELAYS:;
#WARPS:;
#TIMESIGNATURES:0.000000=4=4
;
#TICKCOUNTS:0.000000=2
,156.500000=4
,157.500000=2
;
#COMBOS:0.000000=1
;
#SPEEDS:0.000000=1.000000=0.000000=0
;
#SCROLLS:0.000000=1.000000
;
#FAKES:;
#DIVISION:;
#LABELS:0.000000=Song Start
;
#BRAINHELP:0.000000=BrainHelp ;
#SPECIALDIVISION:;
#DISPLAYBPM:130.000000;
#DISPLAYPERSPECTIVE:PUMP;
#NOTES:
00000
00000
00000
00000
,
00000
00000
00000
00000
,
20000
00000
00000
00000
,
30000
00000
00000
00000
,
00002
00000
00000
00000
,
00003
00000
00000
00000
,
00200
00000
00300
00000
,
00010
00010
01000
01100
,
00001
00001
10000
10100
,
00020
00000
00030
00000
00010
01000
00100
00000
,
02000
00000
03000
00000
01000
00001
00100
00000
,
00000
00001
00000
00001
00000
01000
00200
00300
,
00000
10000
00000
10000
00000
00010
00100
00002
,
00003
01000
01000
00010
,
00010
00000
00100
00000
00001
10000
00001
00000
,
00100
00010
01000
01010
,
00000
01000
00010
01010
,
20000
00000
30000
00000
10000
00100
01000
00000
,
00002
00000
00003
00000
00001
00100
00010
00000
,
00000
00100
00000
00001
00010
00100
02000
03000
,
00000
00010
00000
10000
01000
00100
00020
00030
,
10000
10000
00001
00001
,
00200
00000
00300
00000
00000
02020
03030
00000
,
00100
00100
00001
00001
,
10000
10000
00010
01000
,
00200
00300
00000
00200
00300
01000
00010
01000
,
00200
00300
00000
00200
00300
10000
00001
10000
,
00001
00000
00001
00000
10000
00100
01000
00000
,
00001
00000
10000
00000
00001
10000
00100
01000
,
00020
00030
02000
03000
00200
00300
20000
30000
,
00002
00003
00200
00300
00020
00030
02000
03000
,
00200
00300
01000
00001
01000
00000
00001
00000
,
10000
00010
10000
00010
00000
00100
00000
00100
,
00020
00030
02000
03000
00010
01000
00010
00100
,
00002
00000
01003
01000
,
00200
00000
00300
00000
00100
01000
00010
00000
,
00200
00000
00300
00000
00100
00010
01000
00000
,
00001
00001
10000
10000
,
00010
00010
01000
01000
,
00200
00000
00000
00000
00300
00000
01000
00100
,
10000
00000
00010
00100
00001
00000
01000
00000
,
00010
00000
00100
00002
20000
00000
30003
00000
,
00000
00010
01000
00010
,
01000
00001
10000
00001
,
00000
10000
00100
10000
00100
01000
00010
00000
,
00100
00001
00100
00001
00100
00010
01000
00000
,
00010
00100
00001
00000
01000
00100
10000
00000
,
00002
00000
00003
00000
01000
00100
20000
00000
,
30001
10000
00001
00100
,
00010
01000
00100
10000
,
00001
00000
10001
00000
00010
00100
00010
00000
,
01000
00100
01000
00000
00001
00000
10000
00000
,
00010
00100
00001
00100
00010
00000
01000
00000
,
00001
10000
00100
01000
00100
00000
10000
00000
,
00000
00200
00000
00000
00000
00000
00300
01000
,
00010
10000
00100
10000
,
00100
00100
01000
01000
,
00010
00010
10000
00001
,
00200
00300
00000
00200
00300
00001
10000
00001
,
00200
00300
00000
00200
00300
00010
01000
00010
,
01000
00000
01000
00000
00010
00100
00001
00000
,
01000
00000
00010
00000
01000
00010
00100
00001
,
20000
30000
00002
00003
00200
00300
00020
00030
,
02000
03000
00200
00300
20000
30000
00002
00003
,
00200
00300
00001
01000
00001
00000
01000
00000
,
00010
10000
00010
10000
00000
00100
00000
00100
,
20000
30000
00002
00003
10000
00001
10000
00100
,
02000
00000
03001
00001
,
00200
00000
00300
00000
00100
00001
10000
00000
,
00200
00000
00300
00000
00100
10000
00001
00000
,
01000
01000
00010
00010
,
10000
10000
00001
00001
,
00200
00000
00000
00000
,
00000
00000
00000
00300
,
00020
00000
00000
00000
,
00000
00000
00000
00030
,
02000
00000
00000
03000
,
00200
00000
00000
00300
,
20000
30000
00002
00003
,
00200
00000
00300
00000
,
00010
00000
01000
00100
01000
00000
00001
00100
,
00001
01000
00001
00100
00000
00010
01000
00000
,
00200
00300
00000
00200
00300
10000
00001
00000
,
00200
00300
00000
00200
00300
00000
00010
01000
,
00100
00000
00100
10000
00100
01000
00010
00000
,
00100
00000
00100
00001
00100
00010
01000
00000
,
00001
00001
10000
10000
,
00001
00000
10000
00000
00001
00100
00001
00000
,
00100
00000
00001
00000
10000
00000
00010
00100
,
00010
00000
01000
00100
01000
00000
00200
00000
,
01000
00010
00001
10000
,
01300
00000
01010
00000
00100
10000
00001
00000
,
00200
00300
00010
01000
,
00200
00300
10000
00020
,
00100
10000
00100
02030
,
00100
00001
00100
03010
,
00010
01000
01000
00100
,
00100
10000
00001
10000
,
00100
01000
00100
00000
10000
00000
00001
00000
,
00100
00000
00010
00100
00001
00000
00200
00000
,
00010
01000
10000
00001
,
00310
01000
01010
00200
,
00300
10000
00100
00100
,
01000
00010
00100
02002
,
03003
00000
00000
00000
;

//---------------pump-single - ----------------
#NOTEDATA:;
#CHARTNAME:;
#STEPSTYPE:pump-single;
#DESCRIPTION:;
#LABELTYPE:UCS;
#PRELOADNOTESKIN:;
#SEPARATENOTES:NO;
#PLAYERS:1;
#QUESTDESC:;
#QUESTMODS:;
#QUESTBARINITIAL:500;
#QUESTBARMAX:1000;
#SHOWSKINSCORE:NO;
#RANDOMSKINLIST:;
#CHARTSTYLE:;
#DIFFICULTY:Medium;
#METER:7;
#RADARVALUES:0.381604,0.452590,0.071505,0.541396,0.005108,523.000000,509.000000,14.000000,106.000000,0.000000,0.000000,0.000000,0.000000,0.000000,0.381604,0.452590,0.071505,0.541396,0.005108,523.000000,509.000000,14.000000,106.000000,0.000000,0.000000,0.000000,0.000000,0.000000;
#CREDIT:Haruki-kun;
#OFFSET:-0.612000;
#BPMS:0.000000=130.000000
;
#STOPS:;
#DELAYS:;
#WARPS:;
#TIMESIGNATURES:0.000000=4=4
;
#TICKCOUNTS:0.000000=4
,156.500000=8
,157.500000=4
;
#COMBOS:0.000000=1
;
#SPEEDS:0.000000=1.000000=0.000000=0
;
#SCROLLS:0.000000=1.000000
;
#FAKES:;
#DIVISION:;
#LABELS:0.000000=Song Start
;
#BRAINHELP:0.000000=BrainHelp ;
#SPECIALDIVISION:;
#DISPLAYBPM:130.000000;
#DISPLAYPERSPECTIVE:PUMP;
#NOTES:
00000
00000
00000
00000
,
00000
00000
00000
00000
,
00020
00000
00000
00000
,
00000
00000
00000
00030
,
02000
00000
00000
00000
,
00000
00000
00000
03000
,
00200
00000
00000
00300
,
10000
00100
10000
00001
00100
00010
02000
03000
,
00001
00100
00001
01000
00100
10000
10001
00000
,
00100
00000
00100
00000
00100
10000
00002
00003
,
00100
00000
00100
00000
00100
00010
02000
03000
,
00000
00010
00100
00010
00100
00001
02000
03000
,
00000
00001
00100
00010
01000
00100
10000
00002
,
00003
20000
30100
00002
,
00103
00000
10001
00000
00001
00100
00020
00030
,
10000
00010
00100
00010
01000
00100
20000
30000
,
00000
00001
00100
00001
01000
00100
20000
30000
,
00010
00000
00010
00000
00010
00100
00002
00003
,
01000
00000
01000
00000
01000
00100
20000
30000
,
00000
00100
00000
00100
01000
00010
00200
00300
,
00000
00100
00000
00100
00010
01000
00200
00300
,
10000
00000
10100
00000
00001
00000
00101
00001
,
20000
00000
30000
00000
00000
00200
00300
00000
,
02000
03100
00002
00103
,
02000
00000
03100
00000
00002
00000
00103
00100
,
00020
00030
00000
00200
00300
00001
10000
00100
,
02000
03000
00000
00200
00300
01100
00100
10000
,
00010
00000
00000
00000
00010
00000
00000
00000
00010
00000
00100
00000
00002
00000
00000
00003
,
01000
00000
01000
00000
01000
00100
10000
00001
,
00200
00300
00001
00001
10000
10000
00100
01000
,
00010
10000
10000
00001
00001
01000
00010
00000
,
00200
00300
00001
10000
00001
00000
00100
00000
,
00010
01000
00010
01000
00000
00100
00100
00100
,
20000
30000
00002
00003
10000
00001
10000
00100
,
02000
00000
00000
00000
03000
00001
01000
00010
,
00100
00000
00100
00000
00100
00001
20000
30000
,
00100
00000
00100
00000
00100
10000
00002
00003
,
20000
30100
00020
00130
,
20000
00000
30100
00000
00010
00100
00020
00000
,
02030
00000
00000
00000
00000
03000
00001
00100
,
00001
01000
00000
00010
00100
00010
10000
00000
,
00100
00100
01000
00010
00100
00002
00000
00003
,
00000
10000
10000
00001
00001
00100
00010
02000
,
03000
00001
00100
00001
00100
00020
02000
03030
,
00000
00010
00100
01000
00100
10000
00100
00001
,
00100
00010
01000
00100
00010
00100
00001
00100
,
10000
00100
01000
00010
01000
00010
01000
00010
,
00200
00000
00300
00000
00001
00001
00200
00000
,
00310
00000
00101
00000
01000
00100
10000
10000
,
00010
00100
00001
00001
20000
30000
00010
00100
,
00010
00000
10010
00000
10000
00100
10000
00001
,
00100
00010
01000
00100
20000
30000
00002
00000
,
10003
00001
00100
00001
00100
00010
02000
03000
,
00100
10000
00100
10000
00100
01000
00020
00030
,
00000
00000
00100
00000
00000
00100
00000
00000
00100
00000
00000
00100
00000
00000
00001
00000
,
20000
30000
00200
00300
02000
03000
00020
00030
,
20000
30100
00020
00130
,
20000
00000
30100
00000
00020
00000
00130
00100
,
00002
00003
00000
00200
00300
00010
01000
00100
,
20000
30000
00000
00200
00300
10100
00100
01000
,
00001
00000
00000
00000
00001
00000
00000
00000
00001
00000
00100
00000
00020
00000
00000
00030
,
10000
00000
10000
00000
10000
00100
01000
00010
,
00200
00300
00010
00010
01000
01000
00100
10000
,
00001
01000
01000
00010
00010
10000
00001
00000
,
00200
00300
00010
01000
00010
00000
00100
00000
,
00001
10000
00001
10000
00000
00100
00100
00100
,
02000
03000
00020
00030
01000
00010
01000
00100
,
20000
00000
00000
00000
30000
00010
10000
00001
,
00100
00000
00100
00000
00100
00010
02000
03000
,
00100
00000
00100
00000
00100
01000
00020
00030
,
02000
03100
00002
00103
,
02000
00000
03100
00000
00001
00100
00002
00000
,
00003
00000
00000
00000
,
00000
00000
00000
00000
,
00000
00000
00000
00000
,
00000
00000
00000
00000
,
00000
00000
00000
00000
,
00000
00000
00000
00000
,
00000
00000
00000
00000
,
20002
30003
00000
00000
,
01100
00000
00101
00001
00200
00300
10000
00100
,
01000
00100
00010
00100
00001
10000
00001
10000
,
00100
10000
10000
00010
10000
00100
01000
00010
,
00100
00010
00010
01000
00010
00010
01000
00100
,
10000
00010
10000
00010
10000
00001
00200
00300
,
00001
01000
00001
01000
00200
00300
01000
00010
,
20000
30100
00002
00103
,
02000
00000
03100
00000
01000
00100
20000
30000
,
00101
00000
01100
01000
00200
00300
00010
00100
,
00001
00100
10000
00100
01000
00010
01000
00010
,
00100
01000
00100
10000
00100
00001
00100
00010
,
01000
00010
00100
00001
10000
00001
00100
00010
,
01000
00001
01000
00001
01000
00010
00200
00300
,
00001
01000
00001
01000
00100
10000
00001
10000
,
00020
01030
20000
31000
,
00200
01300
20000
30010
,
00200
01300
00002
00013
,
00200
00310
00002
01003
,
00001
00100
00010
00100
00002
00003
01000
00010
,
00200
00300
00002
00003
10000
00100
01000
00100
,
20000
00000
00000
30000
00200
00000
00000
00300
02000
00000
03000
00000
00000
00000
00020
00000
,
00000
00030
00200
00000
00300
00000
00002
00000
10003
00000
00100
00000
10001
00000
00000
00000
,
01000
00000
01000
00000
00010
00100
00002
00003
,
01000
00000
01000
00000
00100
10000
00020
00030
,
00200
00300
00000
00000
;

//---------------pump-single - ----------------
#NOTEDATA:;
#CHARTNAME:;
#STEPSTYPE:pump-single;
#DESCRIPTION:;
#LABELTYPE:UCS;
#PRELOADNOTESKIN:;
#SEPARATENOTES:NO;
#PLAYERS:1;
#QUESTDESC:;
#QUESTMODS:;
#QUESTBARINITIAL:500;
#QUESTBARMAX:1000;
#SHOWSKINSCORE:NO;
#RANDOMSKINLIST:;
#CHARTSTYLE:;
#DIFFICULTY:Hard;
#METER:12;
#RADARVALUES:0.515129,0.559081,0.219623,0.663977,0.273252,706.000000,663.000000,43.000000,130.000000,0.000000,0.000000,0.000000,0.000000,0.000000,0.515129,0.559081,0.219623,0.663977,0.273252,706.000000,663.000000,43.000000,130.000000,0.000000,0.000000,0.000000,0.000000,0.000000;
#CREDIT:Haruki-kun;
#OFFSET:-0.612000;
#BPMS:0.000000=130.000000
;
#STOPS:;
#DELAYS:;
#WARPS:;
#TIMESIGNATURES:0.000000=4=4
;
#TICKCOUNTS:0.000000=4
,156.500000=8
,157.500000=4
;
#COMBOS:0.000000=1
;
#SPEEDS:0.000000=1.000000=0.000000=0
;
#SCROLLS:0.000000=1.000000
;
#FAKES:;
#DIVISION:;
#LABELS:0.000000=Song Start
;
#BRAINHELP:0.000000=BrainHelp ;
#SPECIALDIVISION:;
#DISPLAYBPM:130.000000;
#DISPLAYPERSPECTIVE:PUMP;
#NOTES:
// measure 0
00000
00000
00000
00000
,  // measure 1
00000
00000
00000
00000
,  // measure 2
02000
00000
00000
00000
,  // measure 3
00000
00000
00000
00000
,  // measure 4
03020
00000
00000
00000
,  // measure 5
00000
00000
00000
00000
,  // measure 6
00230
00000
00000
00300
,  // measure 7
00001
00100
00001
00100
00001
00000
10000
00100
00000
00000
01000
00000
00200
00000
00300
00000
,  // measure 8
10000
00100
10000
00100
10000
00000
00010
00100
00000
00000
00002
00000
20000
00000
30003
00000
,  // measure 9
00001
00000
00001
00000
00001
00000
00001
00000
00100
00001
10000
00000
00200
00000
00300
00000
,  // measure 10
10000
00000
10000
00000
10000
00000
10000
00000
00100
01000
00010
00000
00200
00000
00300
00000
,  // measure 11
00000
00000
00010
00100
00010
00000
01000
00100
00000
00000
00100
00000
20000
00000
30000
00000
,  // measure 12
00000
00000
00001
00100
00001
00000
10000
00100
00000
00000
01000
00000
00010
00000
00200
00000
,  // measure 13
00300
00001
00100
00100
00020
00030
01000
00200
,  // measure 14
00000
00000
00300
00000
10001
00100
02200
03300
,  // measure 15
10000
00000
00001
01000
00001
00000
10000
00010
00000
00100
00001
00000
02002
00000
03000
00003
,  // measure 16
00000
00000
10000
00100
10000
00000
00001
01000
00000
00100
10000
00000
20020
00000
00030
30000
,  // measure 17
00010
00000
00010
00000
00010
00000
00010
00000
00100
00010
10000
00000
00200
00000
00300
00000
,  // measure 18
01000
00000
01000
00000
01000
00000
01000
00000
00100
01000
00001
00000
00200
00000
00300
00000
,  // measure 19
00000
00000
00010
00100
01000
00000
00100
00010
00000
00000
00101
00000
10002
00000
00000
00003
,  // measure 20
00000
00000
01000
00100
00010
00000
00100
01000
00000
00000
10100
00000
20001
00000
00000
30000
,  // measure 21
00002
00000
00000
02003
00000
00000
03020
00000
00000
00030
00200
00300
00002
00000
20000
00000
,  // measure 22
00000
30003
00000
00000
00000
00100
00100
00000
,  // measure 23
10001
00000
00101
00001
02000
03000
00100
10000
,  // measure 24
00010
10000
00001
00201
00300
00001
00100
00010
,  // measure 25
02000
00000
03000
00000
00000
00000
00200
00000
00300
00000
10000
00001
10000
00000
10001
00000
,  // measure 26
00020
00030
00000
00200
00300
00110
00100
00001
,  // measure 27
00100
00000
00100
00000
00100
00000
00100
00010
00000
01000
00100
00000
20000
00000
00000
30000
,  // measure 28
00100
00000
00100
00000
00100
00000
00100
01000
00000
00000
10001
00000
00001
00000
10000
00000
,  // measure 29
00020
00000
00030
10000
00100
00000
10000
00000
00020
00000
00130
00000
00001
00000
02000
00000
,  // measure 30
03100
00000
10000
00100
10000
00000
00001
00000
00100
00010
00100
00000
00001
00000
00000
00000
,  // measure 31
10001
00000
01100
01000
00002
00003
01000
00100
,  // measure 32
10000
00001
10000
00020
00030
00110
00101
00100
,  // measure 33
00020
00000
00000
00030
20000
00000
00000
30000
02000
03000
00200
00300
00020
00000
20000
00000
,  // measure 34
30030
00000
10000
00000
00010
00100
00010
00000
10000
00000
00100
10000
00010
00000
01000
00000
,  // measure 35
00010
00000
00010
00000
00010
00000
00010
00100
00000
00001
10000
00000
00200
00000
00300
00000
,  // measure 36
01000
00000
01000
00000
01000
00000
01000
00100
00000
00000
10000
00000
00001
00000
10000
00000
,  // measure 37
00020
00000
00030
10000
00001
00000
00100
00000
00010
00000
00100
00000
00001
00000
02000
00000
,  // measure 38
03001
00000
00100
00010
00100
00000
00001
00000
10000
00000
00100
00000
02000
00000
00000
00000
,  // measure 39
03020
00000
00000
00000
00000
00000
00000
00000
00000
00000
00030
00000
10000
00010
00000
10000
,  // measure 40
00100
00000
10000
00001
00000
00000
01000
00000
00100
01000
00000
00001
00000
00000
00010
00100
,  // measure 41
01000
00001
00100
00000
00010
00000
00100
00001
10000
00100
00000
02000
00000
00000
03000
00000
,  // measure 42
00000
00000
00001
00000
00100
00000
00001
00000
01000
00000
00001
00000
01000
00100
20000
00000
,  // measure 43
30000
00000
00001
10000
00001
00100
00010
10000
00100
01000
00000
00002
00000
00000
00003
00000
,  // measure 44
00000
00000
10000
00010
00100
00000
00010
00000
10000
00000
00001
00000
01000
00100
20000
00000
,  // measure 45
30000
00000
01000
00100
00010
00000
01000
00000
00010
00000
00100
00000
00001
10000
00100
00000
,  // measure 46
01000
00001
00000
01000
00000
00000
00100
00000
10000
00000
00010
00000
00100
00000
00001
00000
,  // measure 47
02000
00000
03000
00000
00001
10000
00020
00030
,  // measure 48
00110
00000
00000
00000
10100
00000
00000
00000
00100
10000
00000
00100
00000
00000
10000
00001
,  // measure 49
01000
00000
00000
00100
00000
00000
00000
00000
00000
10000
00000
00000
00000
00000
00000
00010
00000
00000
00000
00000
00000
00000
00100
00000
00000
00000
00000
00000
00000
00000
00001
00000
00000
01000
00000
00000
00100
00000
00000
00000
00000
00000
01000
00000
00000
00000
00000
00000
,  // measure 50
01100
00000
00000
00000
00101
00000
00000
00000
10000
00100
00000
01000
00000
00000
00001
00000
,  // measure 51
00100
00010
00000
00100
00000
00010
00000
20000
00000
00000
00000
30000
00200
00000
00000
00300
,  // measure 52
10000
00000
10000
00000
10000
00000
10000
00000
00100
01000
00010
00000
00200
00000
00300
00000
,  // measure 53
00001
00000
00001
00000
00001
00000
00001
00000
00100
00010
01000
00000
00200
00000
00300
00000
,  // measure 54
00000
00000
10000
00001
00000
10000
00001
00000
10000
00001
00000
10000
00000
00000
00010
00000
,  // measure 55
00200
00000
00000
00300
00002
00000
00000
00003
02000
00000
00000
00000
00020
03000
00030
00000
,  // measure 56
01010
00000
01100
01000
00002
00003
00100
00010
,  // measure 57
10000
00010
01000
01200
00300
01000
00100
10000
,  // measure 58
00002
00000
00003
00000
00000
00000
00200
00000
00300
00000
00010
01000
00010
00000
01010
00000
,  // measure 59
20000
30000
00000
00200
00300
10100
00100
01000
,  // measure 60
00100
00000
00100
00000
00100
00000
00100
10000
00000
00001
00100
00000
00020
00000
00000
00030
,  // measure 61
00100
00000
00100
00000
00100
00000
00100
00001
00000
00000
01010
00000
01000
00000
00010
00000
,  // measure 62
20000
00000
30000
00010
00100
00000
00010
00000
20000
00000
30100
00000
01000
00000
00002
00000
,  // measure 63
00103
00000
00010
00100
00010
00000
01000
00000
00100
10000
00100
00000
01000
00000
00000
00000
,  // measure 64
01010
00000
00101
00001
02000
03000
00001
00100
,  // measure 65
00010
01000
00010
20000
30000
10100
01100
00100
,  // measure 66
20000
00000
00000
30000
00020
00000
00000
00030
00002
00003
00200
00300
20000
00000
00020
00000
,  // measure 67
30030
00000
00010
00000
10000
00100
10000
00000
00010
00000
00100
00010
10000
00000
00001
00000
,  // measure 68
10000
00000
10000
00000
10000
00000
10000
00100
00000
01000
00010
00000
00200
00000
00300
00000
,  // measure 69
00001
00000
00001
00000
00001
00000
00001
00100
00000
00000
00010
00000
01000
00000
00010
00000
,  // measure 70
20000
00000
30000
00010
01000
00000
00100
00000
10000
00000
00100
00000
01000
00000
00002
00000
,  // measure 71
01003
00000
00100
10000
00100
00000
01000
00000
00010
00000
00100
00000
00002
00000
00000
00000
,  // measure 72
00003
00000
00000
10000
00000
00000
00000
00010
,  // measure 73
00000
00000
00000
00000
01000
00100
01000
00010
,  // measure 74
00100
00000
00000
00001
10000
00000
00000
00000
,  // measure 75
00000
00000
00000
00000
00100
10000
00100
01000
,  // measure 76
00010
00000
00010
00100
00001
00000
00001
00000
,  // measure 77
00001
00000
00001
10000
00100
00000
00000
00000
,  // measure 78
10000
00000
00001
00100
00010
01000
00100
10000
,  // measure 79
20002
30003
00000
00000
,  // measure 80
10001
00000
10000
00001
00200
00300
00101
00001
,  // measure 81
10000
00100
01000
00020
00030
00010
00100
00001
,  // measure 82
20000
30000
00000
20100
30000
10000
00001
00100
,  // measure 83
00002
00003
00000
00202
00303
00000
00001
10000
,  // measure 84
00010
00000
00010
00000
00010
00000
00010
01000
00000
00100
01000
00000
00200
00300
00000
00000
,  // measure 85
10000
00000
10000
00000
10000
00000
00001
00200
00300
00000
00100
00000
00010
00000
01000
00000
,  // measure 86
01100
00000
01100
00000
01000
00100
10000
00001
,  // measure 87
00100
00100
00001
10000
00100
02000
00020
03030
,  // measure 88
01010
00000
01100
00100
20000
30000
01000
00100
,  // measure 89
00010
00010
10000
02000
03000
11000
01000
00100
,  // measure 90
00020
00000
00000
00030
00200
00000
00000
00300
00002
00003
02000
03000
00200
00000
20000
00000
,  // measure 91
30300
00001
01000
00001
00100
00010
10000
00001
,  // measure 92
01000
00000
01000
00000
01000
00000
01000
00100
00000
10000
00001
00000
00200
00000
00300
00000
,  // measure 93
00010
00000
00010
00000
00010
00000
00010
00100
00000
00000
00001
00000
10000
00000
00001
00000
,  // measure 94
02000
00000
03000
00001
10000
00000
00100
00000
01000
00000
00100
00000
10000
00000
00020
00000
,  // measure 95
10030
00000
00001
10000
00001
00000
01000
00000
00100
00000
01000
00000
00002
00000
00000
00003
,  // measure 96
20000
00000
00000
00000
30002
00000
00000
00000
00203
00000
00000
00300
00000
00000
00020
00000
,  // measure 97
00000
02030
03000
00002
10003
00001
01000
00100
,  // measure 98
10000
10000
10000
00001
20000
30000
00001
10000
,  // measure 99
00200
00300
20000
30000
00200
01300
01000
01000
,  // measure 100
00002
00000
00000
00003
00200
00000
00000
00300
00020
00000
00030
00000
00000
00000
02000
00000
,  // measure 101
00000
03000
00200
00000
00300
00000
20000
00000
30001
00000
00100
00000
10001
00000
00000
00000
,  // measure 102
00100
00000
00100
00000
00100
00000
00100
01000
00000
00100
10000
00000
00001
00000
00000
00000
,  // measure 103
00100
00000
00100
00000
00100
00000
00100
00010
00000
00100
00001
00000
02000
00000
03000
00000
,  // measure 104
00020
00030
00000
00000
;

//---------------pump-single - ----------------
#NOTEDATA:;
#CHARTNAME:;
#STEPSTYPE:pump-single;
#DESCRIPTION:;
#LABELTYPE:UCS;
#PRELOADNOTESKIN:;
#SEPARATENOTES:NO;
#PLAYERS:1;
#QUESTDESC:;
#QUESTMODS:;
#QUESTBARINITIAL:500;
#QUESTBARMAX:1000;
#SHOWSKINSCORE:NO;
#RANDOMSKINLIST:;
#CHARTSTYLE:;
#DIFFICULTY:Challenge;
#METER:19;
#RADARVALUES:0.898922,1.092138,1.077685,0.842740,0.967874,1232.000000,1008.000000,211.000000,165.000000,0.000000,17.000000,0.000000,0.000000,0.000000,0.898922,1.092138,1.077685,0.842740,0.967874,1232.000000,1008.000000,211.000000,165.000000,0.000000,17.000000,0.000000,0.000000,0.000000;
#CREDIT:JasperSteps;
#OFFSET:-0.612000;
#BPMS:0.000000=130.000000
,192.000000=1040.000000
,208.000000=130.000000
,214.000000=1040.000000
,230.000000=130.000000
,316.000000=65.000000
,324.000000=130.000000
;
#STOPS:;
#DELAYS:;
#WARPS:;
#TIMESIGNATURES:0.000000=4=4
;
#TICKCOUNTS:0.000000=8
,123.000000=16
,123.250000=8
,214.000000=2
,230.000000=8
,283.000000=16
,283.250000=8
,316.000000=4
,324.000000=2
,336.000000=18
,340.000000=8
,436.000000=24
,436.250000=8
;
#COMBOS:0.000000=1
,123.000000=6=1
,123.250000=1
,283.000000=6=1
,283.250000=1
,336.000000=7=1
,340.000000=1
,436.000000=5=1
,436.250000=1
;
#SPEEDS:0.000000=1.000000=0.000000=0
,39.000000=0.750000=0.125000=0
,39.125000=1.000000=0.125000=0
,43.000000=0.750000=0.125000=0
,43.125000=1.000000=0.125000=0
,59.000000=0.750000=0.125000=0
,59.125000=1.000000=0.125000=0
,71.000000=0.750000=0.125000=0
,71.125000=1.000000=0.125000=0
,75.000000=0.750000=0.125000=0
,75.125000=1.000000=0.125000=0
,107.000000=0.750000=0.125000=0
,107.125000=1.000000=0.125000=0
,107.500000=0.750000=0.125000=0
,107.625000=1.000000=0.125000=0
,111.000000=0.750000=0.125000=0
,111.125000=1.000000=0.125000=0
,139.000000=0.750000=0.125000=0
,139.125000=1.000000=0.125000=0
,139.500000=0.750000=0.125000=0
,139.625000=1.000000=0.125000=0
,143.000000=0.750000=0.125000=0
,143.125000=1.000000=0.125000=0
,156.000000=4.000000=4.000000=0
,192.000000=3.500000=0.750000=0
,193.000000=4.000000=0.750000=0
,200.000000=3.500000=0.750000=0
,201.000000=4.000000=0.750000=0
,214.000000=3.500000=0.750000=0
,215.000000=4.000000=0.750000=0
,222.000000=3.500000=0.750000=0
,223.000000=4.000000=0.750000=0
,267.000000=3.000000=0.125000=0
,267.125000=4.000000=0.125000=0
,267.500000=3.000000=0.125000=0
,267.625000=4.000000=0.125000=0
,283.000000=3.500000=0.125000=0
,283.125000=4.000000=0.125000=0
,299.000000=3.500000=0.125000=0
,299.125000=4.000000=0.125000=0
,299.500000=3.500000=0.125000=0
,299.625000=4.000000=0.125000=0
,316.000000=1.000000=0.125000=0
,338.000000=4.000000=2.000000=0
,355.000000=3.000000=0.125000=0
,355.125000=4.000000=0.125000=0
,355.500000=3.000000=0.125000=0
,355.625000=4.000000=0.125000=0
,387.000000=3.000000=0.125000=0
,387.125000=4.000000=0.125000=0
,387.500000=3.000000=0.125000=0
,387.625000=4.000000=0.125000=0
;
#SCROLLS:0.000000=1.000000
,36.000000=2.000000
,36.125000=0.000000
,36.250000=1.000000
,36.500000=2.000000
,36.625000=0.000000
,36.750000=1.000000
,37.000000=2.000000
,37.125000=0.000000
,37.250000=1.000000
,37.500000=2.000000
,37.625000=0.000000
,37.750000=1.000000
,38.000000=2.000000
,38.125000=1.000000
,40.000000=2.000000
,40.125000=0.000000
,40.250000=1.000000
,40.500000=2.000000
,40.625000=0.000000
,40.750000=1.000000
,41.000000=2.000000
,41.125000=0.000000
,41.250000=1.000000
,41.500000=2.000000
,41.625000=0.000000
,41.750000=1.000000
,42.000000=2.000000
,42.125000=1.000000
,59.000000=0.500000
,59.250000=1.000000
,68.000000=2.000000
,68.125000=0.000000
,68.250000=1.000000
,68.500000=2.000000
,68.625000=0.000000
,68.750000=1.000000
,69.000000=2.000000
,69.125000=0.000000
,69.250000=1.000000
,69.500000=2.000000
,69.625000=0.000000
,69.750000=1.000000
,70.000000=2.000000
,70.125000=1.000000
,72.000000=2.000000
,72.125000=0.000000
,72.250000=1.000000
,72.500000=2.000000
,72.625000=0.000000
,72.750000=1.000000
,73.000000=2.000000
,73.125000=0.000000
,73.250000=1.000000
,73.500000=2.000000
,73.625000=0.000000
,73.750000=1.000000
,74.000000=2.000000
,74.125000=1.000000
,88.000000=0.350000
,92.000000=1.000000
,100.000000=2.000000
,100.125000=0.000000
,100.250000=1.000000
,101.500000=2.000000
,101.625000=0.000000
,101.750000=1.000000
,104.000000=2.000000
,104.125000=0.000000
,104.250000=1.000000
,105.500000=2.000000
,105.625000=0.000000
,105.750000=1.000000
,108.000000=2.000000
,108.125000=0.000000
,108.250000=1.000000
,108.500000=2.000000
,108.625000=0.000000
,108.750000=1.000000
,109.000000=2.000000
,109.125000=0.000000
,109.250000=1.000000
,109.500000=2.000000
,109.625000=0.000000
,109.750000=2.000000
,109.875000=0.000000
,110.000000=1.000000
,110.250000=2.000000
,110.375000=0.000000
,110.500000=2.000000
,110.625000=0.000000
,110.750000=1.000000
,112.000000=2.000000
,112.125000=0.000000
,112.250000=1.000000
,112.500000=2.000000
,112.625000=0.000000
,112.750000=1.000000
,113.000000=2.000000
,113.125000=0.000000
,113.250000=1.000000
,113.500000=2.000000
,113.625000=0.000000
,113.750000=2.000000
,113.875000=0.000000
,114.000000=1.000000
,122.000000=2.000000
,122.125000=0.000000
,122.250000=1.000000
,122.500000=2.000000
,122.625000=0.000000
,122.750000=1.000000
,123.000000=2.000000
,123.125000=0.000000
,123.250000=1.000000
,140.000000=2.000000
,140.125000=0.000000
,140.250000=1.000000
,140.500000=2.000000
,140.625000=0.000000
,140.750000=1.000000
,141.000000=2.000000
,141.125000=0.000000
,141.250000=1.000000
,141.500000=2.000000
,141.625000=0.000000
,141.750000=2.000000
,141.875000=0.000000
,142.000000=1.000000
,142.250000=2.000000
,142.375000=0.000000
,142.500000=2.000000
,142.625000=0.000000
,142.750000=1.000000
,144.000000=2.000000
,144.125000=0.000000
,144.250000=1.000000
,144.500000=2.000000
,144.625000=0.000000
,144.750000=1.000000
,145.000000=2.000000
,145.125000=0.000000
,145.250000=1.000000
,145.500000=2.000000
,145.625000=0.000000
,145.750000=2.000000
,145.875000=0.000000
,146.000000=1.000000
,156.000000=0.250000
,192.000000=0.031250
,208.000000=0.250000
,214.000000=0.031250
,230.000000=0.250000
,236.000000=0.500000
,236.125000=0.000000
,236.250000=0.250000
,236.500000=0.500000
,236.625000=0.000000
,236.750000=0.250000
,237.000000=0.500000
,237.125000=0.000000
,237.250000=0.250000
,237.500000=0.500000
,237.625000=0.000000
,237.750000=0.250000
,238.000000=0.500000
,238.125000=0.000000
,238.250000=0.500000
,238.375000=0.000000
,238.500000=0.500000
,238.625000=0.000000
,238.750000=0.250000
,239.000000=0.510000
,239.125000=0.000000
,239.250000=0.250000
,240.000000=0.500000
,240.125000=0.000000
,240.250000=0.250000
,240.500000=0.500000
,240.625000=0.000000
,240.750000=0.250000
,241.000000=0.500000
,241.125000=0.000000
,241.250000=0.250000
,241.500000=0.500000
,241.625000=0.000000
,241.750000=0.250000
,242.000000=0.500000
,242.125000=0.000000
,242.250000=0.500000
,242.375000=0.000000
,242.500000=0.500000
,242.625000=0.250000
,243.000000=0.500000
,243.125000=0.000000
,243.250000=0.250000
,260.000000=0.500000
,260.125000=0.000000
,260.250000=0.250000
,261.500000=0.500000
,261.625000=0.000000
,261.750000=0.250000
,264.000000=0.500000
,264.125000=0.000000
,264.250000=0.250000
,265.500000=0.500000
,265.625000=0.000000
,265.750000=0.250000
,268.000000=0.500000
,268.125000=0.000000
,268.250000=0.250000
,268.500000=0.500000
,268.625000=0.000000
,268.750000=0.250000
,269.000000=0.500000
,269.125000=0.000000
,269.250000=0.250000
,269.500000=0.500000
,269.625000=0.000000
,269.750000=0.500000
,269.875000=0.000000
,270.000000=0.250000
,270.250000=0.500000
,270.375000=0.000000
,270.500000=0.500000
,270.625000=0.000000
,270.750000=0.250000
,271.000000=0.500000
,271.125000=0.000000
,271.250000=0.250000
,272.000000=0.500000
,272.125000=0.000000
,272.250000=0.250000
,272.500000=0.500000
,272.625000=0.000000
,272.750000=0.250000
,273.000000=0.500000
,273.125000=0.000000
,273.250000=0.250000
,273.500000=0.500000
,273.625000=0.000000
,273.750000=0.500000
,273.875000=0.000000
,274.000000=0.250000
,282.000000=0.500000
,282.125000=0.000000
,282.250000=0.250000
,282.500000=0.500000
,282.625000=0.000000
,282.750000=0.250000
,283.000000=0.500000
,283.125000=0.000000
,283.250000=0.250000
,300.000000=0.500000
,300.125000=0.000000
,300.250000=0.250000
,300.500000=0.500000
,300.625000=0.000000
,300.750000=0.250000
,301.000000=0.500000
,301.125000=0.000000
,301.250000=0.250000
,301.500000=0.500000
,301.625000=0.000000
,301.750000=0.500000
,301.875000=0.000000
,302.000000=0.250000
,302.250000=0.500000
,302.375000=0.000000
,302.500000=0.500000
,302.625000=0.000000
,302.750000=0.250000
,303.000000=0.500000
,303.125000=0.000000
,303.250000=0.250000
,304.000000=0.500000
,304.125000=0.000000
,304.250000=0.250000
,304.500000=0.500000
,304.625000=0.000000
,304.750000=0.250000
,305.000000=0.500000
,305.125000=0.000000
,305.250000=0.250000
,305.500000=0.500000
,305.625000=0.000000
,305.750000=0.500000
,305.875000=0.000000
,306.000000=0.250000
,316.000000=0.500000
,324.000000=0.250000
,348.000000=0.500000
,348.125000=0.000000
,348.250000=0.250000
,349.500000=0.500000
,349.625000=0.000000
,349.750000=0.250000
,352.000000=0.500000
,352.125000=0.000000
,352.250000=0.250000
,353.500000=0.500000
,353.625000=0.000000
,353.750000=0.250000
,356.000000=0.500000
,356.125000=0.000000
,356.250000=0.250000
,356.500000=0.500000
,356.625000=0.000000
,356.750000=0.250000
,357.000000=0.500000
,357.125000=0.000000
,357.250000=0.250000
,357.500000=0.500000
,357.625000=0.000000
,357.750000=0.500000
,357.875000=0.000000
,358.000000=0.250000
,358.250000=0.500000
,358.375000=0.000000
,358.500000=0.500000
,358.625000=0.000000
,358.750000=0.250000
,359.000000=0.500000
,359.125000=0.000000
,359.250000=0.250000
,360.000000=0.500000
,360.125000=0.000000
,360.250000=0.250000
,360.500000=0.500000
,360.625000=0.000000
,360.750000=0.250000
,361.000000=0.500000
,361.125000=0.000000
,361.250000=0.250000
,361.500000=0.500000
,361.625000=0.000000
,361.750000=0.500000
,361.875000=0.000000
,362.000000=0.250000
,388.000000=0.500000
,388.125000=0.000000
,388.250000=0.250000
,388.500000=0.500000
,388.625000=0.000000
,388.750000=0.250000
,389.000000=0.500000
,389.125000=0.000000
,389.250000=0.250000
,389.500000=0.500000
,389.625000=0.000000
,389.750000=0.500000
,389.875000=0.000000
,390.000000=0.250000
,390.250000=0.500000
,390.375000=0.000000
,390.500000=0.500000
,390.625000=0.000000
,390.750000=0.250000
,391.000000=0.500000
,391.125000=0.000000
,391.250000=0.250000
,392.000000=0.500000
,392.125000=0.000000
,392.250000=0.250000
,392.500000=0.500000
,392.625000=0.000000
,392.750000=0.250000
,393.000000=0.500000
,393.125000=0.000000
,393.250000=0.250000
,393.500000=0.500000
,393.625000=0.000000
,393.750000=0.500000
,393.875000=0.000000
,394.000000=0.250000
,428.000000=0.500000
,428.125000=0.000000
,428.250000=0.250000
,428.500000=0.500000
,428.625000=0.000000
,428.750000=0.250000
,429.000000=0.500000
,429.125000=0.000000
,429.250000=0.250000
,429.500000=0.500000
,429.625000=0.000000
,429.750000=0.500000
,429.875000=0.000000
,430.000000=0.250000
,430.250000=0.500000
,430.375000=0.000000
,430.500000=0.500000
,430.625000=0.000000
,430.750000=0.250000
,431.000000=0.500000
,431.125000=0.000000
,431.250000=0.250000
,432.000000=0.500000
,432.125000=0.000000
,432.250000=0.250000
,432.500000=0.500000
,432.625000=0.000000
,432.750000=0.250000
,433.000000=0.500000
,433.125000=0.000000
,433.250000=0.250000
,433.500000=0.500000
,433.625000=0.000000
,433.750000=0.500000
,433.875000=0.000000
,434.000000=0.250000
,434.250000=0.500000
,434.375000=0.000000
,434.500000=0.500000
,434.625000=0.000000
,434.750000=0.250000
,435.000000=0.500000
,435.125000=0.000000
,435.250000=0.500000
,435.375000=0.000000
,435.500000=0.500000
,435.625000=0.000000
,435.750000=0.500000
,435.875000=0.000000
,436.000000=0.125000
;
#FAKES:;
#DIVISION:;
#LABELS:0.000000=Song Start
;
#BRAINHELP:0.000000=BrainHelp ;
#SPECIALDIVISION:;
#DISPLAYPERSPECTIVE:PUMP;
#NOTES:
00000
00000
00000
00000
,
00000
00000
00000
00000
,
00000
00000
00000
00000
,
00000
00000
00000
00000
,
00000
00000
00000
00000
,
00000
00000
00000
00000
,
00000
00000
00000
00000
,
01000
00100
01000
00100
10000
00000
10000
00002
00003
00000
00100
00000
00220
00030
00300
00000
,
00010
00100
00010
00100
00001
00000
00001
20000
30000
00000
00200
00000
02000
00300
03000
00000
,
01100
00000
01100
00000
01100
00000
01100
00000
01000
00010
00100
00000
00120
00000
00030
00000
,
00110
00000
00110
00000
00110
00000
00110
00000
00010
01000
00100
00000
02100
00000
03000
00000
,
00000
00000
01000
00100
10000
00000
10000
00001
00000
00100
00010
00000
00220
00000
00330
00000
,
00000
00000
00010
10000
00100
00000
00100
01000
00000
00000
00002
00003
00200
00300
00010
00000
,
01010
00000
00020
00030
00200
00300
00002
00003
00020
00030
00200
00300
20000
30000
02000
03000
,
00200
00300
00020
00030
20000
30000
00200
00300
01001
00000
00100
00000
20020
00000
30030
00000
,
00000
00000
00010
00100
00010
00000
10000
00100
00000
00100
01000
00000
02020
00000
03030
00000
,
00000
00000
00010
00100
00010
00000
01000
00100
00000
00100
10000
00000
20002
00003
30000
00000
,
00101
00000
00101
00000
00101
00000
00101
00000
00101
10000
00100
00000
20200
00000
30300
00000
,
10100
00000
10100
00000
10100
00000
10100
00000
10100
00001
00100
00000
00202
00000
00303
00000
,
10100
00000
10000
00100
01000
00000
00010
00200
00000
00300
00002
00000
01103
00000
00000
00000
,
01100
00000
01000
00100
10000
00000
00001
00200
00000
00300
00020
00000
10130
00000
00000
00000
,
10000
00100
01000
00100
10000
00001
00100
00010
10000
00100
01000
10000
00100
00001
10000
00100
,
02000
00000
00000
00000
00000
00100
00100
03000
,
00010
00100
00010
00100
00001
10000
00100
01000
00001
01000
00001
01000
00100
10000
00001
00100
,
00010
00100
00001
00100
00010
01000
00100
10000
00010
01000
00100
10000
00010
01000
00001
01000
,
00110
01000
00001
10000
00001
10000
00110
10000
00001
01000
00100
10000
00001
00100
00010
01000
,
00101
10000
00010
10000
00010
10000
00101
10000
00010
01000
00010
01000
01100
00000
00110
00000
,
10100
00000
10100
00000
10100
00000
00110
10100
00000
10100
00110
00000
02100
00000
03000
00000
,
00110
00000
00110
00000
00110
00000
01100
00220
00330
00000
00020
00030
00200
00300
00002
00003
,
10000
00100
01000
00010
10000
00100
01000
00010
00100
00001
00010
00001
00100
00010
00001
00100
,
20000
30000
00001
00100
00010
00000
00110
00000
01100
00000
10010
00000
02102
00000
03003
00000
,
01000
00100
10000
00100
01000
00001
00100
00001
00010
00001
00010
00001
00100
00010
01000
00100
,
10000
00010
00100
00010
10000
00100
01000
00010
00100
00001
00010
00001
00100
00010
00001
00100
,
10000
00100
10000
00100
10000
00001
10000
00001
00100
00001
00100
00010
01000
00100
10000
00010
,
00100
00010
00100
00010
00100
00010
00100
00010
00100
00010
01000
00100
01100
00000
00110
00000
,
10100
00000
10100
00000
10100
00000
10100
00110
00000
00110
01100
00000
00220
00330
00000
00000
,
01100
00000
01100
00000
01100
00000
00110
02200
03300
00000
02000
03000
00200
00300
20000
30000
,
00001
00100
00010
01000
00001
00100
00010
10000
00100
10000
00010
00100
00001
00010
00100
01000
,
00020
00030
00100
00001
00010
00000
00011
00000
00001
00010
00100
01000
10000
00100
00001
10000
,
00200
00000
00000
00000
00000
00000
00000
00000
00000
00000
00300
00000
01000
00100
00000
00100
,
20000
30000
00100
20002
30003
00000
00101
00000
20000
30110
00000
02102
03003
00000
01000
00100
,
00010
00001
00100
00000
00101
00000
00001
00100
00010
20000
30000
11000
00000
00000
00000
00000
,
00000
00000
10100
00000
00110
00000
10100
00000
00101
00000
01100
00000
01000
00100
20000
30000
,
00000
00000
00001
00100
00010
00100
01000
10000
00100
02000
00000
00020
03000
00030
00200
00300
,
00002
00003
10000
00100
20000
30000
00110
00000
02000
03000
00101
00000
00001
00100
00020
00030
,
00000
00000
01000
00100
02000
03000
00110
00000
20000
30000
00101
00000
01000
00100
20000
30000
,
00001
00200
00000
00010
00000
00300
00002
00000
01000
00003
20000
00000
01000
30000
00200
00000
,
02000
03000
00000
00000
00300
00000
00000
00000
01001
00000
10010
00000
01101
00000
00000
00000
,
20000
30000
00000
00000
00200
00300
00000
00000
00020
00030
00000
00000
00000
00000
00000
00000
00000
00000
00000
00000
00000
00000
00000
00000
00000
00000
00000
00000
00000
00000
00000
00000
00000
00000
00000
00000
00000
00000
00000
00000
00000
00000
00000
00000
00000
00000
00000
00000
00000
00000
00000
00000
00000
00000
00000
00000
00000
00000
00000
00000
00000
00000
00000
00000
,
00000
00000
00000
00000
,
20000
30000
00000
00000
00200
00300
00000
00000
00020
00030
00000
00000
00000
00000
00000
00000
00000
00000
00000
00000
00000
00000
00000
00000
00000
00000
00000
00000
00000
00000
00000
00000
00000
00000
00000
00000
00000
00000
00000
00000
00000
00000
00000
00000
00000
00000
00000
00000
00000
00000
00000
00000
00000
00000
00000
00000
00000
00000
00000
00000
00000
00000
00000
00000
,
00000
00000
00000
00000
,
10000
00200
00300
02000
00000
03000
00110
00000
00010
10000
00000
10100
00000
00200
00300
02000
,
03000
00000
00000
00000
00000
00000
00000
00000
00001
00000
00000
00000
00100
00000
00000
00000
00010
00000
00000
00000
00000
00000
00000
00000
01000
00000
00000
00000
00000
00000
00000
00000
02000
03000
00000
00000
00200
00300
00000
00000
00002
00003
00000
00000
00000
00000
00000
00000
00000
00000
00000
00000
00000
00000
00000
00000
00000
00000
00000
00000
00000
00000
00000
00000
,
00000
00000
00000
00000
,
00000
00000
00000
00000
00000
00000
00000
00000
00000
00000
00000
00000
00000
00000
00000
00000
00000
00000
00000
00000
00000
00000
00000
00000
00000
00000
00000
00000
00000
00000
00000
00000
02000
03000
00000
00000
00200
00300
00000
00000
00002
00003
00000
00000
00000
00000
00000
00000
00000
00000
00000
00000
00000
00000
00000
00000
00000
00000
00000
00000
00000
00000
00000
00000
,
00000
00000
00002
00000
,
00003
00000
00000
00000
00000
00000
00000
00000
00100
00010
00000
00210
00300
00000
00010
00000
,
01000
00100
00000
10100
00000
00100
01000
00010
00200
00300
00001
00010
00200
00300
01000
00100
,
01100
00000
01100
00000
01100
00000
01100
00000
01100
00001
00100
00000
00202
00300
00003
00000
,
10100
00000
10100
00000
10100
00000
10100
00000
10100
00010
00100
00000
00220
00300
00030
00000
,
10000
00000
00010
01100
00000
00010
10100
00000
00010
01100
00000
00002
00000
00000
10003
00000
,
20101
30010
10120
01030
02110
03001
10101
00000
,
10000
00100
10000
00100
01000
00010
00100
00001
01000
00001
01000
00001
00100
00010
01000
00100
,
10000
00100
01000
00100
10000
00001
00100
00010
10000
00001
00100
00010
10000
00001
01000
00001
,
10100
00001
01000
00010
01000
00010
10100
00010
01000
00001
00100
00010
01000
00100
10000
00001
,
01100
00010
10000
00010
10000
00010
01100
00010
10000
00001
10000
00001
00101
00000
10100
00000
,
00110
00000
00110
00000
00110
00000
10100
00110
00000
00110
10100
00000
00102
00000
00003
00000
,
10100
00000
10100
00000
10100
00000
00101
20200
30300
00000
20000
30000
00200
00300
02000
03000
,
00010
00100
00001
10000
00010
00100
00001
10000
00100
01000
10000
01000
00100
10000
01000
00100
,
00020
00030
01000
00100
10000
00000
10100
00000
01001
00000
10110
00000
02102
00000
03003
00000
,
00001
00100
00010
00100
00001
01000
00100
01000
10000
01000
10000
01000
00100
10000
00001
00100
,
00010
10000
00100
10000
00010
00100
00001
10000
00100
01000
10000
01000
00100
10000
01000
00100
,
00010
00100
00010
00100
00010
01000
00010
01000
00100
01000
00100
10000
00001
00100
00010
10000
,
00100
10000
00100
10000
00100
10000
00100
10000
00100
10000
00001
00100
00101
00000
10100
00000
,
00110
00000
00110
00000
00110
00000
00110
10100
00000
10100
00101
00000
20200
30300
00000
00000
,
00101
00000
00101
00000
00101
00000
10100
00202
00303
00000
00002
00003
00200
00300
00020
00030
,
01000
00100
10000
00001
01000
00100
10000
00010
00100
00010
10000
00100
01000
10000
00100
00001
,
20000
30000
00100
01000
10000
00000
11000
00000
01000
10000
00100
00001
00010
00100
01000
00010
,
00200
00000
00000
00000
00000
00000
00000
00000
00000
00000
00000
00000
00000
00000
00000
00300
,
00020
00000
00000
00000
00000
00000
00000
00000
00000
00000
00000
00000
00000
00000
00000
00030
,
02000
00000
00000
00000
00000
00000
00000
03000
,
00002
00000
00000
00000
00000
00000
00000
00003
,
20000
00000
00000
00000
00000
00000
00000
30000
,
00200
00300
00000
00000
00000
00000
00000
00000
,
00010
00100
00010
00100
00001
10000
00100
01000
00001
01000
00001
01000
00100
10000
01000
10000
,
00100
01000
10000
01000
00100
10000
00010
00100
00001
10000
00100
01000
00001
00100
00001
10000
,
00110
10000
00001
01000
00001
01000
00110
01000
00001
10000
00010
00100
00001
00010
00100
01000
,
00101
01000
00001
10000
00001
10000
00110
10000
00001
00100
00010
01000
01100
00000
10010
00000
,
01001
00000
01001
00000
01001
00000
10010
01001
00000
01001
10010
00000
10110
00000
00010
00100
,
01001
00000
01001
00000
01001
00000
10010
02002
03003
00000
01000
00100
10000
00001
00100
00010
,
10000
00010
00100
00010
00001
00010
00100
00001
00010
00001
00100
00010
01000
00100
10000
00010
,
00100
01000
10000
00100
02000
03000
10000
00000
11000
00000
00100
00000
00112
00000
00003
00000
,
10000
00100
10000
00100
01000
00010
00100
00001
01000
00001
01000
00001
00100
00010
00001
00010
,
00100
00001
00010
00001
00100
00010
10000
00100
01000
00010
00100
00001
01000
00100
01000
00010
,
00100
00010
00100
00001
00100
00001
00100
00001
10000
00100
01000
10000
01000
00100
10000
00010
,
00100
00010
00001
00010
00100
00010
01000
00010
00100
00010
10000
00001
00101
00000
10010
00000
,
01001
00000
01001
00000
01001
00000
10010
01001
00000
01001
10010
00000
10110
00000
10000
00100
,
01001
00000
01001
00000
01001
00000
10010
02002
03003
00000
00001
00100
00010
01000
00100
10000
,
00010
10000
00100
10000
01000
10000
00100
01000
10000
01000
00100
10000
00001
00100
00010
10000
,
00100
00001
00010
00100
00002
00003
20000
30000
00200
00300
02000
00000
00102
00000
03003
00000
,
01001
00000
00001
00100
00020
00030
01000
00100
20000
30000
00010
00100
02000
03000
00100
00010
,
02000
03000
00100
00010
00002
00003
00010
00100
02000
03000
00010
00100
00002
00003
10000
00100
,
01000
00000
01100
00000
01100
00000
10010
00000
02002
03003
00000
00000
01001
00000
00100
00000
,
20020
30030
00100
00000
20020
30030
00010
00100
00020
00030
10000
00100
01000
00001
00100
00010
,
02000
03000
00100
00010
00002
00003
00010
00100
02000
03000
00010
00100
02000
03000
10000
00100
,
02000
03000
10000
01000
00200
00300
10000
01000
00200
00300
00010
01000
00100
10000
00010
00100
,
00101
00000
00101
00000
00101
00000
01100
00101
00000
00101
01100
00000
20120
30030
00010
10000
,
10100
00000
00101
00000
01100
00000
00101
00110
00000
00110
00010
01000
00100
10000
01000
00100
,
00020
00000
00000
00000
00000
00000
00000
00000
00000
00000
00000
00000
00000
00000
00000
00000
00000
00000
00000
00000
00000
00030
00000
00000
00000
00000
00000
00000
00000
00000
00000
00000
;
