#VERSION:0.83;
#TITLE:Kirby 64 - The Crystal Shards;
#SUBTITLE:- Planet Popstar;
#ARTIST:Nintendo;
#TITLETRANSLIT:;
#SUBTITLETRANSLIT:;
#ARTISTTRANSLIT:;
#GENRE:;
#ORIGIN:;
#CREDIT:;
#BANNER:Kirby 64 - The Crystal Shards.png;
#BACKGROUND:Popstar.png;
#PREVIEWVID:;
#JACKET:;
#CDIMAGE:;
#DISCIMAGE:Popstar.png;
#LYRICSPATH:;
#CDTITLE:;
#MUSIC:Super Smash Bros Wii U - Planet Popstar Music.ogg;
#OFFSET:1.100000;
#SAMPLESTART:1.549475;
#SAMPLELENGTH:11.304424;
#SELECTABLE:YES;
#BPMS:0.000=169.900;
#STOPS:;
#DELAYS:;
#WARPS:;
#TIMESIGNATURES:0.000=4=4;
#TICKCOUNTS:0.000=4;
#COMBOS:0.000=1;
#SPEEDS:0.000=1.000=0.000=0;
#SCROLLS:0.000=1.000;
#FAKES:;
#LABELS:0.000=Song Start;
#BGCHANGES:;
#KEYSOUNDS:;
#ATTACKS:
;

//---------------dance-single - ----------------
#NOTEDATA:;
#CHARTNAME:;
#STEPSTYPE:dance-single;
#DESCRIPTION:;
#CHARTSTYLE:;
#DIFFICULTY:Easy;
#METER:4;
#RADARVALUES:0.338952,0.372847,0.051356,0.205425,0.000000,231.000000,226.000000,5.000000,20.000000,0.000000,0.000000,0.000000,0.000000,0.000000,0.338952,0.372847,0.051356,0.205425,0.000000,231.000000,226.000000,5.000000,20.000000,0.000000,0.000000,0.000000,0.000000,0.000000;
#CREDIT:;
#NOTES:
0000
0000
0000
0000
,
0000
0000
0000
0000
,
0100
1000
0010
0100
,
0001
0100
0100
0100
0001
0000
0000
0000
,
0010
1000
0010
0000
,
0001
0001
0100
0000
0100
0000
0000
0000
,
0001
0010
0010
0000
,
0001
0010
1000
0000
,
0001
0010
0100
1000
,
0010
0100
0010
0000
,
0100
0001
1000
0010
,
0001
0000
0100
0001
1000
0000
0000
0000
,
1000
0100
0010
0001
,
0001
0100
1000
0000
,
0001
0000
0001
1000
0001
0000
0001
0000
,
0100
0000
0100
0010
0100
0000
0100
0000
,
0001
0010
0100
1000
,
2000
3002
2003
3000
,
1000
0100
0010
1000
,
0001
0000
0000
0001
0001
0000
0000
0000
,
0001
0100
0010
1000
,
0001
0000
0000
1000
1000
0000
0000
0000
,
0001
0100
0010
1000
,
0002
0000
2003
0000
,
3010
0000
0100
0000
,
0000
0100
0010
0001
,
0100
1000
0010
0100
,
0001
0010
0001
0000
,
0010
1000
0010
0100
,
0001
0100
0100
0000
,
1000
0010
0010
0001
,
0100
0010
1000
0000
,
0001
0010
0100
0000
,
0010
0100
1000
0000
,
0100
0001
1000
0010
,
0001
0010
0100
0000
1000
0000
0000
0000
,
1000
0100
0010
0001
,
0100
1000
1001
0000
,
0010
0000
0010
0100
0010
0000
0010
0000
,
0100
0000
1000
0001
1000
0000
0001
0000
,
0100
0010
1000
0100
,
0002
2003
3002
0003
,
1000
0100
0020
0030
,
0100
0110
0010
0000
,
0001
0100
0020
0030
,
1000
0010
0110
0000
,
0001
0100
0010
1000
,
2000
0000
3002
0003
,
1000
0001
0100
0010
,
0002
0203
2300
3000
,
1000
0000
0100
0000
0002
0000
0000
0003
,
0200
0300
0020
0030
0200
0300
0000
0000
,
0100
0001
2000
0000
,
3100
1000
1000
1000
,
1000
0010
1000
0010
,
0100
0010
1000
0100
,
0100
0000
0000
0100
0100
0000
0000
0000
,
0001
0000
0000
0001
1000
0000
0000
0000
,
0100
0000
0000
1000
0100
0000
0000
0000
,
0100
0000
0000
0001
1000
0000
0000
0000
,
1000
0100
0010
0001
,
0100
0010
0110
0100
,
0010
1000
0010
0001
,
0100
0100
0100
0000
,
0100
0001
1000
0001
,
0100
0010
0100
0000
,
0110
0000
0000
0000
;

//---------------dance-single - ----------------
#NOTEDATA:;
#CHARTNAME:;
#STEPSTYPE:dance-single;
#DESCRIPTION:;
#CHARTSTYLE:;
#DIFFICULTY:Medium;
#METER:6;
#RADARVALUES:0.465142,0.576218,0.369765,0.297867,0.000000,317.000000,281.000000,36.000000,29.000000,0.000000,0.000000,0.000000,0.000000,0.000000,0.465142,0.576218,0.369765,0.297867,0.000000,317.000000,281.000000,36.000000,29.000000,0.000000,0.000000,0.000000,0.000000,0.000000;
#CREDIT:;
#NOTES:
0000
0000
0000
0000
,
0000
0000
0000
0000
,
0100
1000
0010
0100
,
0001
0100
0010
0100
0001
0000
0000
0000
,
0010
1000
0010
0100
,
0001
0001
0100
1000
0100
0000
0000
0000
,
0001
0000
0010
0100
0010
0100
1000
0000
,
0001
0000
0010
0100
1000
0010
0100
0000
,
0001
0010
0100
1000
,
0011
1100
0110
0000
,
0100
0001
1000
0010
,
0001
0010
0100
0001
1000
0000
0000
0000
,
1000
0100
0010
0001
,
0001
0010
0100
1000
1001
0000
0000
0000
,
0001
1000
0001
1000
0001
1000
0001
0000
,
0100
0010
1000
0001
0001
0110
1000
0000
,
0001
0001
0010
0010
1000
1000
0100
0100
,
0002
2003
3002
0003
,
1000
0100
0010
1000
,
0001
0000
0000
0110
1001
0000
0000
0000
,
0001
0100
0010
1000
,
0001
0000
0000
1001
0110
0000
0000
0000
,
0001
0100
0010
1000
,
0002
0000
2003
0000
,
3020
0000
0230
0000
,
2300
3200
0320
0032
,
0103
1000
0010
0100
,
0001
0100
0010
0100
0001
0000
0000
0000
,
0010
1000
0010
0100
,
0001
0001
0100
1000
0100
0000
0000
0000
,
1000
0000
0010
0100
0010
0100
0001
0000
,
0100
0000
0010
0100
1000
0010
0100
0000
,
0001
0010
0100
1000
,
0011
1100
0110
0000
,
0100
0001
1000
0010
,
0001
0010
0100
0001
1000
0000
0000
0000
,
1000
0100
0010
0001
,
0100
0010
1000
0010
1001
0000
0000
0000
,
0010
0100
0010
0100
0010
0100
0010
0000
,
0100
0010
1000
0001
1000
0110
0001
0000
,
0001
0001
0010
0010
1000
1000
0100
0100
,
0002
2003
3002
0003
,
1000
0100
0020
0030
,
1100
0110
0011
0000
,
0001
0100
0020
0030
,
1000
0100
0010
0001
0110
0000
0000
0000
,
0001
0100
0010
1000
,
2000
0000
3002
0003
,
1000
0001
0100
0010
,
0002
0203
2300
3000
,
1000
1000
0100
0010
0002
0000
0000
0003
,
2200
3300
0022
0033
2200
3300
0000
0000
,
0100
0001
2000
0000
,
3100
1000
1000
1000
,
1000
0001
0010
0100
1000
0001
0010
0000
,
0100
0100
0010
0010
1000
0001
0110
0000
,
0100
0000
0000
0100
0100
0000
0000
0000
,
0001
0000
0000
0001
1000
0000
0000
0000
,
0110
0000
0000
1001
0110
0000
0000
0000
,
0100
0000
0000
0001
1000
0000
0000
0000
,
1000
0100
0010
0001
,
1100
1010
0110
0101
,
0011
1000
0010
0001
,
0100
0100
0100
0100
0100
0000
0000
0000
,
0100
0001
1000
0001
,
0110
1001
0110
1001
0110
0000
0000
0000
,
0110
0000
0000
0000
;

//---------------dance-single - ----------------
#NOTEDATA:;
#CHARTNAME:;
#STEPSTYPE:dance-single;
#DESCRIPTION:;
#CHARTSTYLE:;
#DIFFICULTY:Hard;
#METER:10;
#RADARVALUES:0.729260,0.711799,0.082170,0.308138,0.487885,497.000000,489.000000,8.000000,30.000000,0.000000,0.000000,0.000000,0.000000,0.000000,0.729260,0.711799,0.082170,0.308138,0.487885,497.000000,489.000000,8.000000,30.000000,0.000000,0.000000,0.000000,0.000000,0.000000;
#CREDIT:;
#NOTES:
// measure 0
0000
0000
0000
0000
,  // measure 1
0001
0000
0000
0000
0000
0000
0000
0000
0000
0001
0000
0000
0001
0000
1000
0001
,  // measure 2
0010
0000
0010
0000
1000
0000
0100
0000
1000
0000
0001
0000
0001
1000
0100
0000
,  // measure 3
1000
0000
0010
0000
0100
0000
0001
0000
1000
0000
0000
0000
0000
0000
0001
0001
,  // measure 4
0100
0000
0100
0000
1000
0000
0001
0000
0010
0000
0001
0000
1000
0010
1000
0000
,  // measure 5
0001
0000
0100
0000
0010
0000
1000
0000
0001
0000
0000
0000
0000
0000
0010
0001
,  // measure 6
2000
0000
3000
0001
0100
0000
1000
0000
0001
0000
0100
0000
0001
0000
0000
0000
,  // measure 7
1000
0000
0000
0010
0100
0000
0010
0000
0001
0000
0010
0000
0100
0000
0000
0000
,  // measure 8
1000
0100
0000
1000
0100
0000
0100
0000
1000
0000
0100
0000
0001
0000
0010
0000
,  // measure 9
0100
0000
0100
0010
0100
0000
0100
0010
0100
0000
0000
0000
0000
0000
1000
0001
,  // measure 10
0010
0000
1000
0000
0100
0000
0010
0000
0100
0000
1000
0000
0100
0010
0001
0000
,  // measure 11
1000
0000
0100
0000
0010
0000
0100
0000
1000
0000
0000
0000
0000
0000
0100
1000
,  // measure 12
0001
0000
0001
0000
0100
0000
0010
0000
1000
0000
0001
0000
0100
0001
0010
0000
,  // measure 13
1000
0000
0100
0000
0010
0000
0100
0000
1000
0000
0000
0000
0000
0000
1000
0100
,  // measure 14
0020
0000
0030
0010
0100
0000
1000
0000
0100
0000
0010
0000
1000
0000
0000
0000
,  // measure 15
0100
1000
0000
0001
0010
0000
1000
0000
0001
0000
0100
0000
0010
0000
0000
0000
,  // measure 16
1000
0100
0000
0010
0100
0000
0100
0000
0010
0000
0001
0000
0001
0000
0010
0000
,  // measure 17
0100
1000
0000
0001
0010
0001
0000
1000
0200
0000
0000
0000
0300
0000
0010
0001
,  // measure 18
0010
0000
0000
0001
0010
0000
0100
0000
1000
0000
0100
0000
0010
0000
0001
0000
,  // measure 19
1000
0000
0100
0000
0000
0000
1010
0000
0220
0000
0000
0000
0330
0000
0010
0100
,  // measure 20
1000
0000
0000
0100
1000
0000
0100
0000
0010
0000
0100
0000
0001
0000
0010
0000
,  // measure 21
1000
0000
0100
0000
0000
0000
1010
0000
0102
0000
0000
0000
0003
0000
1000
0100
,  // measure 22
0010
0000
0000
0100
0010
0000
0001
0000
0010
0000
0100
0000
0001
0000
1000
0000
,  // measure 23
0001
0000
1000
0000
0010
0000
0100
0000
0001
0000
0000
1000
0010
0000
0000
0001
,  // measure 24
0010
0000
0000
1000
0100
0000
0000
0000
0001
0000
0010
0000
0001
0000
1000
0100
,  // measure 25
0020
0000
0000
0000
0030
0000
0001
1000
0010
0000
0000
0000
0000
0000
1000
0100
,  // measure 26
0010
0000
0010
0000
0100
0000
0010
0000
0001
0000
0001
0000
0100
0010
0100
0000
,  // measure 27
1000
0000
1000
0000
1000
0000
0100
0000
1000
0000
0000
0000
0000
0000
0001
0010
,  // measure 28
0100
0000
0100
0000
0010
0000
0001
0000
0010
0000
0001
0000
1000
0100
1000
0000
,  // measure 29
0001
0000
0010
0000
0100
0000
1000
0000
0001
0000
0000
0000
0000
0000
0010
0100
,  // measure 30
2000
0000
3000
1000
0100
0000
0010
0000
0100
0000
0010
0000
0001
0000
0000
0000
,  // measure 31
1000
0000
0000
0100
0100
0000
0010
0000
0001
0000
0010
0000
0100
0000
0000
0000
,  // measure 32
1000
1000
0000
0100
0100
0000
0010
0000
0001
0000
0010
0000
0001
0000
0010
0000
,  // measure 33
0100
0000
0100
0010
0100
0000
0010
0100
0010
0000
0000
0000
0000
0000
1000
0100
,  // measure 34
0010
0000
0010
0000
0100
0000
0010
0000
0001
0000
0001
0000
0001
0010
0001
0000
,  // measure 35
1000
0000
1000
0000
1000
0000
0100
0000
1000
0000
0000
0000
0000
0000
0100
0010
,  // measure 36
0001
0000
0001
0000
0100
0000
0010
0000
1000
0000
0100
0000
0010
0001
0010
0000
,  // measure 37
1000
0000
0100
0000
0010
0000
0100
0000
1000
0000
0000
0000
0000
0000
1000
0100
,  // measure 38
0020
0000
0030
0010
0100
0000
1000
0000
0100
0000
0010
0000
1000
0000
0000
0000
,  // measure 39
0100
0100
0000
0010
0010
0000
1000
0000
0001
0000
0100
0000
0010
0000
0000
0000
,  // measure 40
1000
1000
0000
0100
0100
0000
0100
0000
0010
0000
0001
0000
0001
0000
0010
0000
,  // measure 41
0100
0100
0000
0001
0010
0001
0000
0100
0200
0000
0000
0000
0300
0000
0001
0010
,  // measure 42
0100
0000
0000
0010
1000
0000
0100
0000
2000
0000
0000
0000
3000
0000
0001
0010
,  // measure 43
0100
0000
1000
0000
0100
0000
0010
0000
0200
0000
0000
0000
0300
0000
0001
0010
,  // measure 44
0100
0100
0100
0001
0010
0100
1000
0010
,  // measure 45
0001
0000
1000
0000
0100
0000
1000
0000
0020
0000
0000
0000
0030
0000
1000
0100
,  // measure 46
1000
0000
0000
1000
0010
0000
0100
0000
0002
0000
0000
0000
0003
0000
1000
0010
,  // measure 47
0100
0000
0100
0000
1000
0000
1000
0000
0020
0000
0000
0000
0030
0000
0001
0010
,  // measure 48
1000
0100
1000
0100
0010
0001
0010
0001
,  // measure 49
1000
0000
0100
0000
0010
0000
0001
0000
2002
0000
0000
0000
3003
0000
0001
1000
,  // measure 50
0100
0000
0000
0100
0010
0000
0100
0000
0020
0000
0000
0000
0030
0000
0001
0100
,  // measure 51
0010
0000
0001
0000
0010
0000
0100
0000
1000
0000
0100
0000
0010
0000
0001
1000
,  // measure 52
0001
0000
0000
0100
0100
0000
0010
0000
2000
0000
0000
0000
3000
0000
0100
0010
,  // measure 53
0010
0000
0100
0000
0010
0000
0001
0000
0100
0000
0010
0000
0001
0000
0001
0010
,  // measure 54
1000
0000
0000
1000
0010
0000
0100
0000
0001
0000
0010
0000
0200
0000
0300
0000
,  // measure 55
1000
0000
0000
1000
0100
0000
0010
0000
1000
0000
0010
0000
1000
0000
0100
0000
,  // measure 56
0200
0000
0000
0000
0000
0000
0300
1000
2000
0000
0000
0000
0000
0000
3000
0000
,  // measure 57
0002
0000
0000
0000
0000
0000
0003
0010
0020
0000
0000
0000
0030
0000
1000
0100
,  // measure 58
0020
0000
0000
0000
0000
0000
0030
1000
2000
0000
0000
0000
0000
0000
3000
0000
,  // measure 59
0020
0000
0000
0000
0000
0000
0030
1000
2000
0000
0000
0000
3000
0000
0100
0010
,  // measure 60
0001
0000
0000
1000
0100
0000
0000
0100
0010
0000
0000
0010
0001
0000
0000
1000
,  // measure 61
1000
0000
0000
0001
0001
0000
0000
0010
0001
0000
0110
0000
1001
0000
1000
0100
,  // measure 62
0010
0000
0010
0000
0100
0000
0010
0000
0001
0000
0001
0000
0100
0010
0100
0000
,  // measure 63
1000
0000
1000
0000
1000
0000
0100
0000
1000
0000
0000
0000
0000
0000
0001
0010
,  // measure 64
0100
0000
0100
0000
0010
0000
0001
0000
0010
0000
0001
0000
1000
0100
1000
0000
,  // measure 65
0001
0010
0100
1000
2002
0000
0000
0000
,  // measure 66
3003
0000
0000
0000
;
