#VERSION:0.83;
#TITLE:KICK BACK;
#SUBTITLE:- チェンソーマンOP1;
#ARTIST:米津玄師;
#TITLETRANSLIT:;
#SUBTITLETRANSLIT:- Chainsaw Man OP1;
#ARTISTTRANSLIT:Kenshi Yonezu;
#GENRE:;
#ORIGIN:;
#CREDIT:Loak;
#BANNER:bn-kickback.png;
#BACKGROUND:../bg-fallback.png;
#PREVIEWVID:;
#JACKET:;
#CDIMAGE:;
#DISCIMAGE:bn-kickbackalt.png;
#LYRICSPATH:;
#CDTITLE:;
#MUSIC:KICK BACK.ogg;
#OFFSET:0.000000;
#SAMPLESTART:51.468075;
#SAMPLELENGTH:14.100000;
#SELECTABLE:YES;
#BPMS:0.000=204.000;
#STOPS:;
#DELAYS:;
#WARPS:;
#TIMESIGNATURES:0.000=4=4;
#TICKCOUNTS:0.000=4;
#COMBOS:0.000=1;
#SPEEDS:0.000=1.000=0.000=0;
#SCROLLS:0.000=1.000;
#FAKES:;
#LABELS:0.000=Song Start;
#BGCHANGES:;
#KEYSOUNDS:;
#ATTACKS:
;

//---------------dance-single - ----------------
#NOTEDATA:;
#CHARTNAME:;
#STEPSTYPE:dance-single;
#DESCRIPTION:;
#CHARTSTYLE:;
#DIFFICULTY:Challenge;
#METER:11;
#RADARVALUES:0.803467,1.061058,0.067899,0.215012,0.424367,497.000000,491.000000,6.000000,19.000000,0.000000,0.000000,0.000000,0.000000,0.000000,0.803467,1.061058,0.067899,0.215012,0.424367,497.000000,491.000000,6.000000,19.000000,0.000000,0.000000,0.000000,0.000000,0.000000;
#CREDIT:Loak;
#NOTES:
0000
0000
0000
0000
,
0000
0000
0000
0000
,
0000
0000
0000
0000
,
0000
0000
0000
0000
,
0000
0000
0000
0000
,
0000
0000
0000
0000
,
0000
0000
0000
0000
,
0000
0000
0000
0000
0000
0000
0000
1000
,
0010
0000
1000
0000
0001
0000
0010
0100
1000
0100
0010
0000
0001
0000
1000
0000
,
0010
0000
0100
0000
0001
0000
1000
0000
0100
0010
0100
0000
1000
0000
0010
0000
,
1000
0000
0001
0000
0100
0000
0010
1000
0010
0100
0001
0000
1000
0000
0001
0000
,
0010
0000
0100
0000
1000
0000
0001
0000
0010
0100
0010
0000
0001
0000
0100
0000
,
0010
0000
1000
0000
0100
0000
1000
0001
0100
0001
0010
0000
0100
0000
1000
0000
,
0001
0000
0100
0000
0010
0000
1000
0000
0001
0010
0001
0000
0100
0000
0010
0000
,
1000
0000
0001
0000
0010
0000
0100
1000
0001
1000
0010
0000
0100
0000
0001
0000
,
0100
0000
0010
0000
1000
0001
0000
0000
0010
0000
0100
1000
0000
0000
0001
0000
,
0100
0000
0010
0000
1000
0010
0000
0100
,
0000
0001
1000
0100
0000
0010
0001
1000
,
0000
0000
0010
0000
0100
0000
0001
1000
0001
0010
0100
0000
1000
0000
0002
0000
,
0203
0302
2003
3200
0300
0020
0032
0023
,
0230
0300
1000
0000
0001
0100
0000
0010
,
0000
1000
0001
0010
0000
0100
1000
0010
,
0000
0100
0001
0010
0000
0100
0000
1000
,
0000
0000
0001
0100
0001
0000
1000
0100
1000
0000
0020
0000
0000
0000
0130
0000
,
0010
1000
0000
0001
0010
0100
0000
0020
,
0000
0031
1000
0001
0100
0010
0000
2000
,
0000
3100
0010
0001
0010
0100
1000
0020
,
0000
0000
1030
0000
0001
0000
0100
0010
1000
0010
0100
0000
0001
0000
1000
0000
,
0100
0000
0000
0000
0010
0001
0010
0100
,
1000
0001
0100
0020
,
0000
0000
0000
0000
2030
0000
0000
0000
3001
0000
1000
0000
0000
0001
0010
0000
,
0100
0010
0000
0001
0100
0010
1000
0100
,
0011
0000
0001
1000
1010
0010
0100
0001
,
0010
0010
0100
1000
0001
0100
0010
1000
,
1100
0001
0101
0100
,
0010
0010
1000
0001
1000
0010
0100
0001
,
0011
0001
1010
1000
,
0001
0001
0000
0010
0100
1000
0001
0100
,
0010
0000
1000
0000
0001
0000
0010
0100
,
1000
0000
0001
0000
1000
0000
0010
0000
0100
0000
0100
0000
0001
0000
1000
0100
,
0010
0000
0000
0000
0000
0000
0001
0000
0000
0100
0000
0000
0001
0000
0000
0000
1000
0000
0100
0000
1000
0000
0001
0000
,
0100
0010
1000
0100
0010
0001
2000
0000
0000
0000
0000
0000
,
0000
0000
0000
3000
,
0000
0000
0000
0001
,
0100
0000
0000
0000
0010
0000
1000
0100
1000
0001
0100
0000
0010
0000
1000
0000
,
0100
0000
0100
0000
0010
0000
0001
1000
0001
0010
0100
0000
1000
0000
0000
0000
,
0001
0000
0000
0000
0100
0000
0010
1000
0010
0100
0001
0000
1000
0000
0100
0000
,
0010
0000
0010
0000
0001
0000
1000
0001
0100
0001
0010
0000
0100
0000
1000
0000
,
0010
0100
0010
0000
1000
0001
0010
0100
,
1000
0000
0001
0100
0001
0000
0020
0000
,
0000
0000
0130
1000
0001
0100
0000
0010
,
1000
0010
0100
0001
0010
0100
1000
0001
0100
0010
0100
0001
0010
0100
1000
0010
,
0100
0000
0000
0000
0001
0000
1000
0001
1000
0010
0100
0000
0001
0000
0010
0000
,
0100
0000
0100
0000
1000
0000
0000
0000
0001
0100
0001
0000
1000
0000
0000
0000
,
0100
0000
0000
0000
0010
0000
0001
0100
0001
1000
0010
0000
1000
0000
0100
0000
,
0010
0000
0010
0000
0001
0000
1000
0010
1000
0001
1000
0000
0100
0000
0010
0000
,
0001
0000
1000
0000
0010
0000
0100
0001
0100
0000
0010
0000
1000
0000
0001
0010
,
0001
0000
1000
0000
0001
0000
0100
0000
0010
0000
1000
0100
0010
0000
0001
0100
,
0001
0000
0100
0000
0001
0000
0010
0100
1000
0000
0100
0000
1000
0000
0010
0100
,
0001
0000
0010
0000
0100
0000
1000
0000
0001
0000
0010
0100
0010
0100
0000
1000
,
0001
0000
1000
0010
1000
0000
0001
0000
1000
0000
0100
0010
0001
0000
0010
0000
,
0100
0000
1000
0010
0100
0000
0001
0000
0100
0000
0010
0000
1000
0000
0001
0000
,
0010
0000
0000
0000
0100
0000
0000
0000
1000
0010
1000
0000
0100
0000
0000
0000
,
0010
0001
1000
0020
,
0130
0000
0001
0000
1000
0000
0100
0010
0001
0010
0100
0000
1000
0000
0001
0000
,
0100
0000
0010
0000
1000
0000
0001
0000
0010
0100
0010
0000
0001
0000
0100
0000
,
0001
0000
1000
0000
0010
0000
0100
0001
0100
0010
1000
0000
0001
0000
1000
0000
,
0100
0000
0010
0000
0001
0000
1000
0000
0010
0100
0010
0000
1000
0000
0100
0000
,
0010
0000
0001
0000
0100
0000
0001
1000
0010
1000
0100
0000
0010
0000
0001
0000
,
1000
0000
0010
0000
0100
0000
0001
0000
1000
0100
1000
0000
0010
0000
0100
0000
,
0001
0000
1000
0000
0100
0000
0010
0001
1000
0001
0100
0000
0010
0000
1000
0000
,
0010
0100
0001
0010
0100
2000
0000
0000
,
0000
3000
0000
0000
0000
0000
0000
0000
;

//---------------dance-single - ----------------
#NOTEDATA:;
#CHARTNAME:;
#STEPSTYPE:dance-single;
#DESCRIPTION:;
#CHARTSTYLE:;
#DIFFICULTY:Hard;
#METER:8;
#RADARVALUES:0.525406,0.612149,0.045266,0.520556,0.033949,325.000000,321.000000,4.000000,46.000000,0.000000,0.000000,0.000000,0.000000,0.000000,0.525406,0.612149,0.045266,0.520556,0.033949,325.000000,321.000000,4.000000,46.000000,0.000000,0.000000,0.000000,0.000000,0.000000;
#CREDIT:Loak;
#NOTES:
0000
0000
0000
0000
,
0000
0000
0000
0000
,
0000
0000
0000
0000
,
0000
0000
0000
0000
,
0000
0000
0000
0000
,
0000
0000
0000
0000
,
0000
0000
0000
0000
,
0000
0000
0000
0000
0000
0000
0000
0001
,
0100
0000
0000
0001
0010
0000
0000
0100
,
1000
0000
0100
0000
0010
0000
0001
0000
1000
0100
1000
0000
0010
0000
0100
0000
,
0001
0000
0000
0100
0010
0000
0000
1000
,
0001
0000
0010
0000
0100
0000
1000
0000
0001
0100
0001
0000
1000
0000
0100
0000
,
0010
0000
0000
0001
0010
0000
0000
0100
,
1000
0000
0001
0000
0100
0000
0010
0000
1000
0100
1000
0000
0001
0000
0010
0000
,
0001
0000
0000
1000
0001
0000
0000
0100
,
0001
0100
0010
1000
0001
0000
0010
0001
,
0100
0000
0010
0000
1000
0010
0000
0100
,
0000
0001
1000
0100
0000
0010
0001
1000
,
0000
0010
0000
0100
0000
0000
0000
0001
,
0200
0302
2003
3200
0300
0020
0032
0023
,
0230
0300
1000
0000
0001
0100
0000
0010
,
0000
1000
0001
0010
0000
0100
1000
0010
,
0000
0100
0001
0010
0000
0100
0000
1000
,
0000
0001
0100
0001
0010
0200
0000
0310
,
0001
1000
0000
0001
1000
0010
0000
0200
,
0000
0301
1000
0001
0100
0010
0000
2000
,
0000
3100
0010
0001
0010
0100
1000
0020
,
0000
0030
0000
0000
1000
0001
0100
0001
,
0010
0000
0000
0000
0001
1000
0001
0100
,
0010
1000
0001
0020
,
0000
0000
0230
0000
1300
0001
0000
1000
,
0001
0100
0000
0010
0100
0010
1000
0100
,
0010
0000
0001
1000
0010
0100
0010
0000
,
1000
0001
1000
0100
0010
0001
1000
0001
,
0100
0001
0100
0010
,
1000
0001
1000
0001
0010
0100
1000
0001
,
0100
0001
1000
0100
,
0010
0001
0000
0010
0100
1000
0001
0100
,
0010
1000
0001
0010
,
0100
0000
2000
0000
,
3002
0000
0203
0300
,
0020
0000
2030
0000
,
0000
0000
0000
3000
,
0000
0000
0000
0001
,
0100
0000
0010
0000
1000
0001
0000
1000
,
0000
0100
0000
0000
0010
0000
0001
0000
,
1000
0000
0001
0000
0100
0010
0000
1000
,
0000
0010
0000
0000
0100
0000
0001
0000
,
1000
0001
1000
0000
0100
0010
0001
0010
,
0100
0000
1000
0001
0100
0000
0020
0000
,
0000
0000
0130
0001
1000
0100
0000
0020
,
0000
0000
0031
0000
1000
0010
1000
0001
,
0010
0000
0100
0000
1000
0100
0000
0010
,
0000
0001
0000
0000
1000
0000
0010
0000
,
0100
0000
0001
0000
0010
0001
0000
1000
,
0000
0000
0010
0000
0100
0000
0000
0000
0001
0000
0200
0000
0000
0300
0000
0000
,
0010
1000
0002
0000
0023
0000
0230
0000
,
0320
0032
2003
3002
,
0103
0010
2000
0000
3020
0000
0230
0000
,
0302
2003
3002
0023
,
0130
1000
0020
0000
0230
0000
0302
0000
,
0023
0032
0203
0320
,
1030
0001
1000
0100
,
0010
0001
1000
0020
,
0130
0000
0000
0001
1000
0000
0000
0001
,
0010
0000
0100
0000
0010
0000
0001
0000
1000
0010
1000
0000
0001
0000
0010
0000
,
0100
0000
0000
1000
0100
0000
0000
0010
,
0001
0000
1000
0000
0001
0000
0100
0000
0010
1000
0010
0000
0100
0000
0001
0000
,
1000
0000
0000
0001
0010
0000
0000
0100
,
1000
0000
0001
0000
1000
0000
0010
0000
0100
0001
0100
0000
0010
0000
1000
0000
,
0001
0000
0000
0010
0001
0000
0000
1001
,
0000
1010
0000
0110
0000
0202
0000
0000
,
0000
0303
0000
0000
0000
0000
0000
0000
;

//---------------dance-single - ----------------
#NOTEDATA:;
#CHARTNAME:;
#STEPSTYPE:dance-single;
#DESCRIPTION:;
#CHARTSTYLE:;
#DIFFICULTY:Medium;
#METER:7;
#RADARVALUES:0.366976,0.489719,0.000000,0.452658,0.000000,227.000000,227.000000,0.000000,40.000000,0.000000,0.000000,0.000000,0.000000,0.000000,0.366976,0.489719,0.000000,0.452658,0.000000,227.000000,227.000000,0.000000,40.000000,0.000000,0.000000,0.000000,0.000000,0.000000;
#CREDIT:Loak;
#NOTES:
0000
0000
0000
0000
,
0000
0000
0000
0000
,
0000
0000
0000
0000
,
0000
0000
0000
0000
,
0000
0000
0000
0000
,
0000
0000
0000
0000
,
0000
0000
0000
0000
,
0000
0000
0000
0000
0000
0000
0000
0001
,
0100
0000
0000
0001
1000
0000
0000
0010
,
1000
0000
0001
0000
0010
0000
0000
0100
,
1000
0000
0000
0100
0010
0000
0000
0001
,
1000
0000
0010
0000
1000
0000
0000
0001
,
0100
0000
0000
0001
1000
0000
0000
0001
,
0010
0000
0100
0000
1000
0000
0000
0001
,
1000
0000
0000
0001
0100
0000
0000
0010
,
1000
0001
0010
0000
,
0000
0001
1000
0001
,
1000
0100
0010
0100
,
1000
0001
0100
0000
,
0002
2003
3002
2003
3000
0200
2300
3200
,
0320
0030
0001
0000
1000
0000
0010
0000
,
0100
0001
0100
0010
,
1000
0001
0010
0100
,
1000
0000
0000
0000
0000
0000
0000
0001
,
0100
0001
0000
1000
0010
1000
0000
0001
,
0000
0000
0010
0000
0100
0000
0000
0010
,
0000
0000
0001
0000
1000
0000
0001
0200
,
0000
0300
0000
0000
0001
1000
0001
1000
,
0010
0000
0000
0000
1000
0001
1000
0001
,
0010
0100
1000
0002
,
0000
0103
0000
0000
,
0000
0000
0000
0000
0000
0000
0001
1000
,
0100
0000
0010
0001
1000
0001
0100
0000
,
0000
0000
0010
1000
,
0001
1000
0100
0010
,
0000
0000
0001
0010
,
0100
1000
0001
1000
,
0010
0000
0000
1000
,
0001
0100
0001
0010
,
0100
0000
2000
0000
,
3002
0000
0203
0300
,
0020
0000
2030
0000
,
0000
0000
0000
3000
,
0000
0000
0000
0001
,
1000
0000
0100
0000
0010
0001
0000
1000
,
0000
0001
0000
0000
0100
0000
0010
0000
,
1000
0000
0010
0000
0100
0001
0000
1000
,
0000
0001
0000
0000
0000
0000
0010
0000
,
0100
1000
0001
1000
,
0010
0100
0001
2000
,
0000
3100
1000
0001
,
0100
0000
0000
0001
,
1000
0000
0001
0000
1000
0100
0000
0010
,
0000
0100
0000
0000
1000
0000
0001
0000
,
1000
0000
0010
0000
0100
0001
0000
0100
,
0000
0001
1000
0000
0001
2000
0000
3000
,
0000
0002
2003
3002
,
0203
0302
2003
3002
,
0003
2000
3020
2030
,
3002
2003
3200
0320
,
0030
0200
2300
3002
,
2003
3020
0230
0302
,
0003
1000
0001
0010
,
0100
1000
0001
0200
,
0310
0000
0000
1000
0001
0000
0000
1000
,
0100
0000
0010
0000
0001
0000
0000
1000
,
0001
0000
0000
1000
0010
0000
0000
0100
,
0001
0000
0100
0000
0010
0000
0000
1000
,
0001
0000
0000
0100
0001
0000
0000
1000
,
0001
0000
0010
0000
0100
0000
0000
1000
,
0100
0000
0000
0010
0001
0000
0000
1000
,
0000
0001
0000
0100
0000
0020
0000
0000
,
0000
0030
0000
0000
0000
0000
0000
0000
;

//---------------dance-single - ----------------
#NOTEDATA:;
#CHARTNAME:;
#STEPSTYPE:dance-single;
#DESCRIPTION:;
#CHARTSTYLE:;
#DIFFICULTY:Easy;
#METER:4;
#RADARVALUES:0.250578,0.326479,0.000000,0.384759,0.000000,155.000000,155.000000,0.000000,34.000000,0.000000,0.000000,0.000000,0.000000,0.000000,0.250578,0.326479,0.000000,0.384759,0.000000,155.000000,155.000000,0.000000,34.000000,0.000000,0.000000,0.000000,0.000000,0.000000;
#CREDIT:Loak;
#NOTES:
// measure 0
0000
0000
0000
0000
,  // measure 1
0000
0000
0000
0000
,  // measure 2
0000
0000
0000
0000
,  // measure 3
0000
0000
0000
0000
,  // measure 4
0000
0000
0000
0000
,  // measure 5
0000
0000
0000
0000
,  // measure 6
0000
0000
0000
0000
,  // measure 7
0000
0000
0000
0000
,  // measure 8
0001
0000
0010
0000
,  // measure 9
0100
1000
0100
0000
,  // measure 10
0010
0000
0001
0000
,  // measure 11
1000
0010
1000
0000
,  // measure 12
0001
0000
1000
0000
,  // measure 13
0100
0010
0001
0000
,  // measure 14
1000
0000
0001
0000
,  // measure 15
0100
0010
1000
0000
,  // measure 16
0001
0010
0001
0000
,  // measure 17
1000
0010
1000
0000
,  // measure 18
0001
0010
0100
0000
,  // measure 19
2000
3000
0002
0003
,  // measure 20
2000
3001
0100
0000
,  // measure 21
0010
1000
0010
0000
,  // measure 22
0100
0001
0100
0000
,  // measure 23
0010
0000
1000
0000
,  // measure 24
0001
0000
0010
0000
,  // measure 25
0100
0000
1000
0000
,  // measure 26
0001
0000
1000
0000
,  // measure 27
0001
0000
0100
0000
,  // measure 28
0010
0000
1000
0000
,  // measure 29
0010
0000
0100
0000
,  // measure 30
0002
0000
0003
0000
,  // measure 31
2000
0000
3000
0000
,  // measure 32
0100
0000
0010
0000
,  // measure 33
0001
0000
1000
0000
,  // measure 34
0001
0000
1000
0000
,  // measure 35
0010
0000
0100
0000
,  // measure 36
0001
0000
0100
0000
,  // measure 37
0010
0000
1000
0000
,  // measure 38
0001
0000
0010
0000
,  // measure 39
0100
0000
2000
0000
,  // measure 40
3002
0000
0203
0300
,  // measure 41
0020
0000
2030
0000
,  // measure 42
0000
0000
0000
3000
,  // measure 43
0000
0000
0000
0001
,  // measure 44
1000
0000
0100
0000
,  // measure 45
0010
0001
0010
0000
,  // measure 46
0100
0000
1000
0000
,  // measure 47
0001
0100
0001
0000
,  // measure 48
1000
0000
0010
0000
,  // measure 49
1000
0010
0100
0000
,  // measure 50
0001
0000
1000
0000
,  // measure 51
0200
0300
0000
0010
,  // measure 52
0001
0000
1000
0000
,  // measure 53
0001
0100
0001
0000
,  // measure 54
1000
0000
0100
0000
,  // measure 55
0010
0001
0010
0000
,  // measure 56
0000
0200
2300
3200
,  // measure 57
0320
0032
2003
3002
,  // measure 58
0003
0200
0320
2030
,  // measure 59
3002
2003
3002
0023
,  // measure 60
0030
0200
2300
3002
,  // measure 61
2003
3020
0230
0302
,  // measure 62
0003
1000
0001
0010
,  // measure 63
0100
1000
0001
0200
,  // measure 64
0310
0000
1000
0000
,  // measure 65
0010
0100
0001
0000
,  // measure 66
1000
0000
0100
0000
,  // measure 67
0010
0001
0010
0000
,  // measure 68
0100
0000
1000
0000
,  // measure 69
0001
0100
0010
0000
,  // measure 70
1000
0000
0000
0000
0001
0000
0000
0010
,  // measure 71
0000
0100
0000
1000
0000
0002
0000
0000
,  // measure 72
0000
0003
0000
0000
0000
0000
0000
0000
;

//---------------dance-single - ----------------
#NOTEDATA:;
#CHARTNAME:;
#STEPSTYPE:dance-single;
#DESCRIPTION:;
#CHARTSTYLE:;
#DIFFICULTY:Beginner;
#METER:2;
#RADARVALUES:0.084065,0.160693,0.000000,0.011316,0.000000,52.000000,52.000000,0.000000,1.000000,0.000000,0.000000,0.000000,0.000000,0.000000,0.084065,0.160693,0.000000,0.011316,0.000000,52.000000,52.000000,0.000000,1.000000,0.000000,0.000000,0.000000,0.000000,0.000000;
#CREDIT:Loak;
#NOTES:
0000
0000
0000
0000
,
0000
0000
0000
0000
,
0000
0000
0000
0000
,
0000
0000
0000
0000
,
0000
0000
0000
0000
,
0000
0000
0000
0000
,
0000
0000
0000
0000
,
0000
0000
0000
0000
,
1000
0000
0000
0000
,
0001
0000
0000
0000
,
1000
0000
0000
0000
,
0001
0000
0000
0000
,
0010
0000
0000
0000
,
0100
0000
0000
0000
,
0010
0000
0000
0000
,
0100
0000
0000
0000
,
1000
0000
0000
0000
,
0001
0000
0000
0000
,
1000
0000
0000
0000
,
0000
0000
0000
0000
,
0010
0000
0000
0000
,
0100
0000
0000
0000
,
0010
0000
0000
0000
,
0000
0000
0000
0000
,
1000
0000
0000
0000
,
0001
0000
0000
0000
,
0010
0000
0000
0000
,
0000
0000
0000
0000
,
0001
0000
0000
0000
,
1000
0000
0000
0000
,
0010
0000
0000
0000
,
0000
0000
0000
0000
,
1000
0000
0001
0000
,
1000
0000
0000
0000
,
0010
0000
0100
0000
,
0010
0000
0000
0000
,
1000
0000
0001
0000
,
1000
0000
0000
0000
,
0100
0000
0010
0000
,
0100
0000
0000
0000
,
1000
0000
0000
0000
,
0002
0000
0000
0000
,
0000
0000
0000
0000
,
0003
0000
0000
0000
,
1000
0000
0000
0000
,
0000
0000
0000
0000
,
0001
0000
0000
0000
,
0000
0000
0000
0000
,
0010
0000
0000
0000
,
0000
0000
0000
0000
,
0100
0000
0000
0000
,
0000
0000
0000
0000
,
1000
0000
0000
0000
,
0000
0000
0000
0000
,
0001
0000
0000
0000
,
0000
0000
0000
0000
,
0100
0000
0000
0000
,
0000
0000
0000
0000
,
0010
0000
0000
0000
,
0000
0000
0000
0000
,
0100
0000
0000
0000
,
0000
0000
0000
0000
,
0010
0000
0000
0000
,
0000
0000
0000
0000
,
1000
0000
0000
0000
,
0001
0000
0000
0000
,
1000
0000
0000
0000
,
0001
0000
0000
0000
,
0100
0000
0000
0000
,
0010
0000
0000
0000
,
0100
0000
0000
0000
,
0010
0000
0000
0000
;
