#TITLE:Ievan Polkka;
#SUBTITLE:;
#ARTIST:Otomania feat. Hatsune Miku;
#TITLETRANSLIT:;
#SUBTITLETRANSLIT:;
#ARTISTTRANSLIT:;
#GENRE:;
#CREDIT:;
#BANNER:Ievan Polkka - bn.png;
#BACKGROUND:Ievan Polkka - bg.png;
#LYRICSPATH:;
#CDTITLE:cdtitlegpop.png;
#MUSIC:Ievan Polkka.ogg;
#OFFSET:1.953;
#SAMPLESTART:16.084;
#SAMPLELENGTH:16.134;
#SELECTABLE:YES;
#BPMS:0.000=119.000;
#STOPS:;
#BGCHANGES:3.500=Ievan Polkka.avi=1.000=1=0=1=Format3==CrossFade==,
292.000=Ievan Polkka - bg.png=1.000=1=0=1===CrossFade==,
99999=-nosongbg-=1.000=0=0=0 // don't automatically add -songbackground-
;
#KEYSOUNDS:;

//---------------dance-single - ----------------
#NOTES:
     dance-single:
     :
     Challenge:
     9:
     0.768,0.703,0.097,0.372,0.789:
0000
0000
0000
0000
,
0000
0000
0000
0000
,
0000
0000
0000
0000
,
0000
0000
0000
0000
,
0000
0000
0000
0000
,
0001
1000
0101
0100
0001
1000
1100
0100
,
0100
0000
0010
0000
0011
0000
0001
0000
1000
0000
0010
0000
0101
0000
0001
0100
,
0001
1000
0011
0010
0100
1000
1001
0001
,
0100
0000
0010
0000
1010
0000
1000
0000
1001
0000
0000
0000
0000
0000
0000
1000
,
0001
0000
0100
0000
0200
0000
0000
0310
1000
0010
1000
0001
0100
0000
0010
1000
,
0001
0000
0010
0000
0010
0000
0100
0000
0100
0000
1000
0000
1000
0000
0001
0100
,
0010
0000
1000
0000
2000
0000
0000
3001
0100
0000
0100
0010
0000
0010
1000
0001
,
0100
0010
0100
0010
1000
0001
1000
0000
0010
0000
0100
0000
0100
0000
0001
0010
,
0100
0000
0100
0000
1000
0000
0001
0000
0100
0000
0010
2000
0000
3001
0100
0001
,
1000
0100
1000
0100
0010
0001
0010
0001
1000
0000
0010
0200
0000
0000
0300
0001
,
1000
0000
1000
0000
0010
0000
0100
0000
0001
0000
1000
0000
1000
0100
1000
0100
,
0010
0001
0010
0001
1000
0010
1000
0010
0200
0000
0001
0002
0000
0303
0000
0001
,
1000
0000
0100
0000
0200
0000
0000
0310
0001
1000
0010
0100
0001
0000
1000
0100
,
0010
0000
0001
0000
0001
0000
0100
0000
0010
0000
1000
0000
1000
0000
0001
0100
,
0002
0000
1000
0000
1003
0000
0000
0010
0100
0000
0100
0001
0000
0001
1000
0100
,
0010
0001
0010
0001
1000
0100
1000
0000
0002
0000
0100
0000
0103
0000
0010
1000
,
0001
0000
0010
0000
0010
0000
0100
0000
0100
0000
1000
0001
0000
0001
0100
0010
,
1000
0001
1000
0001
0100
0010
0100
0010
1000
0000
0001
2000
0000
0000
3000
0010
,
0100
0000
0100
0000
0001
0000
0001
0000
0010
0000
0100
0000
0100
1000
0100
0010
,
0001
1000
0001
1000
0010
0100
0010
0100
0020
0000
1000
2000
0000
3030
0000
1000
,
0001
0000
0100
0000
0200
0000
0000
0310
1000
0001
0100
0000
0100
0000
0010
1000
,
0100
0000
0010
0000
0010
0000
0001
0000
1000
0010
0100
0000
0200
0000
0000
0301
,
1000
0000
0100
0000
0200
0000
0000
0310
0001
0000
0001
1000
0000
1000
0010
0100
,
0001
0010
0001
0010
0100
0000
1000
0000
0010
0000
0100
0010
0100
0000
0001
1000
,
0001
0000
0001
0000
0010
0000
0100
0000
1000
0000
0001
0100
0001
0000
0100
0001
,
0100
0010
0100
0010
1000
0001
1000
0001
2000
0000
3100
0010
0002
0000
0000
1003
,
0100
0000
0100
0000
0010
0000
0001
0000
1000
0000
0010
0100
0001
0000
1000
0100
,
1000
0001
1000
0001
0100
0010
0100
0010
2000
0000
3001
0100
0004
M0M0
0M00
1003
,
0100
0000
0010
0000
0020
0000
0000
0031
1000
0010
0100
0000
0100
0000
0001
0010
,
0100
0000
1000
0000
1000
0000
1000
0000
0100
0010
0001
0000
0002
0000
0000
1003
,
0010
0000
0100
0000
0200
0000
0000
0301
1000
0000
1000
0100
0000
0100
0010
0001
,
1000
0010
1000
0010
0100
0001
0100
0001
2000
0000
3100
0010
0002
0000
1003
0010
,
0100
0000
0100
0000
0001
0000
0010
0000
0200
0000
1300
0001
0020
0000
0130
1000
,
0001
0100
0001
0100
0010
1000
0010
1000
0002
0000
1003
0100
2000
0000
0000
3001
,
0100
0000
0100
0000
0010
0000
1000
0000
0001
0000
0010
0100
2000
0000
3010
0100
,
0001
0100
0001
0100
0010
0000
1000
0000
1001
0000
0000
0000
0000
0000
0000
1000
,
0001
0000
0100
0000
0200
0000
0000
0310
1000
0010
0100
0001
1000
0000
0100
0010
,
0001
0000
1000
0000
1000
0000
0010
0000
0100
0000
0001
0000
0001
0000
1000
0100
,
0010
0000
0001
0000
0002
0000
0000
1003
0100
0000
0100
1000
0000
1000
0010
0100
,
0001
0100
0001
0100
0010
0100
0010
0000
1000
0000
0001
0000
0001
0000
0010
0100
,
10MM
0000
1000
0000
0010
0000
0100
0000
0001
0000
1000
0100
0000
0100
0010
0001
,
1MM0
0000
0010
0000
0100
0000
0001
0000
1000
0000
0010
0100
0000
0100
0001
1000
,
0MM1
0010
0100
1000
M1M1
0100
0010
1000
,
11MM
0000
0100
0000
M11M
0000
0010
0000
MM11
0000
1MM1
0000
10M0
010M
10M0
0001
,
0100
0000
0010
0000
0020
0000
0000
1030
0001
0100
0001
1000
0100
0000
0010
0001
,
1000
0000
0010
0000
0010
0000
0100
0000
0001
0000
1000
0000
1000
0000
0100
0010
,
0001
0000
1000
0000
2000
0000
0000
3001
0100
0000
0100
0010
0000
0010
1000
0001
,
0100
0010
0100
0010
1000
0001
1000
0000
0020
0000
0100
0000
0130
0000
0001
0010
,
0100
0000
0100
0000
1000
0000
0010
0000
0100
0000
0001
1000
0000
1000
0100
0010
,
0001
0100
0001
0100
0010
0100
0010
0100
0002
0000
1000
2000
0000
3003
0000
0001
,
0100
0000
0100
0000
0010
0000
1000
0000
0100
0000
0010
0000
0010
0001
0010
0100
,
1000
0001
1000
0001
0100
0001
0100
0001
2000
0000
0001
0002
0000
3003
0000
1000
,
0010
0000
0100
0000
0200
0000
0000
0301
1000
0100
0010
0001
1000
0000
0010
0100
,
0001
0000
0010
0000
0010
0000
0100
0000
1000
0000
0001
0000
0001
0000
0100
0010
,
1000
0000
0001
0000
0002
0000
0000
1003
0100
0000
0100
0010
0000
0010
0001
1000
,
0010
0100
0010
0100
0001
1000
0001
0000
2000
0000
0100
0000
3100
0000
0010
0001
,
1000
0000
1000
0000
0010
0000
0100
0000
0001
0000
1000
0100
0000
0100
0010
0001
,
1000
0010
1000
0010
0100
0010
0100
0010
2000
0000
0100
0200
0000
3300
0000
1000
,
0001
0000
0100
0000
0100
0000
0010
0000
1000
0000
0001
0000
1000
0100
0010
0100
,
1000
0100
1000
0100
0001
0100
0001
0100
2000
0000
0001
0002
0000
3003
0000
1000
,
0010
0000
0100
0000
0200
0000
0000
0301
1000
0100
1000
0000
1000
0000
0010
0100
,
0001
0000
1000
0000
1000
0000
1000
0000
0010
0100
0001
0000
0002
0000
0000
1003
,
0100
0000
0010
0000
0020
0000
0000
0031
1000
0000
1000
0010
0000
0010
0100
0001
,
1000
0100
1000
0100
0010
0000
0001
0000
1000
0000
0010
0100
0010
0000
1000
0001
,
0100
0000
0100
0000
0010
0000
1000
0000
0002
0000
0013
0100
2000
0000
3001
0100
,
0010
1000
0010
1000
0001
0100
0001
0100
0020
0000
1030
0001
0200
0000
0000
0301
,
1000
0000
1000
0000
0100
0000
0010
0000
0001
0000
1000
0100
0020
0000
0031
0100
,
0001
1000
0001
1000
0100
1000
0100
1000
0002
0000
1003
0100
2000
0000
3000
0000
;

//---------------dance-single - ----------------
#NOTES:
     dance-single:
     :
     Hard:
     7:
     0.440,0.427,0.165,0.007,0.097:
0000
0000
0000
0000
,
0000
0000
0000
0000
,
0000
0000
0000
0000
,
0000
0000
0000
0000
,
0000
0000
0000
0000
,
1000
0000
0101
0000
0010
0000
1100
0100
,
0010
0000
0011
0000
1000
0000
0101
0100
,
0010
0000
1001
0000
0100
0000
1100
0100
,
0010
0000
0000
0000
0011
0000
0000
0000
1001
0000
0000
0000
0000
0000
0000
1000
,
0001
0100
0100
0000
0010
1000
0001
0000
,
0010
0100
1000
0100
0010
0010
0001
0000
,
1010
0000
0010
0000
0100
0000
0000
0100
0001
0000
0001
1000
0000
1000
0100
0000
,
0010
0001
0010
0100
1000
1000
1000
0000
,
0001
0000
0100
0000
0010
0000
1000
0000
0001
0000
0100
1000
0000
0000
0000
0000
,
0100
0000
0001
0000
0010
0000
0100
0000
1000
0000
0010
0001
0000
0000
0000
0000
,
0010
1000
0100
0010
0001
0010
1000
0000
,
0010
0000
0001
0000
0100
0000
0010
0000
1000
0000
0001
0100
0000
0000
0000
0000
,
1001
1000
0100
0000
0010
0001
1000
0000
,
0001
0100
0010
1000
0100
0100
0010
0000
,
0011
0000
0010
0000
0100
0000
0000
0100
1000
0000
1000
0100
0000
0100
0010
0000
,
0001
0010
0100
1000
0001
0100
1000
0000
,
0100
0000
0001
0000
0010
0000
0100
0000
1000
0000
0010
0001
0000
0000
0000
0000
,
0010
0000
1000
0000
0100
0000
0010
0000
0001
0000
0100
1000
0000
0000
0000
0000
,
0100
0001
0010
0100
1000
0001
0001
0000
,
0010
0000
0100
0000
1000
0000
0001
0000
0100
0000
0001
1000
0000
0000
0000
0000
,
1000
0010
0100
0001
,
0010
0100
1000
0001
,
0100
0010
1000
0001
,
0100
0010
1000
0001
,
1001
0000
1000
0100
0010
0000
0001
1000
,
0010
0000
0100
0010
1000
0000
0001
0010
,
0100
0000
1000
0100
0001
0000
0100
1000
,
0010
0000
1000
0010
0001
0000
0110
0000
,
1001
1000
0100
0000
0010
0001
1000
0000
,
0010
0100
0001
0010
0100
0100
1000
0000
,
0001
0100
0100
0000
0010
1000
0001
0010
,
0100
0100
1000
1000
0001
0100
0010
0000
,
1000
1000
0100
0010
0001
1000
1000
0000
,
0100
0010
0001
0100
0010
0100
0100
0000
,
0001
0010
0100
1000
0100
0010
0010
0000
,
0001
0000
0100
0000
0001
0000
1000
0000
0101
0000
0000
0000
0000
0000
0000
1000
,
0001
0100
0100
0000
0010
0000
1000
0000
,
0001
0010
0100
0000
1000
0100
0010
0000
,
0001
1000
0100
0000
1000
0000
0001
0000
,
0100
0010
0100
0010
1000
1000
1000
0000
,
1001
0000
0001
0000
0010
0100
1000
0000
,
0101
0000
0100
0000
0010
1000
0100
0000
,
0011
1000
0101
0010
,
1100
0000
0000
0000
1001
0000
0000
0000
0101
0000
0101
0000
0001
1000
0001
0100
,
0010
0000
1000
0000
0001
0010
0100
0000
,
1000
0100
0010
0001
0100
0100
0100
0000
,
0010
0000
1000
0000
0100
0000
0000
0010
0001
0000
0001
0100
0000
0100
0010
0000
,
1000
0100
0010
0001
1000
1000
0001
0000
,
0100
0000
0010
0000
1000
0000
0100
0000
0001
0000
0100
1000
0000
0000
0000
0000
,
0010
0000
0100
0000
0001
0000
0010
0000
1000
0000
0010
0001
0000
0000
0000
0000
,
1000
0010
0100
0001
0010
1000
0010
0000
,
0001
0000
0100
0000
1000
0000
0100
0000
0001
0000
1000
0100
0000
0000
0000
0000
,
1100
1000
0010
0000
0100
0001
1000
0000
,
0001
0010
0100
1000
0001
0001
0100
0000
,
0010
0000
1000
0000
0001
0000
0000
0010
0100
0000
0100
1000
0000
1000
0001
0000
,
0100
0100
0010
0010
1000
0001
0100
0000
,
0010
0000
1000
0000
0100
0000
0001
0000
0100
0000
1000
0010
0000
0000
0000
0000
,
0100
0000
0001
0000
1000
0000
0100
0000
0010
0000
0001
1000
0000
0000
0000
0000
,
0010
0100
0001
0010
1000
0010
0100
0000
,
1000
0000
0100
0000
0010
0000
0001
0000
1000
0000
0001
1000
0000
0000
0000
0000
,
0000
0001
0000
0100
0000
0010
0000
1000
,
0000
0100
0000
0010
0000
0001
0000
0100
,
0000
0010
0000
1000
0000
0001
0000
0100
,
0000
0010
0000
1000
0000
0100
0000
0010
,
0001
0000
0010
0001
1000
0000
0010
0100
,
0001
0000
1000
0100
1000
0000
0001
0100
,
0001
0000
0100
0010
1000
0000
0001
0010
,
0100
0000
1000
0001
2000
0000
0000
3000
;

//---------------dance-single - ----------------
#NOTES:
     dance-single:
     :
     Medium:
     4:
     0.302,0.325,0.159,0.000,0.000:
0000
0000
0000
0000
,
0000
0000
0000
0000
,
0000
0000
0000
0000
,
0000
0000
0000
0000
,
0000
0000
0000
0000
,
0010
1100
0001
0110
,
1000
0101
0010
1100
,
0010
1001
0100
0011
,
1000
0101
1001
0000
,
1000
0000
0001
0000
0100
0010
1000
0000
,
0001
0000
0010
0000
0100
1000
0001
0000
,
0100
0000
0100
0000
0010
1000
0001
0000
,
0010
0000
0010
0000
0100
1000
0001
0000
,
1000
0100
0010
0000
0001
0000
0100
0000
,
0010
1000
0001
0000
0010
0000
0000
0000
,
0100
1000
0001
0000
0100
0000
0100
0000
,
0010
1000
0001
0000
1100
0000
0000
0000
,
1000
0000
0100
0000
0010
0001
1000
0000
,
0010
0000
0100
0000
0001
0010
0100
0000
,
1000
0000
0100
0000
1000
0001
0100
0000
,
0010
0000
1000
0000
0100
0010
0001
0000
,
1000
0001
0100
0000
0010
0000
0100
0000
,
0001
0010
0100
0000
1000
0000
0000
0000
,
0001
0000
1000
0000
0100
0010
0001
0000
,
0100
0010
1001
0000
,
1000
0000
0100
0000
,
0010
0000
0001
0000
,
0100
0000
0010
0000
,
1000
0000
0001
0000
,
1000
0001
0100
0010
,
1000
0100
0010
0001
,
1000
0010
0100
0001
,
1000
0010
0100
0110
,
1001
0000
0010
0000
0100
0001
1000
0000
,
0100
0000
0010
0000
0001
1000
0100
0000
,
1000
0000
0010
0000
0100
0001
1000
0000
,
0001
0000
0010
0000
0100
1000
0100
0000
,
0010
0000
0001
0000
0100
0010
1000
0000
,
0001
0000
0100
0000
0001
0010
0100
0000
,
1000
0000
0100
0000
0010
0001
1000
0000
,
0010
0100
1001
0000
,
1000
0000
0010
0000
0100
0001
1000
0000
,
0100
0000
0010
0000
0001
0010
0100
0000
,
1000
0000
0001
0000
0100
0010
1000
0000
,
0001
0000
0100
0000
0010
1000
0001
0000
,
1100
0010
0001
0100
,
1001
0010
0100
0001
,
1100
0010
0101
1000
,
0110
0000
1001
0000
1000
0001
1000
0000
,
1001
0000
0100
0000
0010
1000
0001
0000
,
0010
0000
0100
0000
1000
0100
0010
0000
,
0001
0000
0100
0000
0010
1000
0001
0000
,
0100
0000
0100
0000
0010
1000
0001
0000
,
0010
0100
1000
0000
0001
0000
0100
0000
,
0010
1000
0001
0000
0010
0000
0000
0000
,
0100
1000
0100
0000
0010
0000
0001
0000
,
0100
0010
1000
0000
0001
0000
0000
0000
,
1100
0000
0010
0000
0100
0001
1000
0000
,
0001
0000
0010
0000
0100
1000
0001
0000
,
0100
0000
0010
0000
1000
0001
0100
0000
,
0010
0000
0100
0000
0001
0010
0100
0000
,
1000
0100
0010
0000
0001
0000
1000
0000
,
0010
0100
0001
0000
1000
0000
0000
0000
,
0001
0000
0100
0000
0010
1000
0001
0000
,
0100
0010
1001
0000
,
1000
0000
0001
0000
,
0100
0000
0010
0000
,
1000
0000
0100
0000
,
0010
0000
0001
0000
,
1000
0010
0100
0000
,
0001
0010
0100
0000
,
1000
0001
0100
0000
,
0100
0010
1001
0000
;

//---------------dance-single - ----------------
#NOTES:
     dance-single:
     :
     Easy:
     3:
     0.198,0.250,0.103,0.014,0.000:
0000
0000
0000
0000
,
0000
0000
0000
0000
,
0000
0000
0000
0000
,
0000
0000
0000
0000
,
0000
0000
0000
0000
,
1001
0000
0100
0010
,
1000
0000
1000
0001
,
0100
0000
0100
0010
,
1000
0000
1001
0000
,
1000
0000
0001
0000
,
0100
0010
1000
0001
,
0100
0000
0010
0000
,
1000
1000
0100
0000
,
0010
0001
1000
0000
,
0010
0100
0001
0000
,
0010
0100
1000
0000
,
0001
0100
1001
0000
,
1000
0000
0010
0000
,
0100
0001
1000
0100
,
0001
0000
1000
0000
,
0010
0100
0001
0000
,
0010
0100
0001
0000
,
1000
0100
0010
0000
,
0001
0010
0100
0000
,
1000
0001
0110
0000
,
1000
0000
0100
0000
,
0010
0000
0001
0000
,
0100
0000
0010
0000
,
1000
0000
0001
0000
,
0100
0000
0100
0000
,
0010
0000
0010
0000
,
1000
0000
0001
0000
,
0100
0000
0010
1001
,
0100
0100
0010
0010
,
1000
0100
0010
0001
,
0100
0010
1000
0001
,
0100
0001
1000
0100
,
0010
0001
0010
0100
,
1000
1000
0001
0100
,
0010
1000
0001
0100
,
0010
1000
0101
0000
,
1000
0000
0100
0000
,
0010
0000
0001
0000
,
1000
0000
0010
0000
,
0100
0000
0001
0000
,
1100
0000
0010
0000
,
0101
0000
1000
0000
,
0011
0000
1100
0000
,
0110
0110
2002
3003
,
1000
0000
0001
0000
,
0100
0010
1000
0001
,
0100
0000
0010
0000
,
1000
0100
0010
0000
,
0001
0100
0010
0000
,
1000
0001
0100
0000
,
0010
1000
0001
0000
,
0010
0100
1000
0000
,
0001
0000
0100
0000
,
0010
1000
0001
0010
,
0100
0000
1000
0000
,
0100
0010
0001
0000
,
1000
0010
0100
0000
,
0001
1000
0100
0000
,
0010
0001
0010
0000
,
0100
1000
0011
0000
,
1000
0000
0010
0000
,
0100
0000
0001
0000
,
0010
0000
0100
0000
,
1000
0000
0001
0000
,
0100
0000
0010
0000
,
1000
0000
0001
0000
,
0010
0000
0100
0000
,
0010
0000
1001
0000
;

//---------------dance-single - ----------------
#NOTES:
     dance-single:
     :
     Beginner:
     1:
     0.096,0.125,0.062,0.000,0.000:
0000
0000
0000
0000
,
0000
0000
0000
0000
,
0000
0000
0000
0000
,
0000
0000
0000
0000
,
0000
0000
0000
0000
,
1000
0000
1000
0000
,
0001
0000
0001
0000
,
0100
0000
0100
0000
,
0010
0000
0010
0000
,
1001
0000
0000
0000
,
1000
0000
0000
0000
,
0010
0000
0000
0000
,
0100
0000
0000
0000
,
0001
0000
0000
0000
,
1000
0000
0000
0000
,
0100
0000
0000
0000
,
0010
0000
0110
0000
,
0110
0000
0000
0000
,
0010
0000
0000
0000
,
0001
0000
0000
0000
,
1000
0000
0000
0000
,
0010
0000
0000
0000
,
0100
0000
0000
0000
,
0001
0000
0000
0000
,
1000
0000
1001
0000
,
1000
0000
0000
0000
,
0001
0000
0000
0000
,
0100
0000
0000
0000
,
0010
0000
0000
0000
,
1000
0000
0000
0000
,
0100
0000
0000
0000
,
0010
0000
0000
0000
,
0001
0000
0000
0000
,
1000
0000
1000
0000
,
0010
0000
0010
0000
,
0100
0000
0100
0000
,
0001
0000
0001
0000
,
1000
0000
0100
0000
,
0010
0000
0001
0000
,
1000
0000
0010
0000
,
0100
0000
1001
0000
,
0100
0000
0000
0000
,
0010
0000
0000
0000
,
1000
0000
0000
0000
,
0001
0000
0000
0000
,
0100
0000
0000
0000
,
0010
0000
0000
0000
,
1000
0000
1000
0000
,
1000
1000
1000
0000
,
1001
0000
0000
0000
,
0100
0000
0000
0000
,
0010
0000
0000
0000
,
1000
0000
0000
0000
,
0100
0000
0000
0000
,
0010
0000
0000
0000
,
0001
0000
0000
0000
,
1000
0000
1001
0000
,
0001
0000
0000
0000
,
0100
0000
0000
0000
,
0010
0000
0000
0000
,
1000
0000
0000
0000
,
0100
0000
0000
0000
,
0010
0000
0000
0000
,
0001
0000
0000
0000
,
1000
0000
1001
0000
,
0001
0000
0000
0000
,
0100
0000
0000
0000
,
0010
0000
0000
0000
,
1000
0000
0000
0000
,
0001
0000
0000
0000
,
0100
0000
0000
0000
,
0010
0000
0000
0000
,
1000
0000
1001
0000
;
