#VERSION:0.83;
#TITLE:HUNG UP;
#SUBTITLE:(Fast Version-BPM 130);
#ARTIST:IN DEEP;
#TITLETRANSLIT:;
#SUBTITLETRANSLIT:;
#ARTISTTRANSLIT:;
#GENRE:;
#ORIGIN:;
#CREDIT:;
#BANNER:HUNG UP (Fast Version-BPM 130).png;
#BACKGROUND:HUNG UP (Fast Version-BPM 130)-bg.png;
#PREVIEWVID:;
#JACKET:HUNG UP (Fast Version-BPM 130)-jacket.png;
#CDIMAGE:;
#DISCIMAGE:;
#LYRICSPATH:;
#CDTITLE:./CDTITLES/Dance Mania TREASURE.png;
#MUSIC:HUNG UP (Fast Version-BPM 130).mp3;
#OFFSET:-1.894000;
#SAMPLESTART:16.600000;
#SAMPLELENGTH:11.980000;
#SELECTABLE:YES;
#BPMS:0.000=130.018;
#STOPS:;
#DELAYS:;
#WARPS:;
#TIMESIGNATURES:0.000=4=4;
#TICKCOUNTS:0.000=4;
#COMBOS:0.000=1;
#SPEEDS:0.000=1.000=0.000=0;
#SCROLLS:0.000=1.000;
#FAKES:;
#LABELS:0.000=Song Start;
#BGCHANGES:16.000=Discoball1.avi=1.000=1=0=1===CrossFade==,
32.000=vortex1.avi=1.000=0=0=1=====,
48.000=Heart5.avi=1.000=0=0=1=====,
64.000=dance7c.avi=1.000=0=0=0=StretchNoLoop====,
72.000=Dance7.avi=1.000=0=0=0=StretchNoLoop====,
80.000=dance7c.avi=1.000=0=0=0=StretchNoLoop====,
88.000=Dance7.avi=1.000=0=0=0=StretchNoLoop====,
96.000=Cube7.avi=1.000=0=0=1=====,
104.000=Crystal1.avi=1.000=0=0=1=====,
112.000=Cube7.avi=1.000=0=0=1=====,
120.000=Crystal1.avi=1.000=0=0=1=====,
128.000=vortex1.avi=1.000=0=0=1=====,
144.000=Heart5.avi=1.000=0=0=1=====,
160.000=Discoball1.avi=1.000=0=0=1=====,
176.000=discoball1.avi=1.000=0=0=1=====,
192.000=dance7c.avi=1.000=0=0=0=StretchNoLoop====,
196.000=Dance7.avi=1.000=0=0=0=StretchNoLoop====,
207.000=HUNG UP (Fast Version-BPM 130)-bg.png=1.000=0=0=1=====,
99999=-nosongbg-=1.000=0=0=0 // don't automatically add -songbackground-
;
#KEYSOUNDS:;
#ATTACKS:
;

//---------------dance-single - ----------------
#NOTEDATA:;
#CHARTNAME:;
#STEPSTYPE:dance-single;
#DESCRIPTION:;
#CHARTSTYLE:;
#DIFFICULTY:Beginner;
#METER:1;
#RADARVALUES:0.113948,0.178360,0.039389,0.000000,0.000000,81.000000,77.000000,4.000000,0.000000,0.000000,0.000000,0.000000,0.000000,0.000000,0.113948,0.178360,0.039389,0.000000,0.000000,81.000000,77.000000,4.000000,0.000000,0.000000,0.000000,0.000000,0.000000,0.000000;
#CREDIT:;
#NOTES:
0000
0000
0000
0000
,
0000
0000
0000
0000
,
0000
0000
0000
0000
,
0000
0000
0000
0000
,
0001
0000
0000
0000
,
0100
0000
0000
0000
,
1000
0000
0000
0000
,
1000
0000
0000
0000
,
0001
0000
0001
0000
,
0010
0000
0000
0000
,
0100
0000
0100
0000
,
1000
0000
0000
0000
,
0001
0000
0001
0000
,
0010
0000
0000
0000
,
1000
0000
1000
0000
,
0100
0000
0000
0000
,
1000
0000
1000
0000
,
0010
0000
0010
0000
,
0010
0000
0000
0000
,
0100
0000
0100
0000
,
1000
0000
1000
0000
,
0001
0000
0001
0000
,
0100
0000
0000
0000
,
1000
0000
0010
0000
,
1001
0000
0000
0000
,
0010
0000
0000
0000
,
1001
0000
0000
0000
,
0010
0000
0000
0000
,
1001
0000
0000
0000
,
0100
0000
0000
0000
,
0010
0010
0000
0000
,
0000
1000
0000
1000
,
0000
0010
0010
0010
,
0000
0100
0100
0000
,
0000
0000
0000
0000
,
0100
0000
0000
0000
,
0000
0001
0001
0001
,
0000
1000
1000
0000
,
0000
0100
0000
0100
,
0000
0010
0000
0010
,
0010
0000
0000
0000
,
1000
0000
0000
0000
,
0001
0000
0000
0000
,
0100
0000
0010
0000
,
0110
0000
0000
0000
,
1000
0000
0000
0000
,
0001
0000
0000
0000
,
0010
0000
0000
0000
,
1000
1000
1000
0000
,
0001
0001
0001
0000
,
0100
0100
0100
0000
,
0010
0010
0010
0010
;

//---------------dance-single - ----------------
#NOTEDATA:;
#CHARTNAME:;
#STEPSTYPE:dance-single;
#DESCRIPTION:;
#CHARTSTYLE:;
#DIFFICULTY:Easy;
#METER:3;
#RADARVALUES:0.205388,0.280281,0.128016,0.000000,0.000000,146.000000,133.000000,13.000000,0.000000,0.000000,0.000000,0.000000,0.000000,0.000000,0.205388,0.280281,0.128016,0.000000,0.000000,146.000000,133.000000,13.000000,0.000000,0.000000,0.000000,0.000000,0.000000,0.000000;
#CREDIT:;
#NOTES:
0000
0000
0000
0000
,
0000
0000
0000
0000
,
0000
0000
0000
0000
,
0000
0000
0000
0000
,
1001
0000
0000
0000
,
0110
0000
0000
0000
,
1001
0000
0000
0000
,
1000
0000
1000
0000
,
0001
0000
0001
0000
,
0010
0000
0010
0000
,
0100
0000
0100
0000
,
1000
0000
1000
0000
,
0001
0000
0001
0000
,
0010
0000
1000
0000
,
1000
0000
1000
0000
,
0100
0100
0100
0100
,
1000
0001
1000
0001
,
0010
0100
0010
0100
,
1001
0000
0000
0100
,
0010
0001
1000
1001
,
0010
0100
1000
0001
,
1000
0001
1001
0000
,
1000
0100
1000
0100
,
0000
0001
0010
0001
,
0110
0100
0010
0100
,
1000
0001
0010
0001
,
0000
1000
1000
1000
,
1000
0000
0010
0010
,
0010
0001
0000
1000
,
0100
1000
1000
0000
,
0010
0001
0001
0010
,
1000
1000
1000
0000
,
1001
0010
0010
0010
,
0000
0100
0100
0100
,
0000
0000
0000
1000
,
0100
0010
0000
0000
,
0110
0001
0001
1000
,
0000
1000
1000
0001
,
0000
0100
0100
0100
,
0000
0010
0010
0010
,
1001
0000
1000
0000
,
0010
0000
0001
0000
,
0010
0000
1000
0000
,
0100
0000
0001
0000
,
0110
0000
1000
0000
,
0100
0000
0010
0000
,
0001
0000
0010
0000
,
0100
0000
1000
0000
,
1001
0010
1000
0010
,
1000
0001
1000
0001
,
0100
0010
0100
0010
,
1000
0100
0010
1001
;

//---------------dance-single - ----------------
#NOTEDATA:;
#CHARTNAME:;
#STEPSTYPE:dance-single;
#DESCRIPTION:;
#CHARTSTYLE:;
#DIFFICULTY:Medium;
#METER:6;
#RADARVALUES:0.337624,0.459749,0.403742,0.118168,0.000000,240.000000,199.000000,41.000000,12.000000,0.000000,0.000000,0.000000,0.000000,0.000000,0.337624,0.459749,0.403742,0.118168,0.000000,240.000000,199.000000,41.000000,12.000000,0.000000,0.000000,0.000000,0.000000,0.000000;
#CREDIT:;
#NOTES:
0000
0000
0000
0000
,
0000
0000
0000
0000
,
0000
0000
0000
0000
,
0000
0000
0000
0000
,
1001
0000
1010
0000
,
1001
0000
0011
0000
,
1100
0000
0110
0000
,
0011
0000
1010
0000
,
1000
0100
1000
0000
0001
0010
0001
0000
,
1000
0000
0001
1000
0100
0000
0100
0200
,
0000
0300
0100
0010
,
1001
1100
1001
0001
,
0010
0100
0010
0000
0010
0100
0010
0000
,
0001
0000
1000
0000
0100
0010
0001
0000
,
1000
0100
1000
0010
,
0101
0100
1100
0100
,
1000
0001
1010
0001
,
0010
0110
0010
0100
,
1001
0000
0000
0000
0000
0010
0100
0010
,
0100
1000
0001
1000
0001
0000
1001
0000
,
0010
0100
1000
0001
,
1000
0000
0001
0000
1001
0000
1000
0100
,
0000
0100
1000
0100
,
0010
0001
0010
0001
,
0110
0100
0010
0100
,
1000
0001
0010
0001
,
1100
1001
1010
1001
,
1100
0011
0110
1010
,
0110
0011
1000
1000
,
0100
1000
1000
0110
,
0010
0001
0001
0010
,
1000
0000
1000
0000
1000
0000
1000
0001
,
1001
0000
0010
0100
0010
0100
0010
1000
,
0001
1000
0100
0100
0000
0000
0001
0200
,
0000
0000
0000
0000
0300
0000
1000
0100
,
0010
0000
0010
0100
1000
0000
0000
0000
,
1000
0100
0010
0001
0001
0010
0100
1000
,
1000
0100
0100
0010
0000
0000
0001
0010
,
0000
0100
0100
0100
,
0000
0010
0010
0010
,
1001
1000
0100
0020
,
0031
0020
0130
1000
,
0100
0001
0020
0031
,
1000
0020
0031
0100
,
1000
0001
0020
1030
,
0001
0020
1030
0001
,
0020
0031
1000
0020
,
1030
0001
0220
0330
,
1001
0010
1001
0010
,
1001
0100
1001
0100
,
1001
0110
0100
0101
,
1000
0000
1100
0000
0010
0000
1000
0001
;

//---------------dance-single - ----------------
#NOTEDATA:;
#CHARTNAME:;
#STEPSTYPE:dance-single;
#DESCRIPTION:;
#CHARTSTYLE:;
#DIFFICULTY:Hard;
#METER:8;
#RADARVALUES:0.429064,0.459749,0.285574,0.039389,0.004924,305.000000,276.000000,29.000000,4.000000,0.000000,0.000000,0.000000,0.000000,0.000000,0.429064,0.459749,0.285574,0.039389,0.004924,305.000000,276.000000,29.000000,4.000000,0.000000,0.000000,0.000000,0.000000,0.000000;
#CREDIT:;
#NOTES:
// measure 0
0000
0000
0000
0000
,  // measure 1
0000
0000
0000
0000
,  // measure 2
0000
0000
0000
0000
,  // measure 3
0000
0000
0000
0000
,  // measure 4
1001
0001
0011
0010
,  // measure 5
0110
0100
1100
1000
,  // measure 6
1010
0110
0100
0101
,  // measure 7
0001
0011
0001
1001
,  // measure 8
0010
0100
1000
0001
0010
1000
0001
1000
,  // measure 9
0010
0001
0100
1000
0100
0010
0100
0002
,  // measure 10
0000
0003
0100
0010
,  // measure 11
1001
1100
1001
1000
,  // measure 12
0010
1000
0100
0001
0010
0001
0100
1000
,  // measure 13
0010
0001
0010
1000
0100
0000
0010
0010
,  // measure 14
0000
0100
1000
0010
,  // measure 15
0101
0100
1100
0000
,  // measure 16
0100
0001
0010
1000
0001
1000
0010
0001
,  // measure 17
0100
1000
0010
1000
0100
0001
0010
0100
,  // measure 18
1000
0000
0110
0000
0000
0010
0100
0010
,  // measure 19
0010
0000
0000
0010
0000
0000
0010
0000
0010
0000
0000
0000
1001
0000
0000
0000
,  // measure 20
0010
0100
1000
0001
,  // measure 21
1000
0000
0001
0000
1001
0000
1000
0100
,  // measure 22
0000
0100
1000
0100
,  // measure 23
0010
0001
0010
0001
,  // measure 24
1000
0100
1000
0000
1000
0010
1000
0000
,  // measure 25
1000
0001
1000
0000
0010
0000
1000
0000
,  // measure 26
1000
0001
1000
0100
0010
0000
0001
0000
,  // measure 27
0010
0001
1000
0100
0010
0000
0100
0000
,  // measure 28
0100
0010
0001
1000
0100
0000
0001
0000
,  // measure 29
0110
1000
0001
0001
,  // measure 30
0001
0010
0001
0000
0001
0100
0001
0000
,  // measure 31
0001
1000
0001
0010
1000
0001
0100
0010
,  // measure 32
1001
0001
0100
1000
0010
0001
0010
1000
,  // measure 33
0100
0001
0100
1000
0010
0001
0010
0200
,  // measure 34
0000
0000
0000
0000
0300
0000
1000
0100
,  // measure 35
0010
0000
0010
0100
1000
0000
0000
1001
,  // measure 36
1000
0100
0001
0010
1000
0010
0001
0100
,  // measure 37
1000
0100
0001
0010
1000
0000
0010
0100
,  // measure 38
0000
2010
0100
3100
,  // measure 39
0000
1002
0010
0013
,  // measure 40
1001
1000
0100
0001
0010
1000
0001
1000
,  // measure 41
0010
0001
0100
0010
0100
1000
0001
1000
,  // measure 42
0100
0010
0001
1000
0001
0010
1000
0010
,  // measure 43
1000
0100
0001
0010
0001
0100
0010
0001
,  // measure 44
1000
0100
0010
0100
1000
0001
0010
0100
,  // measure 45
0001
1000
0010
0100
1000
0001
1000
0100
,  // measure 46
0010
0010
0001
0010
0010
0001
1000
0010
,  // measure 47
0100
0010
0001
1000
0010
1000
0100
0010
,  // measure 48
1010
1001
0010
1001
,  // measure 49
0010
1001
0100
1001
,  // measure 50
0100
0000
1000
0100
0010
0001
0010
0100
,  // measure 51
1000
0000
1100
0000
0001
0000
1000
0100
;

//---------------dance-double - ----------------
#NOTEDATA:;
#CHARTNAME:;
#STEPSTYPE:dance-double;
#DESCRIPTION:;
#CHARTSTYLE:;
#DIFFICULTY:Easy;
#METER:3;
#RADARVALUES:0.211015,0.229321,0.088626,0.000000,0.000000,150.000000,141.000000,9.000000,0.000000,0.000000,0.000000,0.000000,0.000000,0.000000,0.211015,0.229321,0.088626,0.000000,0.000000,150.000000,141.000000,9.000000,0.000000,0.000000,0.000000,0.000000,0.000000,0.000000;
#CREDIT:;
#NOTES:
00000000
00000000
00000000
00000000
,
00000000
00000000
00000000
00000000
,
00000000
00000000
00000000
00000000
,
00000000
00000000
00000000
00000000
,
00000000
10000000
00000000
00100000
,
00000000
00100000
00000000
00010000
,
00000000
00001000
00000000
00000100
,
00000000
00000100
00000000
00000001
,
00000001
00000010
00000100
00000000
,
00000001
00001000
00000001
00000000
,
00000100
00000010
00000000
00000010
,
00001000
00010000
01000000
00100000
,
00010000
10000000
00010000
00000000
,
10000000
01000000
00100000
00000000
,
10000000
01000000
00000000
00010000
,
00001000
00010000
00001000
00000010
,
00001001
00000000
00000100
00000000
,
00001001
00000000
00000010
00000000
,
00000000
00000001
00000000
00000100
,
00000000
00001000
00000000
00010000
,
00011000
00000000
00100000
00000000
,
10010000
00000000
00100000
00000000
,
00011000
00000000
00000000
01000000
,
00100000
00010000
01000000
00000000
,
10000000
00100000
00010000
00100000
,
01000000
00001000
00010000
00000000
,
00001000
00000010
00000001
00000010
,
00001000
00000100
00010000
00000000
,
00001000
00010000
00100000
10000000
,
01000000
00010000
00001000
00000000
,
00010000
00001000
00000110
00000000
,
00001001
00000100
00000010
00000000
,
00000001
00000100
00000010
00001000
,
00000001
00000010
00001000
00000100
,
00010000
00001000
01000000
00010000
,
00100000
00000000
01000000
00000000
,
10000000
00100000
01000000
00010000
,
10000000
01000000
00100000
00010000
,
00001000
00000100
00000010
00000001
,
00000100
00000000
00000001
00000000
,
00001000
00001000
00000000
00000010
,
00000001
00000100
00000000
00001000
,
00000000
00010000
00000000
00001000
,
00010000
00100000
00000000
10000000
,
01000000
01000000
00000000
00100000
,
00010000
10000000
00000000
01000000
,
00010000
00100000
00000000
00011000
,
00000000
00001000
00000000
00001001
,
00000010
00000001
00000010
00000000
,
00000100
00001000
00000100
00000000
,
00010000
00001000
00010000
00000000
,
00001000
00100000
00001000
01000000
;

//---------------dance-double - ----------------
#NOTEDATA:;
#CHARTNAME:;
#STEPSTYPE:dance-double;
#DESCRIPTION:;
#CHARTSTYLE:;
#DIFFICULTY:Medium;
#METER:6;
#RADARVALUES:0.323556,0.383124,0.206795,0.118168,0.000000,230.000000,209.000000,21.000000,12.000000,0.000000,0.000000,0.000000,0.000000,0.000000,0.323556,0.383124,0.206795,0.118168,0.000000,230.000000,209.000000,21.000000,12.000000,0.000000,0.000000,0.000000,0.000000,0.000000;
#CREDIT:;
#NOTES:
00000000
00000000
00000000
00000000
,
00000000
00000000
00000000
00000000
,
00000000
00000000
00000000
00000000
,
00000000
00000000
00000000
00000000
,
00000000
00200000
00300000
02000000
,
03000000
00002000
00003000
00020000
,
00030000
00000020
00000030
00000200
,
00000300
00002000
00003000
00000002
,
00001003
00000001
00001000
00000000
00000010
00000000
00000001
00000000
,
00000010
00001000
00000000
00000100
00000000
00010000
00001000
00010000
,
00000000
00011000
00000000
00101000
,
00010000
01000000
00000000
00200000
00000000
00300000
00000000
00000000
,
00010000
10000000
00010000
00000000
10000000
00000000
00100000
00000000
,
00010000
00100000
00000000
10000000
00000000
01000000
00010000
01000000
,
00000000
00011000
00000000
00010100
,
00001000
00000010
00000000
00000200
00000000
00000300
00000000
00000000
,
00000001
00000010
00000001
00000100
,
00000001
00000100
00001000
00000000
00010000
00100000
10000000
00000000
,
00010000
00100000
01000000
00100000
,
00010000
10000000
01000000
10000000
00010000
00000000
00000000
00000000
,
01000000
00010000
00100000
10000000
,
00100000
10000000
01000000
00000000
00010000
00001000
00000010
00000000
,
00000001
00001000
00000100
00000010
,
00001000
00000001
00000100
00000001
00001000
00000000
00000000
00000000
,
00000011
00000101
00000010
00000000
,
00001000
00000100
00001000
00000000
00010000
01000000
00010000
00000000
,
00011000
00101000
00010000
00000000
,
00100000
01000000
00100000
00000000
10000000
00010000
10000000
00000000
,
00110000
11000000
00100000
00000000
,
00010000
00001000
00100000
00000000
00001000
00010000
00000010
00000000
,
00010100
00001100
00000001
00001000
,
00000100
00000010
00000000
00001001
00000000
00000000
00000000
00000000
,
00000001
00000010
00000001
00000000
00001000
00000000
00000010
00000001
,
00000100
00001000
00000000
00010000
00000000
00001000
00100000
00010000
,
00000000
10100000
00000000
10010000
,
00100000
10000000
00010000
00200000
00000000
00300000
00000000
00000000
,
00010000
10000000
01000000
00000000
00100000
00000000
01000000
10000000
,
00100000
00010000
00000000
00001000
00000000
00000100
00000001
00000010
,
00000000
00000101
00000000
00001010
,
00000100
00000010
00000001
00002000
00000000
00003000
00000000
00000000
,
00000001
00000010
00000100
00000010
,
00000001
00001000
00000001
00000000
00001000
00000100
00000010
00000100
,
00001000
00000000
00000110
00000000
00000001
00000100
00000010
00000100
,
00000001
00000000
00000100
00000000
00001000
00010000
00100000
00000000
,
10000000
10010000
01000000
00100000
,
10000000
00010000
10000000
00000000
00010000
00100000
01000000
00100000
,
00010000
00000000
01100000
00000000
10000000
00100000
01000000
00100000
,
10000000
00000000
00010000
00000000
01000000
10000000
00010000
00100000
,
00000000
00001000
00000000
00000010
00000000
00000001
00000000
00001000
,
00000000
00000100
00000000
00001000
00000000
00000010
00000000
00000001
,
00000000
00000100
00000000
00000001
00000000
00000010
00000000
00001000
,
00000000
00000100
00000000
00010000
00000000
00001000
00000000
00011000
;

//---------------dance-double - ----------------
#NOTEDATA:;
#CHARTNAME:;
#STEPSTYPE:dance-double;
#DESCRIPTION:;
#CHARTSTYLE:;
#DIFFICULTY:Hard;
#METER:8;
#RADARVALUES:0.450165,0.510832,0.285574,0.019695,0.108321,320.000000,291.000000,29.000000,2.000000,0.000000,0.000000,0.000000,0.000000,0.000000,0.450165,0.510832,0.285574,0.019695,0.108321,320.000000,291.000000,29.000000,2.000000,0.000000,0.000000,0.000000,0.000000,0.000000;
#CREDIT:;
#NOTES:
00000000
00000000
00000000
00000000
,
00000000
00000000
00000000
00000000
,
00000000
00000000
00000000
00000000
,
00000000
00000000
00000000
00000000
,
01100000
00000000
00000000
00000000
00000000
00000000
00000000
00000000
00000000
00000000
00000000
10000000
00010000
00000000
00000000
10000000
,
00100000
00000000
00000000
01000000
00010000
00000000
00000000
00000000
00000000
00000000
00000000
00100000
00010000
00000000
00000000
00001000
,
00000010
00000000
00000000
00000000
00000000
00000000
00000000
00000000
00000000
00000000
00000000
00000001
00000100
00000000
00000000
00000001
,
00001000
00000000
00000000
00000000
00000000
00000000
00000000
00000000
00000000
00000000
00000000
00000100
00000010
00000000
00000000
00000000
,
00000101
00000000
00000010
00000000
00001100
00000001
00000010
00000100
,
00001000
00000010
00000000
00010000
00000000
00001000
01000000
01000000
,
01000000
10010000
00100000
10010000
,
00100000
00010000
00001000
00000100
00000020
00000000
00000030
00000000
,
00001001
00000000
00000010
00000000
00001100
00010000
00001000
00100000
,
00010000
10000000
00100000
01000000
00000000
00001000
00010000
00010000
,
00010000
00011000
00000010
00000101
,
00000010
00000001
00000100
00001000
00020000
00000000
00030000
00000000
,
00001000
00010000
00001000
00010000
01000000
00010000
01000000
10000000
,
01000000
10000000
00100000
00010000
00100000
10000000
01000000
00010000
,
01000000
00000000
10010000
00000000
00000000
00100000
01000000
10000000
,
00100000
00010000
00001000
00000010
00000110
00000000
00000000
00000000
,
00010000
00001000
00010000
00001000
00000100
00001000
00000100
00000001
,
00000010
00000001
00000010
00001000
00000010
00000001
00000100
00001000
,
00000100
00000000
00001001
00000000
00000000
00000010
00000100
00001000
,
00000010
00000100
00001000
00010000
01010000
00000000
00000000
00000000
,
10010000
01000000
00100000
10000000
01000000
00000000
00000000
00000000
,
10000000
00100000
00010000
00000000
00001000
00000010
00000001
00000000
,
00000110
00001000
00000010
00000100
00000001
00000000
00000000
00000000
,
00000010
00001000
00010000
00000000
00001000
00010000
00100000
00000000
,
11000000
00010000
00100000
01000000
10000000
00000000
00000000
00000000
,
00100000
01000000
00010000
00000000
00001000
00000010
00000100
00000000
,
00000011
00001000
00000100
00010000
00001000
00000000
00000110
00000000
,
00000001
00000010
00001000
00010000
00100000
00000000
00000000
00000000
,
10100000
10000000
00010000
01000000
01100000
00010000
01000000
00010000
,
00100000
01000000
10000000
00100000
00000000
00010000
00001000
00001000
,
00001000
00000000
00000110
00000000
00000010
00000001
00000100
00000000
,
00000001
00000100
00000000
00000010
00001000
00000010
00000100
00000000
,
00000011
00001000
00000001
00000100
00000110
00001000
00000010
00010000
,
00001000
00100000
00010000
10000000
00000000
00010000
01000000
01000000
,
01000000
00000000
10010000
00000000
00010000
01000000
00100000
00000000
,
10000000
00010000
10000000
00000000
01100000
00000000
00000000
00000000
,
10000000
01000000
00100000
00010000
01000000
00100000
10000000
00010000
,
01000000
00100000
01000000
00100000
01000000
00000000
00000000
00000000
11000000
00000000
00000000
01000000
00010000
00000000
00000000
00001000
,
00000100
00000000
00000000
00000000
00000001
00000000
00001000
00000000
00000001
00000000
00000000
00000010
00001000
00000000
00000000
00010000
,
00100000
00000000
00000000
00000000
10000000
00000000
00100000
00000000
01000000
00000000
00001000
00010000
00001000
00000000
00010000
00000000
,
00000010
00000100
00000001
00001000
00000010
00000100
00000001
00001000
,
00000010
00000100
00000010
00000100
00000010
00000000
00000000
00000000
00000101
00000000
00000000
00000100
00001000
00000000
00000000
00010000
,
01000000
00000000
00000000
00000000
10000000
00000000
00010000
00000000
10000000
00000000
00000000
00100000
00010000
00000000
00000000
00001000
,
00000010
00000000
00000000
00000000
00000001
00000000
00001000
00000000
00000010
00000000
00010000
00001000
00010000
00000000
00001000
00000000
,
00100000
01000000
00100000
01000000
00000000
10000000
00000000
01100000
,
00000000
00001000
00010000
00001000
00000000
00000010
00000000
00000001
,
00000000
00000100
00000010
00000100
00000000
00000001
00000000
00000110
,
00000000
00010000
00001000
00010000
00000000
00100000
00000000
10000000
;
