#TITLE:Holding Out For A Hero;
#SUBTITLE:;
#ARTIST:Bonnie Tyler;
#TITLETRANSLIT:;
#SUBTITLETRANSLIT:;
#ARTISTTRANSLIT:;
#GENRE:;
#CREDIT:;
#BANNER:Holding Out For A Hero.png;
#BACKGROUND:Holding Out For A Hero-bg.png;
#LYRICSPATH:;
#CDTITLE:;
#MUSIC:Music.ogg;
#OFFSET:-0.048;
#SAMPLESTART:44.310;
#SAMPLELENGTH:11.960;
#SELECTABLE:YES;
#BPMS:0.000=149.700;
#STOPS:;
#BGCHANGES: 0.000=Holding Out For A Hero.avi=1.000=0=0=0=StretchNoLoop====,
99999=-nosongbg-=1.000=0=0=0
;
#KEYSOUNDS:;

//---------------dance-single - ----------------
#NOTES:
     dance-single:
     :
     Easy:
     3:
     0.162,0.154,0.018,0.027,0.000:
0000
0000
0000
0000
,
0000
0000
0000
0000
,
0000
0000
0000
0000
,
0000
0000
0000
0000
,
1000
0000
1000
0000
,
0001
0000
0000
0000
,
0010
0000
0001
0000
,
0100
0000
0000
0000
,
0010
0000
0010
0000
,
1000
0000
0000
0000
,
1001
0000
0000
0100
,
0010
0000
0000
0000
,
1000
0000
0001
0000
,
0010
0000
0001
0000
,
0100
0000
0000
0001
,
1000
0000
0100
0000
,
0010
0000
0001
0000
,
1000
0000
0000
0010
,
1000
0000
0001
0000
,
1001
0000
0000
0000
,
0001
0000
0010
0000
,
0001
0000
1000
0100
,
1000
0000
0001
0000
,
1000
0000
0000
0000
,
0010
0000
0100
0000
,
0001
0000
0010
0100
,
0010
0000
0001
0000
,
1000
0000
0000
0000
,
0001
0002
0000
0003
,
1000
0000
0001
0000
,
1000
0000
0000
0010
,
1000
0000
0000
0000
,
0100
0000
1000
0000
,
0100
0000
0010
0000
,
0100
0000
1000
0000
,
0001
0000
0000
0000
,
1000
2000
0000
3000
,
0001
0000
0010
0000
,
0100
0000
0010
0000
,
0001
0000
0000
0000
,
1000
1000
1000
0000
,
0001
0000
0000
0000
,
0010
0010
0010
0000
,
0001
0000
0000
0000
,
1000
0000
0100
0000
,
1000
0000
0100
0000
,
0010
0000
0001
0000
,
0100
0100
0100
0000
,
0001
0000
1000
0000
,
0001
0000
1000
0000
,
0010
0000
0100
0000
,
0020
0000
0000
0030
,
0100
0001
0000
0100
,
0000
0001
0100
0000
,
0001
0000
1000
0000
,
0001
0000
0000
0000
,
1000
0100
0000
1000
,
0000
0100
1000
0000
,
0010
0000
0100
0000
,
0010
0000
0000
0000
,
1000
1000
1000
0000
,
0001
0000
0010
0000
,
0001
0000
0000
0000
,
1000
0000
0000
0000
,
0010
0010
0010
0000
,
1000
0000
0001
0000
,
0010
0000
0000
0000
,
0100
0000
0000
0000
,
0010
0000
0000
0010
,
0010
0001
0000
0000
;

//---------------dance-single - ----------------
#NOTES:
     dance-single:
     :
     Medium:
     5:
     0.349,0.401,0.223,0.098,0.000:
0000
0000
0000
0000
,
0000
0000
0000
0000
,
0000
0000
0000
0000
,
0000
0000
0000
0000
,
1000
0000
0001
0000
1000
0000
0000
0100
,
1000
0100
0010
0000
,
0001
0000
0100
0000
0001
0000
0000
0010
,
0001
1000
0100
0000
,
1000
0000
0010
0000
1000
0000
0000
0001
,
0100
0001
1000
0000
,
0002
1000
0000
1000
,
0100
0100
0000
0103
,
1001
1000
0100
0010
,
0001
0100
0001
1000
,
0100
0000
0010
0100
0000
0000
1000
0001
,
1000
0010
0100
0000
,
0001
1000
0100
0010
,
0001
0000
0100
1000
0100
0000
0001
0000
,
0010
0000
0100
0000
1000
0000
0010
0100
,
0001
0001
1000
1000
,
0001
1100
0001
1000
,
0101
1000
0001
0000
,
1000
0011
1000
0001
,
1010
0001
1000
0000
,
0100
0000
0010
0000
0100
0000
0100
1000
,
0000
1000
0100
0000
0010
0000
0001
0000
,
0100
0000
0010
0000
1000
0000
0000
0002
,
0000
0000
0000
0013
,
0011
1001
0100
0010
,
0001
0100
0010
0010
,
1000
0000
0001
0010
0001
0000
1000
0000
,
0100
0000
1000
0000
,
0010
0100
0001
0010
,
0100
0010
0001
0000
,
1000
0001
0100
0001
,
2002
3003
1001
0100
,
0010
0000
1000
0000
0001
0010
0000
0001
,
0000
1000
0100
0010
,
0001
0000
0100
0000
0010
0000
1000
0001
,
1000
0100
0010
0000
,
0001
0100
0100
0001
,
1000
0100
1100
0000
,
1000
0001
0010
0001
,
2000
0000
0010
3010
,
1000
0001
0101
0000
,
0001
1000
1100
0000
,
0010
0100
0110
0000
,
0001
1000
1001
1000
,
0001
0100
0110
0000
,
0010
1000
1001
0001
,
1001
0100
1001
0010
,
0110
0110
0010
1001
,
0100
0001
1000
0100
,
0010
0000
0001
0000
0100
0001
0100
0000
,
0001
1000
0200
0010
,
0310
0000
0100
0000
,
1000
0010
1010
1000
,
0001
0100
0002
0003
,
1000
0001
0100
0000
,
0110
0000
0000
0000
,
0010
0010
1000
1000
,
0100
0010
0001
0100
,
0001
1000
0100
0000
0010
0000
0100
0000
,
1000
0000
0000
0000
,
0010
2000
0010
3010
,
1000
0020
0100
0130
,
0010
1000
0002
1000
,
1003
0001
0010
0001
,
2000
0100
0100
3100
,
1100
1001
0000
0000
;

//---------------dance-single - ----------------
#NOTES:
     dance-single:
     :
     Hard:
     9:
     0.620,0.586,0.241,0.321,0.165:
0000
0000
0000
0000
,
0000
0000
0000
0000
,
0000
0000
0000
0000
,
0000
0000
0000
0000
,
0100
0000
0000
0000
1001
0000
0000
0100
0001
0000
2000
0000
0000
0000
0010
0000
,
3010
0000
0000
0000
0110
0000
0000
1000
0001
0000
0010
0000
0000
0000
0100
0010
,
0100
0000
0000
0000
1001
0000
0000
0010
0001
0000
2000
0000
0000
0000
0100
0000
,
3100
0000
0000
0000
0110
0000
0000
0001
1000
0000
0010
0000
0000
0000
0100
0010
,
0100
0000
0000
0000
1001
0000
0000
0010
0001
0000
0020
0000
0000
0000
0001
0000
,
0031
0000
0000
0000
0110
0000
0000
0010
0001
0000
0100
0000
0000
0000
0010
0100
,
0010
0000
0000
0000
1001
0000
0000
0010
1000
0000
0002
0000
0000
0000
0010
0000
,
0013
0000
0001
1000
0000
0010
0100
0000
,
0100
0001
1000
0001
2000
0000
3100
1000
,
0010
1000
0001
0100
0001
0000
1001
0000
,
0010
0000
0100
1000
0010
0000
0100
0001
,
0010
0010
0100
1000
0100
0100
0010
0100
,
2000
0000
3010
1000
0001
0000
0101
0000
,
0020
0000
0130
0010
1000
0000
0001
0100
,
0010
0000
1000
0100
0010
0000
0001
0100
,
1000
1000
0100
0001
1000
0000
1001
0000
,
2100
0000
3010
1000
0020
0000
1030
0010
,
1000
0001
0100
0000
0110
0000
1000
0001
,
0100
0010
0100
0002
0100
0000
0103
0001
,
0000
2001
0000
0000
0100
0000
3100
0000
,
2100
0000
3001
1000
0002
0000
0013
0001
,
0000
0001
0010
0100
0000
1000
0100
0000
,
1002
0000
0103
0000
0001
1000
0000
0100
,
0010
0001
0010
0000
0100
1000
0001
0000
1000
0001
1000
0000
0001
0100
0010
0000
,
0100
0000
0000
0000
0001
0000
0100
0001
0100
0000
0002
0000
0000
0000
1003
0000
,
0001
0010
0100
1000
0001
1000
1000
0002
,
0000
0103
0001
0000
1000
0100
0010
0002
,
0000
1003
0000
0000
1001
0000
0100
0002
,
0000
1003
0001
1000
0000
0100
1000
0200
,
0000
0310
0100
1000
0000
0010
0100
0002
,
0000
1003
0001
0100
0000
0010
0100
0010
,
0000
1001
0000
0020
0100
0130
0010
0100
,
0001
0000
0000
0000
0010
0000
0001
0010
0001
0000
1000
0000
0000
0000
0100
0000
,
0010
0001
0100
0001
0010
0010
0001
2000
,
0000
0100
3100
1000
0200
0010
0310
0100
,
1000
0100
0020
0001
0031
0010
0100
1000
,
0000
0010
0100
0001
0000
1000
0100
1000
,
0000
0001
0010
0100
0000
1000
0001
0100
,
0010
0100
0001
2000
0000
3100
1000
0100
,
0000
2001
0000
0000
0010
0000
3010
0000
,
1000
0000
0000
0001
0010
0000
0001
0000
1000
0000
0000
0000
1100
0000
0000
0000
,
0010
0000
0000
0001
0010
0000
0001
0000
0100
0000
0100
0000
0001
0000
0001
0000
,
1000
0001
1000
0001
1000
0000
0001
0000
0100
0000
0000
0000
0110
0000
0000
0000
,
0100
0000
0000
0001
1000
0000
0100
0000
0010
0000
0100
0010
0100
0000
0010
0000
,
0100
0000
0000
1000
0010
0000
0100
0000
0001
0000
0000
0000
1100
0000
0000
0000
,
0010
0001
0010
0001
0010
0000
0001
0000
1000
0000
0000
1000
0010
0000
0100
0000
,
0010
0000
0000
1000
0010
0000
0100
0000
0001
0000
0000
1000
0001
0000
1000
0000
,
0100
0010
0000
0100
1000
0000
0100
0000
0010
0000
0001
0100
0001
0000
0010
0000
,
0100
1000
0010
1000
0100
0010
0100
1000
,
0000
0000
1000
0000
0100
0000
0000
0000
0100
0000
0010
0000
0000
0001
0000
0000
,
0010
0000
0100
1000
0010
0000
0100
0002
,
1000
1003
0001
2000
0001
3001
1000
0001
,
0200
0000
0310
0100
0001
0000
1001
0000
,
1200
0000
0310
0100
1000
0000
0001
0100
,
0000
0100
0001
1000
0100
0000
0010
0100
,
1000
1000
0001
0100
0010
0000
0110
0000
,
0100
0001
0010
0000
0010
0001
0100
0000
,
0010
1000
0100
0010
0100
2000
0000
0000
,
3010
0000
1000
0010
0100
0000
0001
1000
,
0000
0000
0001
0000
1000
0001
1000
0000
0001
0000
0010
0000
0000
0000
0110
0000
,
0000
0100
1000
0010
0100
0000
0001
2000
,
0000
3100
0000
1200
0000
0320
0000
0000
,
0031
0000
0010
0001
0100
0100
0001
0000
,
1000
0100
1000
0000
0001
0010
0001
0000
1000
0010
1000
0000
0001
0100
0001
0000
,
2000
0001
3002
1000
,
1003
1001
0000
0000
;

//---------------dance-single - ----------------
#NOTES:
     dance-single:
     :
     Beginner:
     1:
     0.138,0.154,0.018,0.000,0.000:
0000
0000
0000
0000
,
0000
0000
0000
0000
,
0000
0000
0000
0000
,
0000
0000
0000
0000
,
1000
0000
1000
0000
,
0001
0000
0000
0000
,
0010
0000
0001
0000
,
0100
0000
0000
0000
,
0010
0000
0010
0000
,
1000
0000
0000
0000
,
1001
0000
0000
0100
,
0000
0000
0000
0000
,
1000
0000
0001
0000
,
0010
0000
0001
0000
,
0100
0000
0000
0000
,
1000
0000
0100
0000
,
0010
0000
0001
0000
,
1000
0000
0000
0010
,
0000
0000
0001
0000
,
1001
0000
0000
0000
,
0001
0000
0010
0000
,
0001
0000
1000
0100
,
1000
0000
0001
0000
,
1000
0000
0000
0000
,
0010
0000
0100
0000
,
0001
0000
0010
0000
,
0000
0000
0001
0000
,
1000
0000
0000
0000
,
0000
0001
0000
0000
,
1000
0000
0001
0000
,
1000
0000
0000
0010
,
0000
0000
0000
0000
,
0100
0000
1000
0000
,
0100
0000
0010
0000
,
0100
0000
1000
0000
,
0001
0000
0000
0000
,
0000
1000
0000
0000
,
0001
0000
0010
0000
,
0100
0000
0010
0000
,
0001
0000
0000
0000
,
1000
0000
1000
0000
,
0001
0000
0000
0000
,
0010
0000
0010
0000
,
0001
0000
0000
0000
,
1000
0000
0100
0000
,
1000
0000
0100
0000
,
0010
0000
0001
0000
,
0100
0000
0100
0000
,
0001
0000
1000
0000
,
0001
0000
1000
0000
,
0010
0000
0100
0000
,
0010
0000
0000
0000
,
0100
0001
0000
0100
,
0000
0001
0100
0000
,
0001
0000
1000
0000
,
0001
0000
0000
0000
,
1000
0000
0000
1000
,
0000
0100
0000
0000
,
0010
0000
0100
0000
,
0010
0000
0000
0000
,
1000
0000
1000
0000
,
0001
0000
0010
0000
,
0001
0000
0000
0000
,
1000
0000
0000
0000
,
0010
0000
0010
0000
,
1000
0000
0001
0000
,
0010
0000
0000
0000
,
0100
0000
0000
0000
,
0010
0000
0000
0010
,
0000
0001
0000
0000
;
