#TITLE:Ghost Rule;
#SUBTITLE:;
#ARTIST:DECO*27 feat. Hatsune Miku;
#TITLETRANSLIT:;
#SUBTITLETRANSLIT:;
#ARTISTTRANSLIT:;
#GENRE:;
#CREDIT:;
#BANNER:ghost rule bn.png;
#BACKGROUND:ghost rule bg.png;
#LYRICSPATH:;
#CDTITLE:cdtitlecondortalon.png;
#MUSIC:Ghost Rule.ogg;
#OFFSET:2.009;
#SAMPLESTART:48.286;
#SAMPLELENGTH:18.285;
#SELECTABLE:YES;
#BPMS:0.000=105.000,36.000=210.000,132.000=105.000,136.000=210.000,200.000=105.000,232.000=210.000,288.000=105.000,292.000=210.000,420.000=105.000;
#STOPS:;
#BGCHANGES:3.625=Ghost Rule.avi=1.000=1=0=0=StretchNoLoop==CrossFade==,
99999=-nosongbg-=1.000=0=0=0 // don't automatically add -songbackground-
;
#KEYSOUNDS:;

//---------------dance-single - CondorTalon----------------
#NOTES:
     dance-single:
     CondorTalon:
     Challenge:
     10:
     0.783,1.000,0.142,0.567,0.392:
0000
0000
0000
0000
,
0000
0000
0000
0000
,
0000
0000
0000
0000
,
0000
0000
0000
0000
,
0000
0000
0000
0000
,
0001
1000
0000
0001
0100
0000
0010
1000
0000
0000
0100
0000
0010
0001
0000
1000
,
0001
0100
0000
0010
1000
0000
0100
0010
0000
0000
0001
0000
1000
0010
0000
0100
,
0010
1000
0000
0001
1000
0000
0100
0010
0000
0000
0001
0000
1000
0010
0000
0100
,
0010
0000
1000
0000
0000
0000
0001
0000
0010
0000
0000
0000
0100
0000
1000
0000
0100
0000
1000
0001
1000
0000
0010
0000
0100
0000
0001
0000
1000
0000
0100
0000
,
M01M
0000
0011
0000
0001
0000
1001
1000
,
0000
0010
0110
0100
0001
0001
1000
0100
,
0010
0000
0011
0001
0000
1000
0000
0010
,
0000
0100
0101
0001
1000
1000
0100
0000
,
0010
0001
1001
0000
1000
0000
1010
0010
,
0000
0100
0101
0001
0010
0010
0100
1000
,
0001
0000
0101
0100
0000
0010
0000
1000
,
0001
0010
0110
0100
1000
1000
0001
0000
,
1000
0001
0100
0010
1000
0001
0010
0100
,
1000
0000
0100
0000
1000
0000
0001
0000
0100
0000
0010
0000
0100
0000
0000
0001
,
1000
0000
0100
0000
1000
0000
0001
0000
0100
0000
0001
0000
1000
0000
0000
0100
,
1000
0000
0001
0000
1000
0000
0010
0000
0100
0000
0010
0000
1000
0000
0000
0001
,
0010
0000
0100
0000
1000
0000
0100
0000
0010
0000
0001
0000
1000
0000
0000
0010
,
1000
0000
0001
0000
1000
0000
0010
0000
0100
0000
0001
0000
1000
0000
0000
0001
,
0010
0100
1000
0001
0010
0100
0010
0001
,
1000
0000
0010
0100
0001
0000
1000
0000
0010
0000
1000
0000
0001
0000
0100
0000
,
0002
0100
0000
1000
1000
0000
0010
0010
,
0003
0020
2030
3020
,
0230
0010
0000
0001
0001
0000
1000
1000
,
0300
1000
0001
0000
1000
0100
0000
1000
,
0002
1000
0000
0010
0010
0000
0100
0100
,
0003
0200
2300
3200
,
0320
0100
0000
0001
0001
0000
1000
1000
,
0030
1000
0001
1000
0010
0100
0001
1000
,
01MM
0000
0000
0000
0000
0000
0000
0100
0000
0001
0000
0000
0000
0000
0000
0000
0001
0000
2000
0000
0000
0000
0000
0000
0000
0000
0000
3020
0000
0000
0000
0000
0000
0000
0000
0000
0031
0000
0000
0000
0000
0000
0000
0000
0000
0000
0000
0000
,
2MM2
3003
2002
3003
1000
0100
0010
0100
,
1000
0000
0001
0200
0000
0000
0310
0000
,
1000
0100
0001
0100
1000
0000
0001
0100
,
2000
0000
0000
0000
3100
0000
0010
0000
1000
0000
0010
0100
0001
0000
1000
0000
,
2200
3300
2200
3300
0100
0010
0001
0010
,
0100
0000
1000
0002
0000
0000
0103
0000
,
0001
0000
0000
0010
0000
0000
1000
0000
0000
0010
0000
0000
0001
0000
0000
0000
0000
0000
0100
0000
0000
0000
0010
0000
,
1000
0000
0001
1000
0100
0000
0010
0000
0001
0000
1000
0000
0001
0000
0100
0000
,
0002
0203
2300
3020
,
0032
0000
0203
0000
1300
0200
0000
0000
,
0310
0100
1000
0100
0001
0000
0010
0100
,
2000
0000
0000
0000
3001
0000
0100
0000
0010
0000
1000
0001
0100
0000
0001
0000
,
2000
3200
0302
0023
,
2030
0000
3200
0000
0301
0200
0000
0000
,
0310
0100
0001
0100
0010
0000
0100
1000
,
0001
0000
0100
0010
1000
0000
0001
0000
0010
0000
0000
0000
0200
0000
0000
0000
,
13MM
0100
0010
0001
1000
0010
0100
0001
1000
0000
0001
0000
1000
0000
0100
0000
,
0010
0001
0010
0001
1000
0010
0100
0001
1000
0000
0100
0010
0001
0010
0100
1000
,
0001
0000
0100
0000
0010
0000
0100
0000
0001
0000
1000
0000
0001
0000
0010
0000
0100
0000
1000
0100
0010
0000
0001
0000
0010
0000
0001
0000
1000
0000
0010
0000
,
0100
0001
1000
0001
1000
0100
0010
0001
1000
0000
0001
0000
0100
0000
0010
0000
,
1000
0001
0010
0100
0010
0001
0000
1000
0001
0000
0100
0010
0000
0000
0000
1000
,
0001
0100
0010
1000
0001
1000
0100
0010
0001
0000
0010
0100
0000
0000
0000
0000
,
1000
0010
0100
0001
1000
0000
0100
0010
0001
0000
0010
0100
0000
0000
0000
1000
,
0001
0000
0100
0010
0000
1000
0001
0000
0010
0000
0000
0100
1000
0000
0000
0000
,
0MM1
1000
0001
0100
0010
1000
0001
0010
,
0100
0000
0000
0000
1000
0000
0001
0000
0000
1000
0000
0000
0000
0000
0000
0000
0000
0000
0000
0000
0000
0100
0000
0000
,
0010
0100
1000
0001
1000
0010
0100
0001
,
1000
0100
0010
0100
0000
0000
0000
0000
,
1000
0001
0010
0001
1000
0010
0100
0010
,
1000
0001
0010
0100
0000
0000
0000
1000
,
0001
0000
0010
0100
0000
1000
0010
0100
,
0001
0001
0000
1000
0001
0000
0000
0000
,
2000
3000
2000
3000
0001
0100
0010
0100
,
0001
0000
1000
0200
0000
0000
0310
0000
,
0001
0000
0000
0010
0000
0000
0100
0000
0000
1000
0000
0000
0100
0000
0000
0000
1000
0000
0001
0000
0000
1000
0000
0000
,
0010
0000
0100
0001
0000
0000
0020
0000
,
0230
0300
0200
0300
1000
0001
0100
0010
,
1000
0000
0100
0010
0000
0000
0002
0000
,
1MM3
0000
0000
0000
0000
0000
0000
0000
0000
0000
0000
0000
0M00
0000
0000
0000
0000
0000
0000
0000
0000
0000
0000
0000
00M0
0000
0000
0000
0000
0000
0000
0000
0000
0000
0000
0000
0M00
0000
0000
0000
0000
0000
0000
0000
0000
0000
0000
0000
00M0
0000
0000
0000
0000
0000
0000
0000
0000
0000
0000
0000
0000
0000
0000
0000
0000
0000
0000
0000
0000
0000
0000
0000
M000
0000
0000
0000
0000
0000
0000
0000
0000
0000
0000
0000
0000
0000
0000
0000
000M
0000
0000
0000
0000
0000
0000
0000
M000
0000
0000
0000
0000
0000
0000
0000
0000
0000
0000
0000
0000
0000
0000
0000
0000
0000
0000
0000
0000
0000
0000
0000
000M
0000
0000
0000
0000
0000
0000
0000
0000
0000
0000
0000
M000
0000
0000
0000
0000
0000
0000
0000
0000
0000
0000
0000
0000
0000
0000
0000
0000
0000
0000
0000
0000
0000
0000
0000
0000
0000
0000
0000
0000
0000
0010
0000
0000
0000
0000
0000
0100
0000
0000
0000
0000
0000
0000
0000
0000
0000
0000
0000
0000
0000
0000
0000
0000
0000
0000
0000
0000
0000
0000
0000
,
2MM2
3003
2002
3003
0001
0010
0100
1000
,
0100
0000
1000
0002
0000
0000
0103
0000
,
0010
0100
1000
0100
0001
1000
0010
0100
,
2000
0000
0000
0000
3100
0000
0001
0000
1000
0000
0100
0010
0001
0000
1000
0000
,
2002
3003
2002
3003
0001
1000
0100
0010
,
0100
0000
1000
0002
0000
0000
0103
0000
,
0001
0010
1000
0010
0100
0000
1000
0010
,
0100
0000
0001
1000
0100
0000
1000
0000
0001
0000
0010
0100
1000
0001
0010
0002
,
2000
3003
2002
3003
1000
0010
0100
0010
,
1000
0000
0001
0020
0000
0000
0130
0000
,
1000
0010
0001
0010
1000
0001
1000
0100
,
0002
0000
0000
0000
0103
0000
0010
0000
0001
0000
1000
0001
0100
0000
0010
0000
,
2020
3030
2020
3030
1000
0001
0100
0001
,
1000
0000
0100
0020
0000
0000
0031
0000
,
1000
0100
0001
0100
0010
0000
0001
0010
,
0100
0000
1000
0001
0010
0000
0001
0000
1000
0000
0010
0000
0100
0000
0001
0000
,
0200
0001
0010
1000
,
0010
0000
0001
0000
0010
0320
0000
0000
,
1030
0100
0001
0100
0010
0000
0001
1000
,
0100
0000
0010
0200
0000
0000
1000
0000
,
0001
1000
0010
0001
,
0010
0000
1000
0000
0010
0320
0000
0000
,
0031
0100
1000
0100
0001
0000
0100
0001
,
1000
0000
0100
0010
0001
0000
1000
0000
0002
0000
0203
0000
0302
0000
0000
0000
,
2003
3200
0302
0023
,
2030
0000
3200
0000
0301
0200
0000
0000
,
0310
0100
0001
0100
1000
0000
0001
0010
,
0100
0000
1000
0020
0000
0000
1000
0000
,
0001
1000
0100
0001
,
0100
0000
1000
0000
0130
0200
0000
0000
,
0301
0010
1000
0010
0100
0000
1000
0001
,
1000
0000
0010
0100
0001
0000
1000
0000
0001
0000
0000
0000
0000
0000
0000
0000
,
1MM0
0000
0001
0000
1000
0000
0100
0010
0000
0001
1000
0001
0000
0000
0000
0100
,
0010
0000
1000
0001
0000
0010
0000
0100
0000
1000
0001
1000
0000
0000
0000
0000
,
0000
0010
0100
0000
0001
0000
1000
0100
0000
0010
0001
1000
0000
0000
0000
0010
,
0100
0000
0010
1000
0000
0001
0000
1000
0100
0010
0001
1000
0000
0000
0000
0000
;

//---------------dance-single - CondorTalon----------------
#NOTES:
     dance-single:
     CondorTalon:
     Hard:
     9:
     0.696,0.807,0.081,0.655,0.223:
0000
0000
0000
0000
,
0000
0000
0000
0000
,
0000
0000
0000
0000
,
0000
0000
0000
0000
,
0000
0000
0000
0000
,
0001
1000
0000
0001
0100
0000
0010
1000
0000
0000
0100
0000
0010
0001
0000
1000
,
0001
0100
0000
0010
1000
0000
0100
0010
0000
0000
0001
0000
1000
0010
0000
0100
,
0010
1000
0000
0001
1000
0000
0100
0010
0000
0000
0001
0000
1000
0010
0000
0100
,
0010
1000
0000
0001
0010
0000
0100
1000
0000
0004
1003
0010
0100
0001
1000
0100
,
M01M
0000
0002
0000
1003
0000
0010
0200
,
0000
0301
1000
0100
0000
0000
0000
0010
,
0001
0000
1000
0002
0000
0103
0000
0020
,
0000
1030
0001
1000
0000
0000
0000
0000
,
0000
0100
0020
0000
0032
0000
1003
0010
,
0000
0100
0001
1000
0000
0000
0000
0100
,
1000
0000
0001
0200
0000
0320
0000
1030
,
0001
1000
0100
1000
0000
0000
0000
0000
,
0001
1000
0001
0100
0010
1000
0001
0010
,
0100
1000
0100
0010
0001
1000
0001
0000
,
0100
0010
1000
0010
0100
0001
1000
0100
,
0010
0001
0010
0100
1000
0001
1000
0000
,
0010
0100
0001
0100
0001
1000
0100
0010
,
0100
1000
0001
0100
0010
0100
0001
0000
,
1000
0100
0010
0001
0010
0100
1000
0001
,
0000
0400
0301
1000
0010
1000
0001
0100
,
0002
0100
0000
1000
1000
0000
0010
0010
,
0003
0020
2030
3020
,
0230
0010
0000
0001
0001
0000
1000
1000
,
0300
1000
0001
0000
1000
0100
0000
1000
,
0002
1000
0000
0010
0010
0000
0100
0100
,
0003
0200
2300
3200
,
0320
0100
0000
0001
0001
0000
1000
1000
,
0030
1000
0001
1000
0010
0100
0001
1000
,
01MM
0000
0000
0001
0000
0000
2000
0000
0000
3020
0000
0000
0031
0000
0000
0000
,
2MM2
3003
2002
3003
1000
0100
0010
0100
,
1000
0000
0001
0200
0000
0000
0310
0000
,
1000
0100
1000
0100
0010
0000
0001
0100
,
0020
0000
1030
0010
0000
0000
2000
3000
,
2200
3300
2200
3300
0100
0010
0001
0010
,
0100
0000
1000
0002
0000
0000
0103
0000
,
0001
1000
0001
1000
0010
0000
0100
0000
,
0001
0000
0010
0100
0000
0000
2000
0000
,
3002
0203
0320
2030
,
3002
0000
0023
0000
0130
2000
0000
0000
,
3010
0100
0010
0100
0001
0000
0010
0100
,
2000
0000
3001
0200
0000
0000
0302
0000
,
2003
3200
0320
0032
,
2003
0000
3020
0000
0130
0002
0000
0000
,
1003
0100
1000
0100
0010
0000
0100
1000
,
0002
0000
1003
0100
0000
0000
2000
0000
,
31MM
1000
0001
0100
0010
1000
0001
0010
,
0100
0010
0001
1000
0010
0100
0010
1000
,
0001
0010
0001
1000
0010
0100
0001
1000
,
0100
0010
0001
0010
0100
1000
0001
0000
,
1000
0001
0010
0100
0010
0001
0000
1000
0001
0000
0100
0010
0000
0000
0000
1000
,
0001
0100
0010
1000
0001
1000
0100
0010
0001
0000
0010
0100
0000
0000
0000
0000
,
1000
0010
0100
0001
1000
0000
0100
0010
0001
0000
0010
0100
0000
0000
0000
1000
,
0001
0000
0100
0010
0000
1000
0001
0000
0010
0000
0000
0100
1000
0000
0000
0000
,
0MM1
1000
0001
0100
0010
1000
0001
0010
,
0100
0000
1000
0001
0000
0000
0000
0010
,
0100
0010
0001
1000
0001
0100
0010
1000
,
0001
0010
0100
0010
0000
0000
0000
0000
,
0001
1000
0100
1000
0001
0100
0010
0100
,
0001
1000
0100
0010
0000
0000
0000
0001
,
1000
0000
0100
0010
0000
0001
0100
0010
,
1000
1000
0000
0001
1000
0000
0000
0000
,
0002
0003
0002
0003
1000
0010
0100
0010
,
1000
0000
0001
0020
0000
0000
0130
0000
,
1000
0100
0010
0001
0010
0000
0001
1000
,
0010
0000
0100
0001
0000
0000
0020
0000
,
0230
0300
0200
0300
1000
0001
0100
0010
,
1000
0000
0100
0010
0000
0000
0002
0000
,
1MM3
0000
0000
0M00
0000
0000
00M0
0000
0000
0M00
0000
0000
00M0
0000
0000
0000
0000
0000
M000
0000
0000
0000
000M
0000
M000
0000
0000
0000
0000
0000
000M
0000
0000
M000
0000
0000
0000
0000
0000
0000
0000
0000
0100
0000
0000
0000
0000
0000
,
2MM2
3003
2002
3003
0001
0010
0100
1000
,
0100
0000
1000
0002
0000
0000
0103
0000
,
0001
1000
0100
1000
0001
1000
0010
0100
,
0002
0000
0103
0001
0000
0000
1000
0000
,
2002
3003
2002
3003
0001
1000
0100
0010
,
0100
0000
1000
0002
0000
0000
0103
0000
,
0001
0010
0001
0010
0100
0000
1000
0010
,
0100
0000
0000
0000
0001
0000
1000
0000
0000
0000
0040
0000
0000
0000
0000
0030
,
2002
3003
2002
3003
1000
0010
0100
0010
,
1000
0000
0001
0020
0000
0000
0130
0000
,
1000
0010
1000
0010
0100
0001
1000
0100
,
0020
0000
0031
0100
0000
0000
0020
0030
,
2020
3030
2020
3030
1000
0001
0100
0001
,
1000
0000
0100
0020
0000
0000
0031
0000
,
1000
0010
1000
0010
0100
0000
0001
0010
,
0100
0000
1000
0002
0000
0000
1003
0000
,
0200
1000
0010
0001
,
0010
0000
1000
0000
0010
0320
0000
0000
,
0031
0100
0001
0100
0010
0000
1000
0001
,
0100
0000
0010
0200
0000
0000
0001
0000
,
1000
0001
0010
1000
,
0010
0000
0001
0000
0010
0320
0000
0000
,
1030
0100
1000
0100
0010
0000
0100
1000
,
0001
0000
0100
0001
0000
0000
2000
0000
,
3002
0203
0320
2030
,
3002
0000
0023
0000
0130
2000
0000
0000
,
3010
0100
0010
0100
0001
0000
1000
0010
,
0100
0000
0001
0020
0000
0000
0001
0000
,
1000
0001
0100
1000
,
0100
0000
0001
0000
0130
0200
0000
0000
,
1300
0010
1000
0010
0100
0000
0001
1000
,
0001
0000
1000
0001
1000
0000
0000
0000
,
0MM1
0000
1000
0000
0001
0000
0100
0010
0000
1000
0001
1000
0000
0000
0000
0100
,
0010
0000
0001
1000
0000
0010
0000
0100
0000
0001
1000
0001
0000
0000
0000
0000
,
0000
0010
0100
0000
1000
0000
0001
0100
0000
0010
1000
0001
0000
0000
0000
0010
,
0100
0000
0010
0001
0000
1000
0000
0001
0100
0010
1000
0001
0000
0000
0000
0000
;

//---------------dance-single - CondorTalon----------------
#NOTES:
     dance-single:
     CondorTalon:
     Medium:
     7:
     0.500,0.658,0.101,0.290,0.074:
0000
0000
0000
0000
,
0000
0000
0000
0000
,
0000
0000
0000
0000
,
0000
0000
0000
0000
,
0000
0000
0000
0000
,
0001
0000
0000
0100
0000
0000
0010
0000
0000
1000
0000
0000
0002
0000
0000
0000
,
1003
0000
0000
0100
0000
0000
0010
0000
0000
0001
0000
0000
2000
0000
0000
0000
,
3010
0000
0000
0100
0000
0000
0010
0000
0000
1000
0000
0000
0002
0000
0000
0000
,
0013
0000
0000
0100
0000
0000
0010
0000
0000
0001
0000
0000
2000
0000
0000
0000
,
30M1
0000
0100
0000
0010
0000
1000
0001
,
0000
1000
0001
1000
0000
0000
0000
0001
,
0010
0000
0001
0010
0000
0100
0000
1000
,
0000
0001
1000
0001
0000
0000
0000
0000
,
0100
0010
0100
0000
0001
0000
1000
0100
,
0000
1000
0100
1000
0000
0000
0000
0001
,
0100
0000
0001
0100
0000
0010
0000
1000
,
0001
1000
0001
1000
0000
0000
0000
0000
,
0001
0000
0010
0000
0100
0000
0010
0001
,
0000
0010
0001
0010
0000
0000
0000
0001
,
1000
0000
0001
1000
0000
0010
0000
0100
,
0000
0001
0100
0001
0000
0000
0000
0000
,
1000
0100
1000
0000
0001
0000
0100
0010
,
0000
0100
0010
0100
0000
0000
0000
0001
,
1000
0000
0001
0000
1000
0010
0000
0100
,
0001
0100
0001
0100
0000
0000
0020
0000
,
2030
0000
0000
0001
0000
0000
0001
0000
,
0000
0001
0000
0000
3001
0000
0100
0000
,
0002
0000
0000
0010
0000
0000
0010
0000
,
0000
0010
0000
0000
0023
0000
0000
0000
,
0230
0000
0000
1000
0000
0000
1000
0000
,
0000
1000
0000
0000
1300
0000
0001
0000
,
0200
0000
0000
0001
0000
0000
0001
0000
,
0000
0001
0000
0000
0302
0000
0000
0000
,
10M3
0000
0000
0100
0000
0000
0010
0000
0000
0100
0000
0000
2000
0000
0000
0000
,
30M1
0000
0001
0000
1000
0010
1000
0000
,
0001
0000
0010
0200
0000
0000
1300
0000
,
0001
1000
0001
1000
0001
0000
0200
0000
,
0310
0000
1000
0100
0000
0000
0020
0000
,
0130
0000
0100
0000
1000
0001
1000
0000
,
0010
0000
0100
0002
0000
0000
1003
0000
,
0100
0010
0100
0010
0100
0000
1000
0000
,
0001
0000
0100
0010
0000
0000
2000
0000
,
3001
0101
0001
0101
,
0100
0000
0101
0000
0100
0002
0000
0000
,
1003
0100
1000
0100
1000
0000
0001
0000
,
0100
0000
0010
2000
0000
0000
3002
0000
,
1003
1100
1000
1100
,
0100
0000
1100
0000
0100
2000
0000
0000
,
3001
0100
0001
0100
0001
0000
0010
0000
,
0100
0000
1000
0001
0000
0000
2000
0000
,
30M1
0000
0100
0000
,
0010
0000
1000
0100
,
0010
0000
0001
0000
,
1000
0000
0010
0100
,
0001
0000
1000
0000
0001
0000
1000
0000
0100
0000
0010
0001
0000
0000
0000
1000
,
0001
0000
0100
0000
0001
0000
0100
0000
0010
0000
1000
0100
0000
0000
0000
0000
,
0010
0000
0001
0000
0010
0000
0001
0000
1000
0000
0010
0100
0000
0000
0000
0001
,
1000
0000
0001
1000
0000
0001
1000
0001
0200
0000
0000
0000
0302
0000
0000
0000
,
10M3
0100
1100
1000
,
0001
0000
0100
0001
1000
0000
0100
0000
,
1000
0001
0011
0010
,
0100
0000
1000
0001
0100
0000
0010
0000
,
1000
0100
0110
0010
,
0001
0000
1000
0001
0100
0000
0010
0100
,
0001
0000
1000
0001
0000
1000
0100
0010
,
0002
0000
1003
0000
,
0010
0000
0010
0000
0100
0001
0100
0000
,
0010
0000
1000
0002
0000
0000
0013
0000
,
0100
1000
0100
1000
0100
0000
0010
0000
,
0001
0000
0100
0010
0000
0000
2000
0000
,
3001
0000
0001
0000
1000
0100
1000
0000
,
0010
0000
0100
0002
0000
0000
1003
0000
,
01M0
0000
0000
0000
0000
0000
0000
1000
,
00M1
0000
0001
0000
1000
0010
1000
0000
,
0001
0000
0100
0020
0000
0000
1030
0000
,
0100
0010
0100
0010
0100
0000
1000
0000
,
0001
0000
0100
0010
0000
0000
2000
0000
,
3001
0000
0001
0000
0100
0010
0100
0000
,
0001
0000
1000
0200
0000
0000
0310
0000
,
0001
1000
0001
1000
0001
0000
0100
0000
,
0010
0000
1000
0100
0000
0000
0000
0000
,
1000
0000
1000
0000
0001
0100
0010
0000
,
1000
0000
0001
0020
0000
0000
0130
0000
,
1000
0001
0100
0010
1000
0000
0100
0000
,
0010
0000
0001
1000
0000
0000
0200
0000
,
1300
0000
1000
0000
0010
1000
0100
0000
,
1000
0000
0001
0200
0000
0000
0310
0000
,
0100
0001
0010
0001
0100
0000
0010
0000
,
1000
0000
0100
0020
0000
0000
0032
0000
,
0010
0010
1000
1000
,
0100
0000
0100
0000
1000
1000
0000
0000
,
1003
0100
1000
0001
0100
0000
0010
0000
,
1000
0000
0001
2000
0000
0000
3002
0000
,
0100
0100
1000
1000
,
0010
0000
0010
0000
1000
1000
0000
0000
,
1003
0010
1000
0001
0010
0000
0100
0000
,
1000
0000
0100
0010
0000
0000
0002
0000
,
1003
1010
1000
1010
,
0010
0000
1010
0000
0010
2000
0000
0000
,
3001
0010
0100
1000
0001
0000
1000
0000
,
0010
0000
1000
0002
0000
0000
2003
0000
,
3001
0011
0001
0011
,
0010
0000
0011
0000
0010
0002
0000
0000
,
1003
0010
0100
0001
1000
0000
0100
0000
,
0010
0000
0001
1000
0001
0000
0000
0000
,
10M0
0000
0000
1000
0000
0000
1000
0000
0000
0000
0000
0000
0000
0000
0000
0000
,
0001
0000
0000
0001
0000
0000
0001
0000
0000
0000
0000
0000
0000
0000
0000
0000
,
0100
0000
0000
0100
0000
0000
0100
0000
0000
0000
0000
0000
0000
0000
0000
0000
,
0010
0000
0000
0010
0000
0000
0010
0000
0000
0000
0000
0000
0000
0000
0000
0000
;

//---------------dance-single - CondorTalon----------------
#NOTES:
     dance-single:
     CondorTalon:
     Easy:
     4:
     0.260,0.328,0.000,0.081,0.000:
0000
0000
0000
0000
,
0000
0000
0000
0000
,
0000
0000
0000
0000
,
0000
0000
0000
0000
,
0000
0000
0000
0000
,
0001
0000
0000
0000
,
1000
0000
0000
0000
,
0010
0000
0000
0000
,
0100
0000
0000
0000
,
0001
1000
0000
1000
,
0000
1000
0000
1000
,
0010
0100
0000
0100
,
0000
0100
0000
0100
,
0001
0010
0000
0010
,
0000
0010
0000
0010
,
0100
1000
0000
1000
,
0000
1000
0001
1000
,
0001
0100
0000
0010
,
1000
0001
0000
1000
,
0100
0010
0000
0100
,
1000
0001
0000
0100
,
0010
1000
0000
0001
,
0010
0100
0000
0010
,
0001
1000
0000
0010
,
0100
0001
1000
0100
,
2000
0000
0001
0000
,
0000
3002
0023
0032
,
0000
0000
0100
0000
,
0000
0000
1000
0000
,
0023
0000
0100
0000
,
0000
0032
2003
3020
,
0230
0000
0001
0000
,
0000
0000
0302
0000
,
1003
0000
0000
0000
,
0001
0010
0100
0000
,
1000
0001
0000
1000
,
0001
0100
0001
0000
,
1000
0100
0000
0010
,
0001
1000
0001
0000
,
0100
0010
0000
1000
,
0001
0010
0100
0000
,
0010
0001
0000
1000
,
0001
0100
0001
1000
,
0010
1000
0001
0000
,
0010
0100
1000
0000
,
0001
0100
0000
0001
,
1000
0100
0010
0100
,
1000
0001
0100
0000
,
0001
1000
0001
0000
,
0100
0010
0000
1000
,
0001
0000
0000
0000
,
1000
0000
0000
0000
,
0100
0000
0000
0000
,
0010
0000
0000
0000
,
0001
0001
1000
0000
,
0010
0010
0100
0000
,
0001
0001
0010
0000
,
0100
0100
1000
0000
,
0001
1000
0001
0000
,
0100
0000
0010
0000
,
1000
0100
1000
0000
,
0001
0000
0100
0000
,
0010
1000
0001
0000
,
0010
0000
0100
0000
,
1000
0100
0010
0000
,
0001
0000
1000
0000
,
0010
0000
0000
0000
,
1000
0000
0000
0000
,
0001
0000
0000
0000
,
0010
0000
0000
0000
,
0100
0000
0000
0000
,
1000
0000
0000
0000
,
0001
0000
0000
0000
,
1000
0001
1000
0000
,
0010
0100
0000
0001
,
1000
0100
0010
0000
,
0001
0100
0000
0010
,
1000
0001
1000
0000
,
0100
1000
0000
0001
,
0100
0010
0100
0000
,
0001
1000
0000
0100
,
0010
0001
0010
0000
,
0001
1000
0000
0010
,
0100
0001
1000
0000
,
0100
0010
0000
0001
,
1000
0010
0100
0000
,
0001
1000
0000
0100
,
0010
0001
0010
0000
,
0001
0100
0000
0010
,
2000
0001
0000
0001
,
0000
0010
0000
0010
,
3001
0100
0001
0000
,
1000
0100
0000
0010
,
0002
0100
0000
0100
,
0000
1000
0000
1000
,
0013
0100
1000
0000
,
0001
1000
0000
0100
,
0010
0100
1000
0001
,
0100
0010
1000
0000
,
0001
0010
0100
0000
,
0010
0001
0000
1000
,
0001
0100
0010
1000
,
0001
0010
0100
0000
,
0010
0001
1000
0000
,
0001
0100
0000
0000
,
0001
0000
0000
0000
,
1000
0000
0000
0000
,
0001
0000
0000
0000
,
1000
0000
0000
0000
;

//---------------dance-single - CondorTalon----------------
#NOTES:
     dance-single:
     CondorTalon:
     Beginner:
     1:
     0.059,0.073,0.000,0.000,0.000:
0000
0000
0000
0000
,
0000
0000
0000
0000
,
0000
0000
0000
0000
,
0000
0000
0000
0000
,
0000
0000
0000
0000
,
0001
0000
0000
0000
,
1000
0000
0000
0000
,
0010
0000
0000
0000
,
0100
0000
0000
0000
,
0001
0000
0000
0000
,
0000
0000
0000
0000
,
0010
0000
0000
0000
,
0000
0000
0000
0000
,
0100
0000
0000
0000
,
0000
0000
0000
0000
,
1000
0000
0000
0000
,
0000
0000
0000
0000
,
0001
0000
0000
0000
,
0000
0000
0000
0000
,
0100
0000
0000
0000
,
0000
0000
0000
0000
,
0010
0000
0000
0000
,
0000
0000
0000
0000
,
1000
0000
0000
0000
,
0000
0000
0000
0000
,
0100
0000
0000
0000
,
0000
0000
0000
0000
,
0010
0000
0000
0000
,
0000
0000
0000
0000
,
0001
0000
0000
0000
,
0000
0000
0000
0000
,
1000
0000
0000
0000
,
0000
0000
0000
0000
,
0001
0000
0000
0000
,
1000
0000
0000
0000
,
0000
0000
0000
0000
,
0010
0000
0000
0000
,
0000
0000
0000
0000
,
0100
0000
0000
0000
,
0000
0000
0000
0000
,
0001
0000
0000
0000
,
0000
0000
0000
0000
,
1000
0000
0000
0000
,
0000
0000
0000
0000
,
0100
0000
0000
0000
,
0000
0000
0000
0000
,
0010
0000
0000
0000
,
0000
0000
0000
0000
,
0001
0000
0000
0000
,
0000
0000
0000
0000
,
1000
0000
0000
0000
,
0010
0000
0000
0000
,
0100
0000
0000
0000
,
0001
0000
0000
0000
,
1000
0000
0000
0000
,
0100
0000
0000
0000
,
0010
0000
0000
0000
,
0001
0000
0000
0000
,
0010
0000
0000
0000
,
0000
0000
0000
0000
,
0001
0000
0000
0000
,
0000
0000
0000
0000
,
1000
0000
0000
0000
,
0000
0000
0000
0000
,
0010
0000
0000
0000
,
0000
0000
0000
0000
,
0100
0000
0000
0000
,
0000
0000
0000
0000
,
0001
0000
0000
0000
,
0000
0000
0000
0000
,
1000
0000
0000
0000
,
0000
0000
0000
0000
,
0100
0000
0000
0000
,
0010
0000
0000
0000
,
0000
0000
0000
0000
,
0001
0000
0000
0000
,
0000
0000
0000
0000
,
1000
0000
0000
0000
,
0000
0000
0000
0000
,
0010
0000
0000
0000
,
0000
0000
0000
0000
,
0100
0000
0000
0000
,
0000
0000
0000
0000
,
0001
0000
0000
0000
,
0000
0000
0000
0000
,
1000
0000
0000
0000
,
0000
0000
0000
0000
,
0100
0000
0000
0000
,
0000
0000
0000
0000
,
1000
0000
0000
0000
,
0000
0000
0000
0000
,
0001
0000
0000
0000
,
0000
0000
0000
0000
,
0100
0000
0000
0000
,
0000
0000
0000
0000
,
0010
0000
0000
0000
,
0000
0000
0000
0000
,
0100
0000
0000
0000
,
0000
0000
0000
0000
,
0001
0000
0000
0000
,
0000
0000
0000
0000
,
1000
0000
0000
0000
,
0000
0000
0000
0000
,
0100
0000
0000
0000
,
0000
0000
0000
0000
,
0010
0000
0000
0000
,
0001
0000
0000
0000
,
1000
0000
0000
0000
,
0001
0000
0000
0000
;
