#VERSION:0.83;
#TITLE:Fuuen no 135 byou;
#SUBTITLE:;
#ARTIST:大国奏音;
#TITLETRANSLIT:;
#SUBTITLETRANSLIT:;
#ARTISTTRANSLIT:;
#GENRE:;
#ORIGIN:;
#CREDIT:;
#BANNER:Fuuen no 135 byou-bn.jpg;
#BACKGROUND:Fuuen no 135 byou-bg.jpg;
#PREVIEWVID:;
#JACKET:Fuuen no 135 byou-jacket.png;
#CDIMAGE:;
#DISCIMAGE:;
#LYRICSPATH:;
#CDTITLE:;
#MUSIC:Fuuen no 135 byou.ogg;
#OFFSET:-0.025000;
#SAMPLESTART:93.027000;
#SAMPLELENGTH:18.600000;
#SELECTABLE:YES;
#BPMS:0.000=200.000;
#STOPS:;
#DELAYS:;
#WARPS:;
#TIMESIGNATURES:0.000=4=4;
#TICKCOUNTS:0.000=4;
#COMBOS:0.000=1;
#SPEEDS:0.000=1.000=0.000=0;
#SCROLLS:0.000=1.000;
#FAKES:;
#LABELS:0.000=Song Start;
#BGCHANGES:;
#KEYSOUNDS:;
#ATTACKS:
;

//---------------dance-single - Keys----------------
#NOTEDATA:;
#CHARTNAME:1510 (P) + 2291 (S);
#STEPSTYPE:dance-single;
#DESCRIPTION:;
#CHARTSTYLE:;
#DIFFICULTY:Challenge;
#METER:9;
#RADARVALUES:0.652644,0.766725,0.222132,0.666395,0.211025,617.000000,587.000000,30.000000,90.000000,0.000000,0.000000,0.000000,0.000000,0.000000,0.652644,0.766725,0.222132,0.666395,0.211025,617.000000,587.000000,30.000000,90.000000,0.000000,0.000000,0.000000,0.000000,0.000000;
#CREDIT:Keys;
#NOTES:
// measure 0
0000
0000
0000
0000
,  // measure 1
0000
0000
0000
0000
,  // measure 2
0000
0000
0000
0000
,  // measure 3
0000
0000
0000
0000
0000
0000
1000
0010
,  // measure 4
0100
0000
0001
0000
0100
0010
1000
0000
,  // measure 5
0001
0000
0010
0000
0100
1000
0100
0000
,  // measure 6
0010
0000
0001
0000
0010
0100
1000
0000
,  // measure 7
0001
0000
0100
0010
1000
0001
1000
0000
,  // measure 8
2001
0100
0001
0010
,  // measure 9
3002
0000
0010
0000
,  // measure 10
1003
0100
0010
0001
,  // measure 11
2000
0000
3000
0000
,  // measure 12
0001
0100
0010
1000
,  // measure 13
0200
0000
0000
0300
0020
0000
0000
0000
,  // measure 14
0032
0000
0000
0000
,  // measure 15
0000
0000
0000
0000
,  // measure 16
2003
0000
0000
0000
,  // measure 17
3001
1000
0100
0010
0001
1000
0010
1000
,  // measure 18
0001
0000
0000
0000
1000
0100
1000
0100
,  // measure 19
0010
0001
0010
0001
1000
0001
1000
0001
,  // measure 20
1001
0000
0000
0000
1000
0000
0000
0000
0002
0003
0200
0300
0020
0030
0200
0300
,  // measure 21
2000
3000
0200
0300
0020
0030
0200
0300
0002
0003
0200
0300
0020
0030
2000
3000
,  // measure 22
1001
0000
1000
0000
0001
0010
0100
1000
,  // measure 23
0100
0010
0001
0100
0010
1000
1000
1000
,  // measure 24
1001
0000
1000
0000
0010
0000
0100
0001
,  // measure 25
0000
0100
0010
1000
0001
1000
0100
0010
,  // measure 26
0001
0000
1000
0000
0001
0010
0001
0010
,  // measure 27
0100
1000
0100
1000
0001
1000
0001
1000
,  // measure 28
1001
0000
0000
0000
0001
0000
0000
0000
2000
3000
0020
0030
0200
0300
0020
0030
,  // measure 29
0002
0003
0020
0030
0200
0300
0020
0030
2000
3000
0020
0030
0200
0300
0002
0003
,  // measure 30
1001
0000
0001
0000
1000
0100
0010
0001
,  // measure 31
0010
0100
1000
0010
0100
0001
0001
0001
,  // measure 32
1001
1000
0010
1000
,  // measure 33
0001
0100
0010
1000
0100
0010
0001
1000
,  // measure 34
0001
0000
0000
0001
0000
0000
0001
0000
0000
0100
0000
0000
0010
0000
1000
0000
,  // measure 35
0100
0000
0000
0100
0000
0000
0100
0000
1000
0000
0000
0000
0001
0000
0000
0000
,  // measure 36
1000
0000
0000
1000
0000
0000
1000
0000
0000
0010
0000
0000
0100
0000
0001
0000
,  // measure 37
0010
0000
0000
0010
0000
0000
0010
0000
0001
0000
0000
0000
0000
0000
0001
0000
,  // measure 38
1000
0100
0010
0001
0010
0100
0010
0001
,  // measure 39
1000
0010
0100
0010
1000
0010
0100
0001
,  // measure 40
0010
0010
0100
0100
1000
1000
0001
0001
,  // measure 41
1000
0100
0001
0100
2000
0000
0000
0000
,  // measure 42
3001
0000
0000
0001
0000
0000
0001
0000
0000
0100
0000
0000
0010
0000
1000
0000
,  // measure 43
0100
0000
0000
0100
0000
0000
0100
0000
0010
0000
0000
0001
0000
0000
0001
0000
,  // measure 44
0100
0000
0000
0100
0000
0000
0100
0000
0000
0010
0000
0000
1000
0000
0100
0000
,  // measure 45
0010
0000
0000
0010
0000
0000
0010
0000
0001
0000
0000
0001
0000
0000
0001
0000
,  // measure 46
1000
0100
1000
0010
0100
0010
0100
0001
,  // measure 47
1000
0100
0001
0100
1000
0001
0010
0100
,  // measure 48
1000
1000
1000
1000
0001
0001
0001
0001
,  // measure 49
2000
0000
0000
3200
0320
0000
0030
0000
,  // measure 50
0002
0000
0003
0001
0010
0000
0002
0000
1003
0000
0010
0000
0100
0000
0001
0000
,  // measure 51
2000
0000
3000
1000
0001
0000
2000
0000
3001
0000
0010
0000
0100
0000
1000
0000
,  // measure 52
0200
0000
0300
0100
1000
0000
0200
0000
0310
0000
0001
0000
0100
0000
0001
0000
,  // measure 53
2000
0000
3000
0001
1000
0000
2000
0000
3001
0000
0100
0000
0001
0000
0010
0000
,  // measure 54
0200
0000
0300
0100
0010
0000
0200
0000
0310
0000
0001
0000
0100
0000
0001
0000
,  // measure 55
0020
0000
0030
0010
0001
0000
0020
0000
0130
0000
1000
0000
0010
0000
1000
0000
,  // measure 56
0200
0000
0300
1000
0100
0000
0200
0000
1300
0000
0010
0000
0100
0000
0001
0000
,  // measure 57
2000
0000
0000
0000
0000
0000
3000
0000
0000
1000
0000
0000
0001
0000
0000
0000
0000
0000
2000
0000
0000
0000
0000
0000
3001
0000
0000
0000
1000
0000
0000
0000
0001
0000
0000
0000
1000
0000
0000
0000
0001
0000
0000
0000
1000
0000
0000
0000
,  // measure 58
0002
0203
0320
2030
,  // measure 59
3002
0000
0023
0000
,  // measure 60
0230
2300
3200
2300
,  // measure 61
3002
0203
0302
0203
,  // measure 62
0302
2003
3200
0320
,  // measure 63
0032
0000
2003
0000
,  // measure 64
3020
0100
1030
0000
,  // measure 65
2000
0010
3001
0000
,  // measure 66
0001
0000
0000
1000
0000
0000
0100
0000
0000
1000
0100
0010
,  // measure 67
0001
0000
0000
1000
0000
0000
0010
0000
0000
1000
0010
0100
,  // measure 68
0001
0000
0000
1000
0000
0000
0001
0000
0000
0100
0001
1000
,  // measure 69
0100
0000
0000
1000
0000
0000
0001
0100
0010
1000
0010
0100
,  // measure 70
0010
0000
0000
0010
0000
0000
0010
0000
0000
1000
0010
0100
,  // measure 71
0001
0000
0000
0001
0000
0000
0001
0000
0000
1000
0001
1000
,  // measure 72
0100
0000
0000
1000
0000
0000
0001
0000
0000
1000
0010
1000
,  // measure 73
0010
0000
0000
0100
0000
0000
0001
0000
0000
0100
0001
0100
,  // measure 74
0001
1000
0001
1000
0010
1000
0010
1000
,  // measure 75
0001
0010
0100
0010
0001
1000
0100
0010
,  // measure 76
0200
0000
0000
0000
,  // measure 77
0300
0000
0000
0000
0000
1000
0100
0010
,  // measure 78
0011
0000
1100
0000
0001
1000
1000
0000
,  // measure 79
0010
0010
0000
1000
0010
0100
0001
0000
,  // measure 80
1010
0000
0101
0000
0001
0001
0010
0100
,  // measure 81
1100
0011
0110
1001
,  // measure 82
1000
0000
0010
1000
0000
0010
0100
0001
,  // measure 83
1000
0000
0000
1000
0000
0000
1000
0000
0001
0000
0000
0000
0001
0000
0000
0000
,  // measure 84
0100
0000
0000
0001
0100
0000
0010
0000
1000
0000
0000
0001
1000
0000
0100
0000
,  // measure 85
0010
0010
0010
0010
0010
0001
0010
0100
,  // measure 86
1100
0000
0011
0000
1000
0001
0001
0000
,  // measure 87
0100
0100
0000
0001
0100
0010
1000
0000
,  // measure 88
0101
0000
1010
0000
1000
1000
0100
0010
,  // measure 89
0011
1100
0110
1001
,  // measure 90
0001
0000
0100
0001
0000
0100
0010
1000
,  // measure 91
0001
1000
0100
1000
,  // measure 92
2000
0000
3000
0001
1000
0000
2000
0000
3001
0000
0100
0000
0001
0000
0010
0000
,  // measure 93
0200
0000
0300
0100
0010
0000
0200
0000
0310
0000
0001
0000
0100
0000
0001
0000
,  // measure 94
0020
0000
0030
0010
0001
0000
0020
0000
0130
0000
1000
0000
0010
0000
1000
0000
,  // measure 95
0200
0000
0000
0000
0000
0000
0300
0000
0000
0100
0000
0000
0000
0000
0000
1000
0000
0000
0200
0000
0000
0000
0000
0000
1300
0000
0000
0000
0100
0000
0000
0000
1000
0000
0000
0000
0001
0000
0000
0000
0100
0000
0000
0000
0001
0000
0000
0000
,  // measure 96
0100
0010
1000
0100
1000
0010
0100
0001
,  // measure 97
0010
0001
0100
0010
1000
0100
0010
0001
,  // measure 98
1000
0001
1000
0001
1000
0001
1000
0001
,  // measure 99
1001
0000
0110
0000
,  // measure 100
1001
0001
0010
0100
,  // measure 101
1000
0000
0000
0000
0001
0100
0001
0000
,  // measure 102
0100
0010
1000
0001
,  // measure 103
0010
0001
1000
0010
0100
0001
1000
0100
,  // measure 104
0010
0000
0000
0000
,  // measure 105
0000
0000
2002
0000
3003
0000
0000
0001
,  // measure 106
0000
0000
0000
0100
0000
0000
0000
0000
0220
0000
0000
0000
0330
0000
0000
0000
,  // measure 107
0000
2200
0000
3300
0000
0000
0202
0000
,  // measure 108
0000
0000
0000
0000
,  // measure 109
0303
0000
0000
0000
;
