#TITLE:Forest Maze;
#SUBTITLE:;
#ARTIST:Unknown Artist;
#TITLETRANSLIT:;
#SUBTITLETRANSLIT:;
#ARTISTTRANSLIT:;
#GENRE:;
#CREDIT:JDDD;
#MUSIC:smrpg-forest.ogg;
#BANNER:forest3 banner.png;
#BACKGROUND:forest3 bg.png;
#CDTITLE:cdtitle.png;
#SAMPLESTART:0.060;
#SAMPLELENGTH:55.400;
#SELECTABLE:YES;
#OFFSET:-0.069;
#BPMS:0.000=188.677;
#STOPS:;
#BGCHANGES:;
#FGCHANGES:;

//--------------- dance-single - JDDD ----------------
#NOTES:
     dance-single:
     JDDD:
     Beginner:
     1:
     0.092,0.111,0,0,0:
0000
0000
0000
0000
,
0000
0000
0000
0000
,
0000
0000
0000
0000
,
0000
0000
0000
0000
,
1000
0000
0000
0000
,
0001
0000
0000
0000
,
0100
0000
0000
0000
,
0010
0000
0000
0000
,
1000
0000
0000
0000
,
0001
0000
0000
0000
,
0100
0000
0000
0000
,
0001
0000
0000
0000
,
0010
0000
0000
0000
,
0100
0000
0000
0000
,
1000
0000
0000
0000
,
0001
0000
0000
0000
,
1000
0000
0000
0000
,
0000
0000
0000
0000
,
0010
0000
0000
0000
,
0000
0000
0000
0000
,
0100
0000
0000
0000
,
0001
0000
0000
0000
,
0010
0000
0000
0000
,
0100
0000
0000
0000
,
1000
0000
0000
0000
,
0001
0000
0000
0000
,
1000
0000
0000
0000
,
0010
0000
0000
0000
,
0100
0000
0000
0000
,
0001
0000
0000
0000
,
1000
0000
0000
0000
,
0010
0000
0000
0000
,
1000
0000
0000
0000
,
0000
0000
0000
0000
,
0001
0000
0000
0000
,
0001
0000
0000
0000
,
0100
0000
0000
0000
,
0100
0000
0000
0000
,
0010
0000
0000
0000
,
0010
0000
0000
0000
,
1000
0000
0000
0000
,
0000
0000
0000
0000
,
0000
0000
0000
0000
,
0000
0000
0000
0000
,
1000
0000
0000
0000
,
0100
0000
0000
0000
,
0010
0000
0000
0000
,
0100
0000
0000
0000
,
1000
0000
0000
0000
,
0001
0000
0000
0000
,
0100
0000
0000
0000
,
0010
0000
0000
0000
,
1000
0000
0000
0000
,
0001
0000
0000
0000
,
0100
0000
0000
0000
,
0001
0000
0000
0000
,
0010
0000
0000
0000
,
0100
0000
0000
0000
,
1000
0000
0000
0000
,
0001
0000
0000
0000
,
1000
0000
0000
0000
,
0000
0000
0000
0000
,
0010
0000
0000
0000
,
0000
0000
0000
0000
,
0100
0000
0000
0000
,
0001
0000
0000
0000
,
0010
0000
0000
0000
,
0100
0000
0000
0000
,
1000
0000
0000
0000
,
0001
0000
0000
0000
,
1000
0000
0000
0000
,
0010
0000
0000
0000
,
0100
0000
0000
0000
,
0001
0000
0000
0000
,
1000
0000
0000
0000
,
0010
0000
0000
0000
,
1000
0000
0000
0000
,
0000
0000
0000
0000
,
0001
0000
0000
0000
,
0001
0000
0000
0000
,
0100
0000
0000
0000
,
0100
0000
0000
0000
,
0010
0000
0000
0000
,
0010
0000
0000
0000
,
1000
0000
0000
0000
,
0001
0000
0000
0000
,
1000
0000
0000
0000
,
0100
0000
0000
0000
,
0010
0000
0000
0000
,
0001
0000
0000
0000
,
1000
0000
0000
0000
,
0001
0000
0000
0000
,
1000
0000
0000
0000
;

//--------------- dance-single - JDDD ----------------
#NOTES:
     dance-single:
     JDDD:
     Easy:
     3:
     0.236,0.262,0.048,0.177,0:
0000
0000
0000
0000
,
0100
0100
0100
0000
,
0001
0000
1000
0000
,
0010
0010
0010
0000
,
1000
0000
0100
0000
,
0010
0010
0010
0000
,
0100
0000
1000
0000
,
0001
0001
0001
0000
,
0100
0000
0001
0000
,
0010
0010
0010
0000
,
0100
0000
1000
0000
,
0010
0010
0010
0000
,
0100
0000
0010
0000
,
1000
1000
1000
0000
,
0001
0000
0100
0000
,
0001
0001
0001
0000
,
2000
0000
3000
0000
,
0002
0000
0003
0000
,
0020
0000
0030
0000
,
0200
0000
0300
0000
,
0002
0000
0003
0000
,
0020
0000
0030
0000
,
2000
0000
3000
0000
,
0200
0000
0300
0000
,
1000
0000
0001
0000
,
0100
0100
0100
0000
,
0001
0000
0010
0000
,
0100
0100
0100
0000
,
1000
0000
0010
0000
,
0100
0100
0100
0000
,
0001
0000
1000
0000
,
0010
0010
0010
0000
,
1001
0000
0000
0000
,
1001
0000
0000
0000
,
1001
0000
0000
0000
,
1001
0000
0000
0000
,
0020
0000
0000
0000
,
1030
0000
0000
0000
,
0002
0000
0000
0000
,
0103
0000
0000
0000
,
1001
0000
0000
0000
,
1000
0000
0000
0000
,
0001
0000
0000
0000
,
1000
0000
0000
0000
,
1000
0000
0010
0000
,
0100
0100
0100
0000
,
0001
0000
0010
0000
,
0100
0100
0100
0000
,
0010
0000
0001
0000
,
1000
1000
1000
0000
,
0001
0000
1000
0000
,
0100
0100
0100
0000
,
0010
0000
0001
0000
,
0100
0100
0100
0000
,
0010
0000
1000
0000
,
0001
0001
0001
0000
,
0100
0000
0001
0000
,
0010
0010
0010
0000
,
0100
0000
1000
0000
,
0001
0001
0001
0000
,
0200
0000
0300
0000
,
0020
0000
0030
0000
,
2000
0000
3000
0000
,
0002
0000
0003
0000
,
0020
0000
0030
0000
,
0200
0000
0300
0000
,
2000
0000
3000
0000
,
0020
0000
0030
0000
,
1000
0000
0100
0000
,
0010
0010
0010
0000
,
0100
0000
1000
0000
,
0001
0001
0001
0000
,
0010
0000
0001
0000
,
0100
0100
0100
0000
,
0010
0000
0100
0000
,
0001
0001
0001
0000
,
1000
0000
0010
0000
,
0100
0000
0010
0000
,
1000
0000
0100
0000
,
0010
0000
0001
0000
,
1001
0000
0100
0000
,
0001
0000
0010
0000
,
0200
0000
0000
0300
,
0200
0000
0000
0300
,
1000
0000
0020
0000
,
0000
0000
0000
0030
,
0100
0000
0001
0000
,
1000
0000
0010
0010
,
0010
0000
0100
0000
,
0001
0001
0001
0000
,
1000
0000
0100
0000
,
1000
1000
1000
0000
,
0002
0000
0000
0000
,
0000
0003
0000
0000
;

//--------------- dance-single - JDDD ----------------
#NOTES:
     dance-single:
     JDDD:
     Medium:
     5:
     0.384,0.412,0,0.201,0:
1000
1000
0001
0001
,
0100
0010
0100
0000
,
0001
0001
1000
0010
,
0100
0100
0010
0000
,
1000
0100
1000
0100
1000
0000
0010
0000
,
0100
0001
0010
0000
,
0001
0000
0100
0001
0100
0000
0001
0100
,
0001
0100
0010
0000
,
1000
0010
0100
0001
,
0010
0010
0010
0000
,
0100
1000
0001
1000
,
0010
0010
0010
0000
,
0100
0001
0100
0001
0100
0000
0010
0000
,
0010
1000
1000
0000
,
0100
0000
1000
0100
1000
0000
0100
1000
,
0100
0010
0010
0000
,
0002
0000
0003
0000
,
0200
0000
0320
0000
,
2030
0000
3000
0000
,
0002
0000
2003
0000
,
3200
0000
0300
0000
,
0000
0000
0000
0000
,
2000
0000
0000
0000
,
3000
0000
0000
0000
1000
0001
1000
0001
,
1000
0010
0100
0001
,
1000
1000
1000
0000
,
0010
0100
0001
0010
,
0001
0001
0001
0000
,
1000
0100
1000
0100
1000
0000
0010
0000
,
0100
0001
0020
0030
,
0100
1000
0001
1000
,
0010
0100
0002
0003
,
1000
0100
0010
0100
,
1000
0000
0001
0010
0001
0000
0100
0000
,
0010
0100
0100
0001
,
1000
0010
1000
0100
,
0020
0000
0000
0000
,
0000
0030
0001
0100
,
0010
0000
1000
0000
,
0010
0100
0001
0010
,
0001
0000
2000
0000
,
0000
3000
0000
0001
,
1000
0001
1000
0001
,
1000
0000
0001
0000
1000
0001
1000
0001
,
0001
0001
1000
1000
,
0010
0100
0010
0000
,
1000
1000
0001
0100
,
0010
0010
0010
0000
,
0001
0010
0001
0010
0001
0000
0100
0000
,
0010
1000
0100
0000
,
1000
0000
0010
1000
0010
0000
1000
0010
,
1000
0010
0100
0000
,
0001
0100
0010
1000
,
0100
0100
0100
0000
,
0010
0001
1000
0001
,
0100
0100
0100
0000
,
0010
1000
0010
1000
0010
0000
0100
0000
,
0100
0001
0001
0000
,
0010
0000
0001
0010
0001
0000
0010
0001
,
0010
0100
0100
0000
,
2000
0000
3000
0000
,
0020
0000
0230
0000
,
0302
0000
0003
0000
,
2000
0000
3002
0000
,
0023
0000
0030
0000
,
0000
0000
0000
0000
,
0002
0000
0000
0000
,
0003
0000
0000
0000
0001
1000
0001
1000
,
0001
0100
0010
1000
,
0001
0001
0001
0000
,
0100
0010
1000
0100
,
1000
1000
1000
0000
,
0001
0010
0001
0010
0001
0000
0100
0000
,
0010
1000
0200
0300
,
0010
0001
1000
0001
,
0100
0010
2000
3000
,
0001
0010
0100
0010
,
0001
0000
1000
0100
1000
0000
0010
0000
,
0100
0010
0010
1000
,
0001
0100
0001
0010
,
0200
0000
0010
0000
,
0000
0300
1000
0010
,
0100
0000
0001
0000
,
0100
0010
1000
0100
,
1000
0000
0002
0000
,
0000
0003
0000
1000
,
0001
1000
0001
1000
,
0001
0000
1000
0000
0001
1000
0001
1000
,
0001
0100
0010
1000
,
0001
0001
0001
0000
,
1000
0100
0100
0010
,
0001
1000
0001
0000
,
1000
0100
1000
0100
2000
0000
0000
0000
,
0000
3000
0000
0000
;

//--------------- dance-single - JDDD ----------------
#NOTES:
     dance-single:
     JDDD:
     Hard:
     8:
     0.557,0.526,0.41,0.185,0:
1000
0100
0010
0001
1000
0000
1000
0000
,
1001
0110
1001
0000
,
0001
0000
0100
0010
1000
0000
0010
0100
,
0001
1010
0101
0000
,
1000
0100
0010
0100
1000
0000
0001
0100
,
0010
0000
0010
0100
0001
0000
0000
0000
,
0010
0000
0100
1000
0010
0000
0100
0001
,
0010
0000
0100
1000
0002
0000
0000
0003
,
1000
0100
0010
0001
0100
0000
0100
0000
,
1010
0101
1010
0000
,
0010
0000
1000
0100
0010
0000
0010
0100
,
1000
0011
1100
0000
,
0010
0001
0100
0010
0100
0000
0001
0010
,
0100
0000
1000
0010
0100
0000
0000
0000
,
0010
0000
0100
0001
0010
0000
0100
1000
,
0010
0000
0100
0001
2000
0000
0000
3000
,
0002
0000
0000
0000
,
0023
0000
0230
0000
,
2300
0000
0000
0000
,
3002
0000
0203
0000
,
0320
0000
0000
0000
,
2030
0000
0000
0000
3001
0100
0000
0000
,
0100
0000
0010
1000
0000
0000
0010
0100
,
0000
0000
0001
0000
0010
0100
1000
0100
,
0010
0001
0100
0010
1000
0000
1000
0000
,
0101
0011
1100
0000
,
1000
0000
0010
0100
1000
0000
1000
0100
,
0001
0011
1100
0000
,
1000
0100
1000
0010
0100
0000
0001
0010
,
0100
0000
1000
0010
0100
0000
0000
0000
,
0010
0000
1000
0100
0010
0000
0100
1000
,
0010
0000
0100
0001
0020
0000
0000
0030
,
0100
1000
0100
1000
0100
0000
0100
0000
,
0010
0000
0001
0100
0010
0000
0010
0000
,
0100
0000
0001
1000
0100
0000
0100
0000
,
0011
0101
0011
0101
,
0100
0010
0100
0010
0100
0000
0100
0000
,
0001
0000
0010
0100
1000
0000
1000
0000
,
0100
0000
0010
0001
0010
0000
0001
0000
,
0101
0011
0101
0010
,
1001
0000
0000
0010
0000
0000
0100
0000
,
0100
0000
0001
0100
0000
0000
0001
0100
,
0000
0000
0001
0100
0000
0000
0010
1000
,
0000
0000
0010
0000
0001
0010
0100
1000
,
1000
0100
0010
0001
1000
0000
1000
0000
,
1001
0110
1001
0000
,
0001
0000
0100
0010
1000
0000
0010
0100
,
0001
1010
0101
0000
,
1000
0100
0010
0100
1000
0000
0001
0100
,
0010
0000
0010
0100
0001
0000
0000
0000
,
0010
0000
0100
1000
0010
0000
0100
0001
,
0010
0000
0100
1000
0002
0000
0000
0000
,
1003
0100
0010
0001
0100
0000
0100
0000
,
1010
0101
1010
0000
,
0010
0000
1000
0100
0010
0000
0010
0100
,
1000
0011
1100
0000
,
0010
0001
0100
0010
0100
0000
0001
0010
,
0100
0000
1000
0010
0100
0000
0000
0000
,
0010
0000
0100
0001
0010
0000
0100
1000
,
0010
0000
0100
0001
2000
0000
0000
3000
,
0002
0000
0000
0000
,
0020
0003
0000
0000
0200
0030
0000
0000
,
2000
0300
0000
0000
0000
0000
0000
0000
,
0002
3000
0000
0000
0200
0003
0000
0000
,
0020
0300
0000
0000
0000
0000
0000
0000
,
2000
0030
0000
0000
3001
0100
0000
0000
,
0100
0000
0010
1000
0000
0000
0010
0100
,
0000
0000
0001
0000
0010
0100
1000
0100
,
0010
0001
0100
0010
1000
0000
1000
0000
,
0101
0011
11MM
0000
,
1000
0000
0010
0100
1000
0000
1000
0100
,
0001
0011
1100
0000
,
1000
0100
1000
0010
0100
0000
0001
0010
,
0100
0000
1000
0010
0100
0000
0000
0000
,
0010
0000
1000
0100
0010
0000
0100
1000
,
0010
0000
0100
0001
0020
0000
0000
0030
,
0100
1000
0100
1000
0100
0000
0100
0000
,
0010
0000
0001
0100
0010
0000
0010
0000
,
0100
0000
0001
1000
0100
0000
0100
0000
,
0011
0101
0011
0101
,
0100
0010
0100
0010
0100
0000
0100
0000
,
0001
0000
0010
0100
1000
0000
1000
0000
,
0100
0000
0010
0001
0010
0000
0001
0000
,
0101
0011
0101
0010
,
1001
0000
0010
0100
,
0100
0000
0001
0100
0000
0000
0001
0100
,
0000
0000
0001
0100
0000
0000
0010
1000
,
0000
0000
0010
0000
0001
0010
0100
1000
,
0001
0100
0001
0100
0001
0000
0001
0000
,
1100
0110
0011
0000
,
1000
0000
0010
0100
0001
0000
0010
0100
,
1000
0011
1100
0000
,
0100
1000
0010
0100
0002
0000
0000
0000
,
0000
0000
0003
0000
;

//--------------- dance-single - JDDD ----------------
#NOTES:
     dance-single:
     JDDD:
     Challenge:
     9:
     0.581,0.601,0.378,0.289,0.028:
0001
0010
0100
1000
0001
0000
0001
0000
,
0110
0000
0000
0000
1100
0000
0000
0000
1000
0001
1000
0000
0000
0000
0000
0000
,
0001
0000
1000
0100
0001
0000
0001
0010
,
1000
0000
0000
0000
0101
0000
0000
0000
0010
1000
0010
0000
0000
0000
0000
0000
,
1000
0100
0001
0100
1000
0000
0001
0100
,
1000
0000
1000
0100
0001
0000
0000
0000
,
0010
0000
0100
1000
0010
0000
0100
0001
,
0010
0000
0100
1000
0200
0000
0000
0000
,
1300
0010
0001
0010
1000
0000
0010
0000
,
0101
1010
0101
0000
,
0010
0000
0001
0100
1000
0000
1000
0100
,
0001
0011
1100
0000
,
0001
0100
1000
0100
0001
0000
0001
0010
,
1000
0000
1000
0010
0001
0000
0000
0000
,
0010
0000
0100
0001
0010
0000
0100
1000
,
0010
0000
0100
0001
2200
0000
0300
0000
,
0002
3000
0000
0000
,
0200
0003
2000
0300
,
0200
0000
3000
0000
,
0320
0000
2000
0030
,
0200
3000
0000
0000
,
0001
0000
0300
0000
0001
0100
0000
0000
,
1000
0000
0010
1000
0000
0000
0010
0001
,
0000
0000
0001
0000
1000
0100
0010
0001
,
1000
0100
1000
0100
0011
0000
0011
0000
,
0101
0000
0000
0000
0110
0000
0000
0000
1000
0010
1000
0000
0000
0000
0000
0000
,
2000
0000
3010
0100
1000
0000
0001
0010
,
1000
0000
0000
0000
0101
0000
0000
0000
0010
1000
0010
0000
0000
0000
0000
0000
,
1000
0100
0001
0100
1000
0000
0001
0010
,
1000
0000
1000
0010
0001
0000
0000
0000
,
0010
0000
0001
0100
0010
0000
0010
0001
,
0010
0000
0001
0010
2000
0000
0000
0000
,
3100
0010
0001
0010
0100
0000
0100
0000
,
1000
0000
0010
0100
0001
0000
0001
0000
,
0100
0000
0010
1000
0100
0000
0100
0000
,
2001
3100
0012
0103
,
1000
0010
0100
0010
1000
0000
1000
0000
,
0001
0000
0010
0100
1000
0000
1000
0000
,
0010
0000
0001
0010
1000
0000
1000
0000
,
0201
1300
0102
0013
,
1001
0000
0000
0020
0000
0000
0100
0000
,
0130
0000
0001
0100
0000
0000
0100
1000
,
0000
0000
1000
0010
0000
0000
0010
0001
,
0000
0000
1001
0000
1000
0100
0010
0001
,
0001
0010
0100
1000
0001
0000
0001
0000
,
0110
0000
0000
0000
1100
0000
0000
0000
0001
1000
0001
0000
0000
0000
0000
0000
,
0002
0000
1003
0100
0001
0000
0001
0010
,
1000
0101
1010
0000
,
1000
0100
M001
0100
1000
0000
0001
0100
,
1000
000M
1000
0100
0001
0000
0000
0000
,
0010
0000
0001
0010
1000
0000
1000
0001
,
0010
0000
0100
1000
0200
0000
0000
0000
,
1300
0010
M001
0010
1000
0000
0010
0000
,
0101
0000
0000
0000
1010
0000
0000
0000
0100
0001
0100
0000
0000
0000
0000
0000
,
0010
0000
0001
0100
1000
000M
1000
0100
,
0001
0011
1100
0000
,
0001
0100
100M
0100
0001
M000
0001
0010
,
1000
000M
1000
0010
0001
0000
0000
0000
,
0010
0000
1000
0010
0001
0000
0100
1000
,
0010
0000
0100
0001
2200
0000
0300
0000
,
0002
0000
0000
3000
0200
0000
0000
0000
,
0000
0000
0000
0003
2000
0000
0300
0000
,
0002
0000
0000
0000
0000
3000
0000
0000
,
0020
0000
0003
0000
2000
0000
0000
0030
,
0200
3000
0000
0000
,
0001
0000
0300
0000
0001
0100
0000
0000
,
1000
0000
0010
1000
0000
0000
0010
0001
,
0000
0000
0001
0000
0100
0010
0001
0010
,
1000
0100
1000
0100
0011
0000
0011
0000
,
0101
0000
0000
0000
0110
0000
0000
0000
1000
0010
1000
0000
0000
0000
0000
0000
,
2000
0000
3010
0100
1000
0000
0001
0010
,
1000
0101
1010
0000
,
1000
0100
0001
0100
1000
0000
0001
0010
,
1000
000M
1000
0010
0001
0000
0000
0000
,
0010
0000
0001
0100
0010
0000
0010
0001
,
0010
0000
0001
0010
2000
0000
0000
0000
,
3100
0010
0001
0010
0100
0000
0100
0000
,
1000
0000
0010
0100
0001
0000
0001
0000
,
0100
0000
0010
1000
0001
0000
0100
0000
,
2010
0000
0100
3000
0012
0000
0100
0003
,
1000
0010
0100
0010
1000
0000
1000
0000
,
0001
0000
0010
0100
1000
0000
1000
0000
,
0010
0000
0010
0001
0100
0000
1000
0000
,
0201
0000
1000
0300
0102
0000
0010
0003
,
1001
0000
0020
0100
,
0130
0000
0001
0100
0000
000M
0100
1000
,
0000
0M00
1000
0010
0000
M000
0010
0001
,
0000
00M0
1001
0000
0001
0000
1000
0000
,
0001
1000
0100
0010
0001
0000
0010
0000
,
1100
0011
1100
0000
,
1010
0000
0010
0100
0001
0000
0010
0100
,
0001
0011
1100
0000
,
0100
1000
0010
0100
0002
0000
0000
0000
,
0000
0000
0003
0000
;
