#TITLE:Firework;
#SUBTITLE:;
#ARTIST:Katy Perry;
#TITLETRANSLIT:;
#SUBTITLETRANSLIT:;
#ARTISTTRANSLIT:;
#GENRE:;
#CREDIT:;
#MENUCOLOR:;
#METERTYPE:DDR;
#BANNER:Firework.png;
#BACKGROUND:Firework-bg.png;
#LYRICSPATH:;
#CDTITLE:Teenage Dream.png;
#MUSIC:Firework.mp3;
#OFFSET:-0.560;
#SAMPLESTART:38.267;
#SAMPLELENGTH:15.500;
#SELECTABLE:YES;
#LISTSORT:;
#BPMS:0.000=124.000;
#STOPS:;
#BGCHANGES: -0.500=Firework.avi=1.000=1=0=1,
175.500=Firework-bg.png=1.000=1=0=1,
99999=-nosongbg-=1.000=0=0=0; // don't automatically add -songbackground-
;
#ATTACKS:;

//---------------dance-single - ----------------
#NOTES:
     dance-single:
     :
     Hard:
     7:
     0.416,0.423,0.215,0.215,0.006:
0000
0000
0000
0000
,
0000
0000
0000
0000
,
0000
0000
0000
0000
,
0000
0000
0000
0000
,
0010
0000
1000
0010
0000
0010
0100
0000
,
1000
0000
0100
0010
0100
0001
1000
0000
,
0001
0010
0100
1000
0000
0001
0100
0000
,
1000
0010
0100
0001
0000
1000
0001
0000
,
0010
0000
0001
0100
0000
0100
0010
0000
,
0001
0000
0010
0100
0010
1000
0001
0000
,
0010
0100
1000
0010
0000
1000
0001
0000
,
0100
0000
0001
0000
0010
0000
0100
0000
0000
1000
0001
0000
1000
0000
0000
0000
,
2100
0000
0001
0000
0100
0000
3010
1000
,
0002
1000
0100
0013
,
0102
0000
1000
0000
0010
0000
0103
0001
,
2000
0000
0001
0000
0010
0000
3100
0010
,
2002
0000
0000
0000
3003
0000
0010
0001
,
0220
0000
0000
0000
0330
0100
1000
0020
,
0000
0000
0000
0200
0030
0000
0301
1000
,
0000
0000
0000
0010
0001
0100
0010
1000
,
0001
0000
0101
0000
1100
0000
0100
0001
,
1000
0000
0010
0000
1000
0001
0100
0001
,
1000
0000
1100
0000
0101
0000
0100
1000
,
0001
0000
0010
0000
0001
1000
0100
0000
,
0012
0000
1003
0010
0200
0000
0310
0000
,
0001
0000
0100
0001
1000
0100
0010
0001
,
2000
0000
3001
0010
0200
0000
0310
0001
,
1000
0010
0001
0100
0001
0010
1000
0100
,
1000
0000
1100
0000
1001
0000
0001
0100
,
1000
0000
0100
0000
0001
1000
0100
1000
,
0001
0000
0011
0000
1001
0000
1000
0010
,
0000
0001
0010
0000
1000
0001
0100
0000
,
2010
0000
3100
0020
0000
0031
0100
0000
,
0001
0000
0010
0001
1000
0010
0100
0001
,
2000
0000
3010
0200
0000
0301
1000
0100
,
0020
1000
0100
0031
,
1100
0000
0001
1000
0100
0000
1001
0000
,
0100
0000
1000
0010
1000
0001
1000
0100
,
0010
0000
0001
1000
0010
0000
0110
0000
,
0100
0001
1000
0000
0100
0000
0010
0000
,
0101
0000
1000
0001
0100
0000
1001
0000
,
0100
0000
0001
0010
0001
1000
0001
0100
,
0010
0000
0100
0001
1000
0000
0100
1000
,
0001
0010
1000
0100
1000
0010
0001
0100
;

//---------------dance-single - ----------------
#NOTES:
     dance-single:
     :
     Medium:
     5:
     0.327,0.323,0.204,0.159,0.000:
0000
0000
0000
0000
,
0000
0000
0000
0000
,
0000
0000
0000
0000
,
0000
0000
0000
0000
,
1000
0000
0010
1000
0000
0000
0001
0000
,
1000
0000
0100
1000
0000
0000
0001
0000
,
0100
0000
0010
0000
1000
0001
0100
0000
,
0001
0000
1000
0000
0100
0010
0100
0000
,
1000
0000
0001
1000
0000
0000
0100
0000
,
0001
0000
1000
0001
0000
0000
0100
0000
,
0010
0000
0100
0000
0001
1000
0100
0000
,
1000
0000
0001
0000
0100
0010
0100
0000
,
0002
0010
1000
0100
,
2003
0100
0001
3010
,
2000
0010
0001
0100
,
3002
0100
1000
0013
,
0220
0000
0000
0330
,
2002
0000
0000
3003
,
0200
0010
0010
0310
,
1000
0000
0001
0000
1000
0001
0100
0000
,
1001
0000
1000
0000
0100
0000
1000
0010
,
1000
0000
0001
0000
1000
0100
0010
0000
,
1001
0000
0001
0000
0100
0000
0001
0010
,
0001
0000
0000
0000
0010
0001
1000
0000
,
0020
0130
2000
3001
,
0100
0000
0100
0000
1000
0010
0100
0000
,
0020
0130
0002
1003
,
0110
0000
0110
0000
,
1100
0000
1000
0000
0010
0000
1000
0001
,
1000
0000
0100
0000
0010
0001
1000
0000
,
0101
0000
0001
0000
0010
0000
0001
1000
,
0001
0000
0000
0000
1000
0010
0100
0000
,
1010
0000
0000
0110
0000
0000
0101
0000
,
0000
0000
1000
0000
0001
0010
0100
0000
,
0011
0000
0000
0110
0000
0000
2100
0000
,
0001
0010
0001
3100
,
0010
0000
0010
0001
0100
0000
0100
0000
,
0110
0000
1000
0010
1000
0000
0001
0100
,
0001
1000
0001
0010
,
0100
0100
0010
0010
,
0100
0000
0100
1000
0010
0000
0010
0000
,
0110
0000
0001
0010
0001
0000
1000
0100
,
1000
0000
0001
0100
0000
0010
1000
0000
,
0110
0000
0001
0000
0110
0000
1000
0001
;

//---------------dance-single - ----------------
#NOTES:
     dance-single:
     :
     Easy:
     3:
     0.223,0.248,0.159,0.159,0.000: // measure 1
0000
0000
0000
0000
,  // measure 2
0000
0000
0000
0000
,  // measure 3
0000
0000
0000
0000
,  // measure 4
0000
0000
0000
0000
,  // measure 5
0001
0001
0000
1000
,  // measure 6
0100
0100
0000
1000
,  // measure 7
0010
0100
0000
0110
,  // measure 8
0001
1000
0000
1001
,  // measure 9
1000
1000
0000
0001
,  // measure 10
0010
0010
0000
0001
,  // measure 11
0100
0010
0000
0110
,  // measure 12
1000
0001
1000
0001
,  // measure 13
2001
0000
0000
0000
,  // measure 14
0002
0000
0000
3003
,  // measure 15
1002
0000
0000
0000
,  // measure 16
2000
0000
0000
3003
,  // measure 17
0020
0000
0000
0000
,  // measure 18
0200
0000
0000
0330
,  // measure 19
2000
3000
0002
0003
,  // measure 20
0200
0300
0010
1001
,  // measure 21
0100
0001
0100
0001
,  // measure 22
0010
0000
0100
1000
,  // measure 23
0010
1000
0001
1000
,  // measure 24
0100
0000
0010
0100
,  // measure 25
0110
0000
2000
3001
,  // measure 26
0000
0010
0100
0010
,  // measure 27
0110
0000
0002
1003
,  // measure 28
0100
0000
0100
0000
,  // measure 29
1000
0010
1000
0010
,  // measure 30
0100
0000
0010
1000
,  // measure 31
0001
0010
0001
1000
,  // measure 32
0100
0000
0010
0100
,  // measure 33
0110
0000
0020
0031
,  // measure 34
0000
0100
0010
0100
,  // measure 35
0110
0000
0020
1030
,  // measure 36
0002
0000
0000
0003
,  // measure 37
1001
0000
0100
0100
,  // measure 38
0001
0010
0001
0000
,  // measure 39
1001
0000
0010
0010
,  // measure 40
1000
0010
0100
0000
,  // measure 41
1001
0000
0010
0010
,  // measure 42
1000
0100
1000
0000
,  // measure 43
1001
0000
0100
0100
,  // measure 44
0001
0010
0100
1000
;
