#TITLE:Feel good inc.;
#SUBTITLE:;
#ARTIST:Gorillaz;
#TITLETRANSLIT:;
#SUBTITLETRANSLIT:;
#ARTISTTRANSLIT:;
#GENRE:;
#CREDIT:;
#BANNER:Banner.png;
#BACKGROUND:Background.png;
#LYRICSPATH:;
#CDTITLE:;
#MUSIC:Music.ogg;
#OFFSET:-2.820;
#SAMPLESTART:68.430;
#SAMPLELENGTH:15.000;
#SELECTABLE:YES;
#BPMS:0.000=139.000;
#STOPS:;
#BGCHANGES:-1.500=Movie.mp4=1.000=0=0=1=====,
247.000=songbackground=1.000=1=0=1===CrossFade==,
99999=-nosongbg-=1.000=0=0=0 // don't automatically add -songbackground-
;
#KEYSOUNDS:;

//---------------dance-single - J. DeGarmo----------------
#NOTES:
     dance-single:
     J. DeGarmo:
     Challenge:
     9:
     0.525,0.620,0.319,0.310,0.190:
0000
0000
0000
0000
,
0000
0000
0000
0000
,
1000
0000
0010
0000
0100
0000
0001
0000
0020
0000
0000
0030
0110
0000
0001
0000
,
2000
0200
0000
0010
3300
0000
0000
0000
,
0001
0010
1000
0010
0002
0000
1003
0010
,
1000
0000
0100
0000
0000
0000
0040
0004
0000
0000
0000
0000
0000
0000
0033
0000
,
1000
1000
1000
0100
0110
0000
0001
0100
,
0010
0100
1000
0100
0000
0000
0001
0010
,
MMMM
0010
0100
1000
0100
0001
0100
1000
,
0020
0000
0200
0000
0000
0000
1001
0000
0000
0330
0000
0000
0000
0000
1000
0000
,
0100
0001
0100
0010
0001
0100
1000
0100
,
0010
1000
0001
0220
0000
0330
0000
0000
,
0001
0001
0100
0100
0020
0000
1030
0010
,
1000
0000
0001
0000
0000
0000
4000
0400
0000
0000
0000
0000
0000
0000
3300
0000
,
0001
0000
0001
0000
0001
0000
0010
0000
2200
0000
0000
3300
0001
0000
0010
0000
,
0200
2000
0000
0011
3300
0000
0001
0001
,
0000
1000
0010
0001
0010
0100
1000
0100
,
0002
2000
0000
0010
0000
0010
3003
0000
,
1000
0001
0100
0010
0000
0001
0010
1000
,
0100
1111
0000
0000
,
1000
MM1M
0000
MM1M
0000
MM1M
0000
MM1M
,
0100
MMM1
0000
MMM1
0000
MMM1
0000
MMM1
,
0010
M1MM
0000
M1MM
0000
M1MM
0000
M1MM
,
0100
1MMM
0000
1MMM
0000
1MMM
0000
1MMM
,
0001
0100
0000
1000
0000
0100
0000
0010
,
1000
0100
0000
0001
0000
0100
0000
0010
,
0001
0100
0000
1000
0000
0001
0000
0010
,
0100
0001
0000
1000
0000
0100
0010
0001
,
1000
0000
0010
0000
0000
1010
1100
0000
,
0100
0000
1000
0000
0000
0011
0101
0000
,
0001
0000
0100
0000
0000
1010
0101
0000
,
11M1
111M
1M11
M111
,
0200
0000
0010
0000
0000
1000
0010
0000
,
0001
0000
0010
0000
0000
0001
1300
0000
,
0020
0000
1000
0000
0000
0100
0001
0000
,
0100
0000
1000
0000
0000
0001
0130
0000
,
0001
0100
0000
0001
0000
0010
0000
0100
,
1000
0010
0000
0100
0001
0100
0110
0000
,
1000
0100
0001
0100
1000
0010
0001
0010
,
1000
0100
0010
0000
0100
0000
1000
0000
0202
0000
0000
0000
0010
0000
0303
0000
,
1000
0010
0001
0010
1000
0100
1000
0000
,
0001
0000
0100
0000
0010
0000
1000
0000
0001
0100
0000
0020
0000
0000
0000
0000
,
1030
0000
0001
0000
0100
0010
1000
0100
0001
0100
1000
0000
0001
0000
0000
0000
,
1100
0000
0011
0000
1000
0001
0100
0000
0010
1000
0100
0000
0011
0000
0000
0000
,
0001
0100
0010
0001
0010
1000
0100
0011
,
0100
0000
1010
0000
0100
0000
4000
0004
0000
0000
0000
0000
0000
0000
0000
0000
,
3003
0000
0100
0M10
0110
0MM0
0010
01M0
,
0110
0000
0000
0000
0001
0000
0100
0000
0010
0000
0100
1000
0000
0000
0100
0000
,
0001
0000
1000
0100
0000
0000
0001
0000
0100
0000
0010
0001
0000
0000
0100
0000
,
0010
0000
0000
1000
0000
0000
0040
0400
0000
0000
0000
0000
0000
0000
0000
0000
,
0330
0000
1001
0000
0001
0100
0010
1000
,
MMMM
0001
0100
0100
0010
0010
1000
1000
,
0001
0010
0100
0001
0100
1000
0010
0110
,
0101
0110
1010
2002
0000
0000
0010
0020
,
0000
3000
0100
0000
0200
0000
0000
0003
0001
0000
0002
0000
0000
0000
1000
0000
,
2330
0000
0000
0000
0000
0000
0000
0000
0000
0010
0000
0000
0000
0000
0000
0000
0000
0000
0010
0000
0000
0000
0000
0000
0000
0000
0010
0000
0000
0000
0000
0000
0000
0000
0010
0000
3003
0000
0000
0000
0000
0000
0000
0000
0000
0000
0000
0000
,
2200
0000
0000
0000
0000
0000
0000
0000
0000
0000
0000
0000
0000
0000
0000
0001
0000
0000
0000
0000
0000
0000
0000
0000
0001
0000
0000
0000
0000
0000
0000
0000
0001
0000
0000
0000
0000
0000
0000
0001
0000
0000
0000
0000
0000
0001
0000
0000
,
0000
0000
0001
3300
0000
0000
0000
0000
0000
0202
0000
0000
0000
0000
0000
0000
0000
0000
0000
0000
0000
0000
0000
0000
,
0000
0000
0000
0000
0010
0000
0000
0000
0000
0000
0000
0000
0010
0000
0000
0000
0000
0000
0000
0010
0000
0000
0000
0000
0010
0000
0000
0000
0000
0000
0000
0000
0000
0010
0000
0000
0000
0000
0010
0000
0000
0000
0000
0000
0010
0000
0000
0000
,
0000
0303
0000
0000
0000
0022
0000
0000
0000
0000
0000
0000
0000
0000
0000
0000
,
0000
0000
0000
0000
0000
0000
1000
0000
0000
0000
0000
0000
0000
0000
1000
0000
0000
0000
0000
0000
0000
1000
0000
0000
0000
0000
0000
0000
0000
0000
1000
0000
0000
0000
0000
0000
0000
0000
1000
0000
0000
0000
0000
0000
1000
0000
0000
0000
,
0000
0000
0000
1000
0000
0000
0000
0000
0000
0000
1000
0000
0000
0000
0000
0000
0000
0000
1000
0000
0000
0000
0000
0000
0000
0000
1000
0000
0000
0000
0000
0000
0000
1000
0000
0000
0033
0000
0000
0000
0000
0000
0000
0000
0000
0000
0000
0000
,
2200
0000
0000
0000
0000
0000
0000
0000
0000
0000
0000
0000
0000
0000
0000
0000
0000
0000
0000
0000
0000
0000
0000
0000
0000
0000
0000
0000
0000
0000
0001
0000
0000
0000
0000
0000
0000
0000
0000
0000
0000
0000
0000
0000
0000
0000
0000
0000
0000
0000
0000
0000
0000
0000
0000
0000
0000
0000
0000
0000
0000
0000
0000
0000
0000
0000
0001
0000
0000
0000
0000
0000
0000
0000
0000
0000
0000
0000
0000
0000
0000
0000
0000
0000
0000
0000
0000
0000
0000
0000
0000
0000
0000
0000
0000
0000
0000
0000
0000
0000
0000
0000
0001
0000
0000
0000
0000
0000
0000
0000
0000
0000
0000
0000
0000
0000
0000
0000
0000
0000
0000
0000
0000
0000
0000
0000
0000
0000
0000
0000
0000
0000
0000
0000
0000
0000
0001
0000
0000
0000
0000
0000
0000
0000
0000
0000
0000
0000
0000
0000
0000
0000
0000
0000
0000
0000
0000
0000
0000
0000
0000
0000
0000
0000
0000
0000
0000
0000
0000
0000
0000
0000
0000
0000
0000
0000
0002
0000
0000
0000
0000
0000
0000
0000
0000
0000
0000
0000
0000
0000
0000
0000
,
0000
0000
0000
0000
0000
0000
0000
0000
0000
0000
0000
3303
0000
0000
0000
0000
;

//---------------dance-single - J. DeGarmo----------------
#NOTES:
     dance-single:
     J. DeGarmo:
     Hard:
     8:
     0.475,0.549,0.195,0.212,0.040:
0000
0000
0000
0000
,
0000
0000
0000
0000
,
1000
0100
0010
0001
0010
0000
0100
1000
,
0010
0100
0000
0101
0000
0000
0000
0000
,
0100
0010
1000
0001
0100
0000
0010
0010
,
1000
0001
0000
2200
0000
0000
0000
3300
,
0001
0010
0001
0100
0010
0000
1000
0010
,
0001
0010
0100
0001
0000
0000
1000
1000
,
0000
0010
0100
0001
0100
1000
0100
0010
,
1000
0100
0000
1001
0000
0000
0000
0001
,
0100
1000
0100
0001
0010
0100
1000
0010
,
0100
0001
0100
0010
0000
0000
0000
0000
,
1000
0001
0010
1000
0010
0000
0001
0100
,
0010
1000
0000
0022
0000
0000
0000
0033
,
0100
1000
0010
0001
0010
0000
1000
0010
,
0100
0010
0000
0110
0000
0000
0001
0100
,
0000
1000
0100
0010
1000
0100
0010
0001
,
0101
0010
0000
1000
0000
0001
0000
0000
,
1000
0100
0010
0001
0000
0001
0010
0100
,
2000
0000
0001
0001
0001
0000
3001
0000
,
0001
0100
0000
0001
0000
0010
0000
0100
,
1000
0010
0000
0100
0000
1000
0000
0100
,
0010
1000
0000
0100
0000
0010
0000
0001
,
1000
0100
0000
0010
0000
0001
0000
0100
,
0010
1000
0000
0010
0000
0100
0000
0001
,
1000
0100
0000
1000
0000
0010
0000
0100
,
1000
0100
0000
0010
0000
1000
0000
0100
,
0010
0001
0000
0010
0000
0100
0000
1000
,
0002
0000
0103
0000
0000
0010
0010
0000
,
2000
0000
3001
0000
0000
0100
0100
0000
,
0020
0000
1030
0000
0000
0001
0001
0000
,
0011
1100
1010
0101
,
2000
0000
3020
M000
0000
0100
0130
0000
,
0002
0000
0203
000M
0000
0010
0310
0000
,
2000
0000
3200
M000
0000
0001
0301
0000
,
0200
0000
2300
0M00
0000
0100
3100
0000
,
0010
0001
0100
0010
0000
1000
0000
0010
,
0100
0000
0001
0000
0000
0000
2000
0000
0002
0000
0000
0000
0000
0000
0000
3003
,
1000
0010
0100
0001
,
1000
0100
1000
0000
0010
0000
0100
0000
0001
0000
0000
0000
0011
0000
0000
0000
,
0100
0100
1000
1000
0010
0010
0100
0000
,
0001
0000
0010
0000
0100
0000
1000
0000
0010
0100
0000
0110
0000
0000
0000
0000
,
0010
0000
1000
0000
0001
0010
0001
0000
1000
0100
1000
0000
1100
0000
0000
0000
,
0010
0000
0010
0000
1000
0100
1000
0000
0001
0010
0001
0000
0011
0000
0000
0000
,
0001
0100
0010
1000
0100
0010
0002
1000
,
1000
1000
1000
2000
0000
0000
3003
0000
,
1000
0000
0010
0100
0001
0000
0100
0010
,
1000
0000
0001
0100
0110
0000
1010
0000
,
0001
0000
0010
0100
0000
0000
1000
0000
0010
0000
0100
0001
0000
0000
1000
0000
,
0100
0000
0010
0002
0000
0000
0000
0000
,
1003
0000
0010
0000
0100
0001
0100
1000
,
0000
0100
0010
1000
0100
0010
0001
0010
,
1000
0010
0100
1000
0001
0100
0020
0100
,
0100
0100
0100
0200
0000
0000
0330
0000
,
0001
0000
0100
0010
1000
0010
0000
0100
,
0001
0100
1000
0100
0101
0000
1010
0000
,
0001
0000
0100
0010
1000
0100
0000
0010
,
0001
0010
1000
0010
0011
0000
1100
0000
,
0001
0000
1000
0100
0010
0001
0000
0100
,
0000
0010
1000
0100
0110
0001
1001
0000
,
0100
0000
0010
0100
1000
0100
0000
0001
,
0000
0010
0100
2000
0000
0000
0000
0000
,
3000
0000
0000
0000
;

//---------------dance-single - J. DeGarmo----------------
#NOTES:
     dance-single:
     J. DeGarmo:
     Medium:
     5:
     0.326,0.301,0.097,0.080,0.004:
0000
0000
0000
0000
,
0000
0000
0000
0000
,
1000
0010
1000
0001
,
0100
0000
0010
0000
0000
1000
0100
0000
,
0010
0001
0100
0010
,
1000
0000
0000
0002
0000
0000
0000
0000
,
1003
0010
0100
0001
,
0100
0000
0000
0010
0000
0010
0000
0000
,
1000
0010
0100
0100
,
0001
0010
0000
0100
0000
0000
0000
0000
,
1000
0001
0100
0010
,
1000
0100
1000
0100
0000
0000
0000
0000
,
0010
0001
0100
0010
,
1000
0100
0000
2000
0000
0000
0000
0000
,
3100
0010
0001
0010
,
0100
0000
1000
0000
0000
0010
0100
0000
,
0001
0010
0001
0100
,
0010
1000
0000
0001
0000
0100
0000
0000
,
0001
0000
0100
0000
0000
0010
0010
0000
,
1001
0000
0000
0000
M00M
0MM0
0000
0000
,
1000
0010
0000
0010
0000
0010
0000
0010
,
1000
0100
0000
0100
0000
0100
0000
0100
,
0010
0001
0000
0001
0000
0001
0000
0001
,
0100
1000
0000
1000
0000
1000
0000
1000
,
0100
0010
0000
0010
0000
0010
0000
0010
,
1000
0001
0000
0001
0000
0001
0000
0001
,
0100
0010
0000
0010
0000
0010
0000
0010
,
0100
1000
0000
1000
0000
1000
0000
1000
,
0100
0000
0101
0000
0000
0010
0010
0000
,
1000
0000
0011
0000
0000
1000
1000
0000
,
0010
0000
1010
0000
0000
0001
0001
0000
,
0010
0001
0100
0010
,
1000
0000
0010
0000
0000
0100
0001
0000
,
0010
0000
0001
0000
0000
1000
0010
0000
,
0100
0000
0001
0000
0000
0010
0100
0000
,
1000
0000
0010
0000
0000
0100
0001
0000
,
1000
0000
0110
0000
M00M
0MM0
0000
0000
,
0001
0000
0220
0000
,
0330
1000
0001
0100
,
0010
1000
0100
1000
,
0010
0000
0100
0000
0001
0001
0001
0000
,
0010
0000
0000
0000
0100
0000
0000
0000
0000
0000
1000
0000
0100
1000
0000
0000
,
0001
0000
0100
0000
0010
1000
0010
0000
,
1000
0000
0100
0000
0010
0001
0010
0000
,
0100
0000
0000
1000
0010
0100
0001
0000
,
0100
0000
0000
2002
0000
0000
0000
0000
,
3003
0100
0010
1000
,
0100
1000
0010
0100
,
0001
0010
1000
0010
,
0001
0000
0100
0020
0000
0000
0000
0000
,
1030
0001
0010
0100
,
0000
1000
0010
0000
0100
0000
0001
0000
,
1000
0010
1000
0100
,
0010
0000
0001
0000
0100
0000
0010
1000
,
0000
1000
0010
0000
0010
0100
0000
0100
,
0001
0010
1100
1100
,
MM10
0100
0010
1000
,
0100
0010
0011
0011
,
10MM
0010
0100
0001
,
0010
0100
2000
3100
,
0010
0001
0100
0010
,
1000
0100
0020
0031
;

//---------------dance-single - J. DeGarmo----------------
#NOTES:
     dance-single:
     J. DeGarmo:
     Easy:
     3:
     0.182,0.191,0.018,0.009,0.000:
0000
0000
0000
0000
,
0000
0000
0000
0000
,
0001
0000
0100
0000
,
0010
1000
0100
0000
,
1000
0000
0010
0000
,
0100
0001
0010
0000
,
0001
0001
0010
0000
,
0100
0100
1000
0000
,
0010
0000
0100
0000
,
0001
1000
0001
0000
,
1000
0000
0100
0000
,
1000
0000
0010
0000
,
0100
0001
0100
0010
,
1000
0000
0000
0002
0000
0000
0000
0000
,
1003
0010
0100
0001
,
1000
0000
0000
0000
,
0001
0000
0010
0000
,
0100
0000
1000
0000
0000
1001
0000
0000
,
0001
0100
0000
0010
,
1000
0000
0000
0000
,
0001
0000
0000
0000
,
0100
0000
0000
0000
,
0001
0000
0000
0000
,
0010
0000
0000
0000
,
0100
0000
0000
0000
,
1000
0000
0000
0000
,
0010
0000
0000
0000
,
0100
0000
0000
0000
,
0001
0100
0000
0010
,
1000
0001
0000
1000
,
0100
0010
0000
0001
,
0100
0100
0100
0100
,
0100
0010
0000
1000
,
0001
0100
0000
0010
,
1000
0100
0000
0010
,
0001
0100
0000
0001
,
1000
1100
0000
0000
,
0000
0000
0000
0000
0001
1000
0001
0000
,
0100
0000
0010
0000
,
1000
0100
1000
1000
,
0001
0000
0010
0000
,
0001
0100
0010
0000
,
1000
0000
0010
0000
,
1000
0100
0010
0001
,
0100
0000
0000
0000
,
0010
0000
0000
0000
,
1000
0000
0010
0000
,
1000
0000
0001
0010
,
0100
0000
1000
0000
,
0010
0000
0100
0001
,
0010
0000
0001
0000
,
0100
0000
0010
1000
,
0100
0000
1000
0000
,
0010
0000
0000
0100
,
0001
0000
0100
0000
,
0010
0000
1000
1000
,
1000
0000
0010
0000
,
0100
0000
0001
0001
,
0001
0000
0100
0000
,
0010
0000
1000
0100
,
1000
0000
0010
0000
,
0100
0000
0001
0010
;

//---------------dance-single - J. DeGarmo----------------
#NOTES:
     dance-single:
     J. DeGarmo:
     Beginner:
     1:
     0.086,0.137,0.009,0.000,0.000:
0000
0000
0000
0000
,
0000
0000
0000
0000
,
0010
0000
0000
0000
,
1000
0000
0000
0000
,
0001
0000
0000
0000
,
0100
0000
0000
0000
,
0010
0000
0000
0000
,
1000
0000
0000
0000
,
0100
0000
0000
0000
,
0010
0000
0000
0000
,
0001
0000
0001
0000
,
0001
0000
0000
0000
,
0100
0000
0100
0000
,
0100
0000
0000
0000
,
0010
0000
0010
0000
,
0010
0000
0000
0000
,
1000
0000
1000
0000
,
1000
0000
0000
0000
,
0010
0000
0000
0000
,
1001
0000
0000
0000
,
0001
0000
0000
0000
,
0000
0000
0000
0000
,
0010
0000
0000
0000
,
0000
0000
0000
0000
,
0100
0000
0000
0000
,
0000
0000
0000
0000
,
1000
0000
0000
0000
,
0000
0000
0000
0000
,
0001
0000
0000
0000
,
0100
0000
0000
0000
,
0010
0000
0000
0000
,
1000
1000
1000
1000
,
1000
0000
0000
0000
,
0010
0000
0000
0000
,
0100
0000
0000
0000
,
0001
0000
0000
0000
,
0001
0000
0000
0000
,
0000
0000
0000
0000
,
1000
0000
0000
0000
,
0010
0000
0000
0000
,
0100
0000
0000
0000
,
0001
0000
0000
0000
,
0010
0000
0000
0000
,
0001
0000
0000
0000
,
0100
0000
0000
0000
,
0010
0000
0000
0000
,
1000
0000
1000
0000
,
1000
0000
0000
0000
,
0010
0000
0010
0000
,
0010
0000
0000
0000
,
0100
0000
0100
0000
,
0100
0000
0000
0000
,
0001
0000
0001
0000
,
0001
0000
0000
0000
,
1000
0000
0000
0000
,
0010
0000
0000
0000
,
1000
0000
0000
0000
,
0100
0000
0000
0000
,
0010
0000
0000
0000
,
0001
0000
0000
0000
,
0100
0000
0000
0000
,
0010
0000
0000
1000
;
