#VERSION:0.83;
#TITLE:Undertale;
#SUBTITLE:- Death By Glamour;
#ARTIST:Toby Fox;
#TITLETRANSLIT:;
#SUBTITLETRANSLIT:;
#ARTISTTRANSLIT:;
#GENRE:;
#ORIGIN:;
#CREDIT:;
#BANNER:3083.png;
#BACKGROUND:Metta.png;
#PREVIEWVID:;
#JACKET:;
#CDIMAGE:;
#DISCIMAGE:;
#LYRICSPATH:;
#CDTITLE:;
#MUSIC:Undertale OST- 068 - Death by Glamour.ogg;
#OFFSET:1.479999;
#SAMPLESTART:64.601082;
#SAMPLELENGTH:12.972977;
#SELECTABLE:YES;
#BPMS:0.000=148.000;
#STOPS:;
#DELAYS:;
#WARPS:;
#TIMESIGNATURES:0.000=4=4;
#TICKCOUNTS:0.000=4;
#COMBOS:0.000=1;
#SPEEDS:0.000=1.000=0.000=0;
#SCROLLS:0.000=1.000;
#FAKES:;
#LABELS:0.000=Song Start;
#BGCHANGES:;
#KEYSOUNDS:;
#ATTACKS:
;

//---------------dance-single - ----------------
#NOTEDATA:;
#CHARTNAME:;
#STEPSTYPE:dance-single;
#DESCRIPTION:;
#CHARTSTYLE:;
#DIFFICULTY:Easy;
#METER:4;
#RADARVALUES:0.416836,0.491506,0.371228,0.185614,0.000000,393.000000,343.000000,50.000000,25.000000,0.000000,0.000000,0.000000,0.000000,0.000000,0.416836,0.491506,0.371228,0.185614,0.000000,393.000000,343.000000,50.000000,25.000000,0.000000,0.000000,0.000000,0.000000,0.000000;
#CREDIT:;
#NOTES:
0000
0000
0000
0000
,
1000
0001
0100
0010
,
0100
0010
1000
0100
,
0010
0001
0010
0100
,
1000
1000
0010
0001
,
0010
0100
1000
0100
,
0010
0100
0010
1000
,
0001
0100
1000
0001
,
0010
1000
0001
0100
,
1000
0100
0010
0100
,
0010
0001
0010
0100
,
0010
1000
0010
0010
,
0010
1000
0010
0001
,
0010
1000
0001
0100
,
1000
0001
0010
1000
,
0001
1000
0100
0010
,
1000
0001
0100
0010
,
1000
0000
0100
0010
0100
0000
0000
0000
,
0001
0000
0010
0100
1000
0000
0000
0000
,
0010
0000
1000
0100
1000
0000
0000
0000
,
0010
0000
0100
1000
0001
0000
0000
0000
,
0101
0000
0010
1000
0010
0000
0000
0000
,
1100
0000
0010
0100
0010
0000
0000
0000
,
0110
0000
0010
0010
0100
0000
0000
0000
,
1000
0000
0001
1000
1000
0000
0000
0000
,
1100
1010
1010
0101
,
0010
0000
1000
0010
0100
0000
0000
0000
,
1010
0110
0101
1010
,
0010
0000
1000
0001
0100
0000
0000
0000
,
1001
1010
1001
0110
,
1000
0000
0010
0100
1000
0000
0000
0000
,
0100
0000
1000
0010
1010
0000
0001
0000
,
0100
0000
0010
1000
0010
0000
0011
0000
,
0001
0000
0010
0100
1000
0000
0101
0000
,
1010
0000
0010
1000
0001
0000
1010
0000
,
0110
0000
1000
0010
0100
0000
1001
0000
,
0110
0000
1000
0010
0100
0000
0010
0000
,
0101
0000
0010
0001
0100
0000
1100
0000
,
0100
0000
0010
0100
0001
0000
0010
0000
,
0110
0000
1000
1000
0100
0000
0010
0000
,
0001
0000
0010
0101
0101
0000
0000
0000
,
0002
0000
0000
0003
0200
0000
0000
0300
,
2000
0000
0000
3000
0010
0000
0100
0000
,
2000
0000
0000
3000
0002
0000
0000
0003
,
0100
1000
0100
1000
0010
0001
0010
0001
,
0200
0000
0000
0300
2000
0000
0000
3000
,
0002
0000
0000
0003
0010
0000
0100
0000
,
2000
0000
0000
3000
0002
0000
0000
0003
,
0100
0010
0010
0100
0110
0000
0100
0100
,
0200
0000
0000
0300
2000
0000
0000
3000
,
0002
0000
0000
0003
0100
0000
0110
0000
,
0020
0000
0000
0030
2000
0000
0000
3000
,
0001
1000
0010
1000
0001
0000
0100
1000
,
0200
0000
0000
0300
0002
0000
0000
0003
,
0202
0000
0000
0303
2000
3000
0200
0300
,
0020
0000
0000
0030
2000
0000
0000
3000
,
0100
1000
0100
0010
,
1100
0000
0100
0000
0001
0000
0010
0100
,
0010
0100
0010
0100
0000
0000
0100
1000
,
0100
0000
0000
0001
0100
0000
0100
0001
,
0100
0000
0010
0000
0100
0000
1000
0100
,
0000
0001
0100
0100
0000
0000
0100
1000
,
0100
0001
0100
0010
0000
0000
0100
0100
,
0100
0000
0000
0100
0100
0000
0100
0001
,
0100
0000
0000
1000
0100
0000
0010
0001
,
0010
0000
0010
0100
0000
0000
0100
1000
,
0100
0001
0100
0010
0000
0000
0010
0001
,
0100
0000
0000
0100
0001
0000
0100
1000
,
0100
0000
0001
0010
0100
0000
0100
1000
,
0000
0100
0001
0010
0000
0000
0100
0100
,
0100
0010
0010
0010
0000
0000
0001
0001
,
1000
0000
0000
0010
0100
0000
1000
0001
,
0100
0000
0000
0010
0100
0000
0100
1000
,
0110
0000
1001
0000
1100
0000
0000
0100
,
0000
0100
0010
0000
0101
0000
0000
0000
,
0001
0000
1100
0000
0010
0000
0000
0001
,
0000
1000
0100
0000
0010
0000
0000
0000
,
1010
0000
1100
0000
0001
0000
0000
0010
,
0000
1000
0010
0000
0100
0000
0000
0000
,
0101
0000
1100
0000
0010
0000
0000
0110
,
0000
0100
1000
0000
0101
0000
0000
0000
,
1100
1010
0110
0101
,
0022
0000
0000
0033
1100
0000
0011
0000
;

//---------------dance-single - ----------------
#NOTEDATA:;
#CHARTNAME:;
#STEPSTYPE:dance-single;
#DESCRIPTION:;
#CHARTSTYLE:;
#DIFFICULTY:Hard;
#METER:8;
#RADARVALUES:0.583359,0.675821,0.824127,0.348955,0.245011,550.000000,439.000000,111.000000,47.000000,0.000000,0.000000,0.000000,0.000000,0.000000,0.583359,0.675821,0.824127,0.348955,0.245011,550.000000,439.000000,111.000000,47.000000,0.000000,0.000000,0.000000,0.000000,0.000000;
#CREDIT:;
#NOTES:
// measure 0
0000
0000
0000
0000
,  // measure 1
1000
0000
0000
0000
0001
0000
0000
0000
0100
0000
0000
0010
0000
0000
0100
0000
,  // measure 2
0000
0000
0001
0000
0010
0000
0000
0000
1000
0000
0000
0200
0000
0000
0300
0000
,  // measure 3
0010
0000
0000
0000
0001
0000
0000
0000
0010
0000
0000
1000
0000
0000
0100
0000
,  // measure 4
0000
0000
0001
0000
1000
0000
0000
0000
0010
0000
0000
0002
0000
0000
0003
0000
,  // measure 5
0010
0000
0000
0000
0100
0000
0000
0000
1000
0000
0000
0100
0000
0000
0010
0000
,  // measure 6
0000
0000
0100
0000
1000
0000
0000
0000
0010
0000
0000
2000
0000
0000
3000
0000
,  // measure 7
0001
0000
0000
0000
0100
0000
0000
0000
1000
0000
0000
1000
0000
0000
0010
0000
,  // measure 8
0000
0000
0100
0000
1000
0000
0000
0000
0001
0000
0000
0200
0000
0000
0300
0000
,  // measure 9
2000
0000
0000
0000
0100
0000
0000
0000
0010
0000
0000
0100
0000
0000
0001
0000
,  // measure 10
0000
0000
0010
0000
0010
0000
3000
0000
0102
0000
0000
0020
0000
0000
0033
0000
,  // measure 11
2010
0000
0000
0000
0100
0000
0000
0000
0001
0000
0000
0001
0000
0000
0100
0000
,  // measure 12
0000
0010
0100
3000
0021
0000
0001
0030
,  // measure 13
2010
0000
0000
0000
0100
0000
0000
0000
0001
0000
0000
0100
0000
0000
0010
0000
,  // measure 14
0000
0000
0010
0000
0001
0000
0000
0000
0010
0000
0000
0200
0000
0000
3300
0000
,  // measure 15
0012
0000
0000
0000
1000
0000
0000
0000
0100
0000
0000
0010
0000
0000
0100
0000
,  // measure 16
0000
0000
1000
0000
0010
0000
0000
0000
0100
0000
0000
0020
0000
0000
0033
0000
,  // measure 17
1000
0000
1000
0000
0100
0000
0010
0000
0100
0000
0010
0100
0000
0100
1000
0000
,  // measure 18
0000
0000
0100
0000
0010
0000
0100
0000
1000
0100
0020
0000
0000
0000
0030
0000
,  // measure 19
0000
0000
0001
0000
1000
0000
0100
0000
1000
0000
0001
0010
0000
0100
1000
0000
,  // measure 20
0000
0000
0100
0000
0100
0000
1000
0000
0001
0010
0200
0000
0000
0000
0300
0000
,  // measure 21
0000
0000
0001
0000
0010
0000
1000
0000
0010
0000
1000
0100
0000
0010
0001
0000
,  // measure 22
0000
0000
1000
0000
0010
0000
0100
0000
0010
1000
0200
0000
0000
0000
0300
0000
,  // measure 23
0000
0000
1000
0000
0010
0000
0010
0000
0100
0000
0010
0001
0000
0001
1000
0000
,  // measure 24
0000
0000
1000
0000
0001
0000
1000
0000
1000
0100
0020
0000
0000
0000
0030
0000
,  // measure 25
1100
1010
1010
0101
,  // measure 26
1010
0000
1001
0010
0101
0000
0000
0000
,  // measure 27
1010
0110
0101
1010
,  // measure 28
0011
0000
1010
0011
0110
0000
0000
0000
,  // measure 29
1001
1010
1001
0110
,  // measure 30
1001
0000
0011
1100
1100
0000
0000
0000
,  // measure 31
0101
0000
1010
0010
1010
0000
1001
0000
,  // measure 32
0101
0000
0011
1000
0110
0000
0011
0000
,  // measure 33
1001
0000
0011
0110
1100
0000
0101
0000
,  // measure 34
1010
0000
0010
1100
0001
0000
1010
0000
,  // measure 35
0110
0000
1000
0011
0100
0000
1001
0000
,  // measure 36
0110
0000
1100
0011
0100
0000
1010
0000
,  // measure 37
0101
0000
0010
0001
0101
0000
1100
0000
,  // measure 38
0100
0000
0010
0100
0001
0000
1010
0000
,  // measure 39
0110
0000
1010
1000
0101
0000
0011
0000
,  // measure 40
1001
0000
0000
0000
1010
0000
0101
0000
0101
0000
0000
0000
1000
0100
0010
0001
,  // measure 41
0002
0000
1000
0003
0201
0000
0010
0300
,  // measure 42
2100
0000
0001
3000
0010
0000
0100
0000
,  // measure 43
2000
0000
0010
3000
0102
0000
0000
1003
,  // measure 44
0100
0010
0100
0000
0001
0010
0001
0000
1000
0000
0000
0000
0001
0010
0100
1000
,  // measure 45
0200
0000
0010
0300
2001
0000
0010
3000
,  // measure 46
0102
0000
1000
0003
0010
0000
0100
0000
,  // measure 47
2000
0000
0001
3000
0102
0000
0000
1003
,  // measure 48
0100
0000
0010
0001
0010
0000
0100
0000
0110
0000
0000
0000
0100
1000
0100
0010
,  // measure 49
0200
0000
0001
0300
2010
0000
0100
3000
,  // measure 50
0102
0000
1000
0003
0100
0000
0001
0000
,  // measure 51
0020
0000
1000
0030
2000
0000
0000
3001
,  // measure 52
0001
0010
0100
0000
0010
0100
1000
0000
1000
0000
0000
0000
0100
0001
1000
0001
,  // measure 53
0200
0000
1000
0300
0002
0000
1000
0003
,  // measure 54
0002
0000
0010
0003
2000
3000
0200
0300
,  // measure 55
0020
0000
0001
0030
2000
0000
0000
3000
,  // measure 56
0100
0000
0000
0001
0000
0000
0010
0000
0100
0000
0000
0000
1000
0000
0000
0100
,  // measure 57
0001
0000
0000
0000
0100
0000
0010
0002
0000
0003
0000
0000
0010
0000
1000
0000
,  // measure 58
0100
0000
0001
0000
0010
0000
0100
2000
0000
3000
0000
0000
0100
0000
1000
0000
,  // measure 59
0100
0000
0000
0010
0000
0000
0001
0000
1000
0000
0000
0000
0010
0000
0001
0000
,  // measure 60
0100
0000
0000
0010
0000
0000
1000
0000
0100
0000
0000
0000
1000
0000
0100
0000
,  // measure 61
0000
0000
0001
0000
0100
0000
0100
0002
0000
0003
0000
0000
0100
0000
1000
0000
,  // measure 62
0100
0000
0001
0000
0100
0000
0010
2000
0000
3000
0000
0000
0100
0000
0100
0000
,  // measure 63
0100
0000
0000
0001
0000
0000
0100
0000
0100
0000
0000
0000
0100
0000
0001
0000
,  // measure 64
0100
0000
0000
0001
0000
0000
1000
0000
0100
0000
0000
0000
0010
0000
0001
0000
,  // measure 65
0010
0000
0000
0000
0010
0000
0100
2000
0000
3000
0000
0000
0100
0000
1000
0000
,  // measure 66
0100
0000
0001
0000
1000
0000
0010
0200
0000
0000
0300
0000
0010
0000
0001
0000
,  // measure 67
0100
0000
0000
0001
0000
0000
0100
0000
0001
0000
0000
0000
0100
0000
1000
0000
,  // measure 68
0100
0000
0000
1000
0000
0000
0010
0000
0100
0000
0000
0000
0100
0000
1000
0000
,  // measure 69
0000
0000
0100
0000
0001
0000
0010
1000
0000
0000
0000
0000
0100
0000
0100
0000
,  // measure 70
0100
0000
0010
0000
0010
0000
0010
1000
0000
0000
0000
0000
0001
0000
0001
0000
,  // measure 71
1000
0000
0000
0100
0000
0000
0010
0000
0100
0000
0000
0000
1000
0000
0001
0000
,  // measure 72
0100
0000
0000
0001
0000
0000
0010
0000
0100
0000
0000
0000
0100
0000
1000
0000
,  // measure 73
0110
0000
0000
0000
1001
0000
0000
0000
1100
0000
0000
0011
0000
0000
0110
0000
,  // measure 74
0000
0000
0110
0000
1010
0000
0000
0000
0101
0000
0000
1010
0000
0000
0000
0000
,  // measure 75
1001
0000
0000
0000
1100
0000
0000
0000
1010
0000
0000
0101
0000
0000
1100
0000
,  // measure 76
0000
0000
1010
0000
1100
0000
0000
0000
1010
0000
0000
0011
0000
0000
0000
0000
,  // measure 77
1010
0000
0000
0000
1100
0000
0000
0000
0001
0000
0000
1100
0000
0000
0110
0000
,  // measure 78
0000
0000
1100
0000
0110
0000
0000
0000
0011
0000
0000
1001
0000
0000
0000
0000
,  // measure 79
0101
0000
0000
0000
1100
0000
0000
0000
0110
0000
0000
1001
0000
0000
0110
0000
,  // measure 80
0000
0000
0101
0000
1010
0000
0000
0000
0101
0000
0000
0110
0000
0000
0000
0000
,  // measure 81
1000
0100
0001
0010
0100
1000
0001
0010
,  // measure 82
0022
0000
0000
0033
1100
0110
0011
0000
;
