#VERSION:0.83;
#TITLE:Conga!;
#SUBTITLE:;
#ARTIST:Miami Sound Machine feat. Gloria Estefan;
#TITLETRANSLIT:;
#SUBTITLETRANSLIT:;
#ARTISTTRANSLIT:;
#GENRE:;
#CREDIT:;
#MUSIC:Miami Sound Machine feat. Gloria Estefan - Conga.mp3;
#BANNER:banner_1.png;
#BACKGROUND:wallpaper.png;
#CDTITLE:jacket.png;
#SAMPLESTART:97.480;
#SAMPLELENGTH:10.030;
#SELECTABLE:YES;
#OFFSET:-0.068;
#BPMS:0.000=122.302
,17.000=124.302
,18.750=122.302
,35.000=119.500
,36.000=122.302
,72.000=122.000
,76.000=122.300
,136.750=121.300
,137.250=120.300
,137.750=122.300
,150.000=119.300
,152.000=123.300
,152.750=122.300
,194.750=124.300
,195.750=127.300
,196.750=138.300
,198.000=137.300
,199.000=122.300
,263.000=123.300
,263.250=122.300
;
#STOPS:131.000=0.123;
#SPEEDS:0.000=1.000=0.000=0;
#SCROLLS:0.000=1.000,
131.000=0.000,
134.000=1.000,
196.750=0.900,
199.000=1.000
;
#TICKCOUNTS:0.000=4;
#TIMESIGNATURES:0.000=4=4;
#LABELS:0.000=Song Start;
#COMBOS:0.000=1;
#ORIGIN:;
#PREVIEWVID:;
#JACKET:Conga-jacket.png;
#CDIMAGE:;
#DISCIMAGE:;
#GASongDataVersion:1;
#GASongData:{"SyncOffset"\:0,"DefaultChartType"\:"dance_single","DefaultChartIndex"\:4};
#LASTSECONDHINT:0.000000;
#BGCHANGES:;
#FGCHANGES:;

//--------------- dance-single - HellKiteChaos ----------------
#NOTEDATA:;
#STEPSTYPE:dance-single;
#DESCRIPTION:HellKiteChaos;
#DIFFICULTY:Beginner;
#METER:1;
#RADARVALUES:0,0,0,0,0;
#OFFSET:-0.068;
#BPMS:0.000=122.302
,17.000=124.302
,18.750=122.302
,35.000=119.500
,36.000=122.302
,72.000=122.000
,76.000=122.300
,136.750=121.300
,137.250=120.300
,137.750=122.300
,150.000=119.300
,152.000=123.300
,152.750=122.300
,194.750=124.300
,195.750=127.300
,196.750=138.300
,198.000=137.300
,199.000=122.300
,263.000=123.300
,263.250=122.300
;
#STOPS:131.000=0.123;
#SPEEDS:0.000=1.000=0.000=0;
#SCROLLS:0.000=1.000,
131.000=0.000,
134.000=1.000,
196.750=0.900,
199.000=1.000
;
#TICKCOUNTS:0.000=4;
#TIMESIGNATURES:0.000=4=4;
#LABELS:0.000=Song Start;
#COMBOS:0.000=1;
#DISPLAYBPM:122.000;
#CHARTNAME:;
#CHARTSTYLE:;
#CREDIT:;
#GAChartDataVersion:1;
#GAChartData:{"MusicOffset"\:0,"ShouldUseChartMusicOffset"\:false,"ExpressedChartConfig"\:"a19d532e-b0ce-4759-ad1c-02ecbbdf2efd","Patterns"\:{}};
#NOTES:
0000
0000
0000
0000
,
0000
0000
0000
0000
,
0000
0000
0000
0000
,
0000
0000
0000
0000
,
0000
0000
0000
0000
0000
0000
0000
0000
0000
0000
0000
1001
0000
0000
0000
0000
,
0000
0000
0000
0000
,
0000
0000
0000
0000
,
0000
0000
0000
0000
,
0000
0000
0000
2002
0000
0000
0000
0000
0000
0000
0000
3003
0000
0000
0000
0000
,
1000
0000
0000
0000
,
0001
0000
0000
0000
,
0001
0000
0001
0000
,
1000
0000
0000
0000
,
1000
0000
0000
0000
,
0010
0000
0000
0000
,
0010
0000
0100
0000
,
0100
0000
0000
0000
,
0001
0000
0000
0000
,
1000
0000
0000
0000
,
0001
0000
0000
0000
0000
0000
0000
0000
0001
0000
0000
0001
0000
0000
0000
0000
,
0000
0000
0000
0000
0010
0000
0000
0000
0010
0000
0000
0010
0000
0000
0000
0000
,
0100
0000
0000
0000
,
1000
0000
0000
0000
,
0001
0000
0000
0000
,
1000
0000
0000
0000
0000
0000
0000
0000
1000
0000
0000
1000
0000
0000
0000
0000
,
0010
0000
0010
0000
,
0100
0000
0100
0000
,
0010
0000
0010
0000
,
0000
0000
0000
0000
0100
0000
0000
0000
0100
0000
0000
0100
0000
0000
0000
0000
,
0000
0000
0001
0000
,
0000
0000
1000
0000
,
0000
0100
0000
0000
,
0000
0010
0000
0010
,
0000
0000
0000
0000
0000
0000
0000
0000
0000
0000
0000
1000
0000
0000
0000
0000
,
0000
0000
0000
0000
0000
0000
0000
0000
0000
0001
0000
0000
0000
0000
0000
0000
,
0000
0000
0000
0000
0000
0000
0000
0000
0000
0000
0000
1000
0000
0000
0000
0000
,
0000
0000
0000
0000
0010
0000
0000
0010
0000
0000
0000
0010
0000
0000
0000
0000
,
0000
0100
0000
0000
,
0001
0000
0000
0000
,
1000
0000
0000
0000
,
1000
0000
0000
0000
,
0100
0000
0000
0000
,
0010
0000
0000
0001
,
0001
0001
0000
1000
,
0000
1000
0000
0000
,
0000
0010
0000
0000
,
1000
0000
0000
0000
,
0000
0001
0001
0000
,
0000
0000
0000
0000
0100
0000
0000
0000
0000
0000
0000
0010
0000
0000
0000
0010
,
0000
0000
0000
0010
0000
0000
0000
0000
0000
0000
0000
0000
0000
0000
0000
0000
,
1000
0000
1000
0000
,
1000
0000
0000
0000
,
0010
0000
0010
0000
,
0010
0000
0000
0000
,
0100
0000
0000
0000
,
0001
0000
0000
0000
,
1000
0000
0000
0000
,
0010
0000
0100
0000
,
0010
0000
0000
0000
,
0001
0000
0000
0000
,
1000
0000
0000
0000
,
0001
0000
0001
0000
,
1000
0000
0000
0000
,
0010
0000
0000
0000
,
0010
0000
0000
0000
,
0100
0000
0000
0000
0000
0000
0000
0000
0100
0000
0000
0100
0000
0000
0000
0000
,
0000
0001
0000
0000
,
0000
1000
0000
0000
,
0000
0010
0000
0000
,
0000
0100
0000
0000
,
0000
0100
0000
0000
,
0001
0000
0000
0000
,
1000
0000
0000
0000
0001
0000
0000
0000
1000
0000
0000
1001
0000
0000
0000
0000
;

//--------------- dance-single - HellKiteChaos ----------------
#NOTEDATA:;
#STEPSTYPE:dance-single;
#DESCRIPTION:HellKiteChaos;
#DIFFICULTY:Easy;
#METER:3;
#RADARVALUES:0,0,0,0,0;
#OFFSET:-0.068;
#BPMS:0.000=122.302
,17.000=124.302
,18.750=122.302
,35.000=119.500
,36.000=122.302
,72.000=122.000
,76.000=122.300
,136.750=121.300
,137.250=120.300
,137.750=122.300
,150.000=119.300
,152.000=123.300
,152.750=122.300
,194.750=124.300
,195.750=127.300
,196.750=138.300
,198.000=137.300
,199.000=122.300
,263.000=123.300
,263.250=122.300
;
#STOPS:131.000=0.123;
#SPEEDS:0.000=1.000=0.000=0;
#SCROLLS:0.000=1.000,
131.000=0.000,
134.000=1.000,
196.750=0.900,
199.000=1.000
;
#TICKCOUNTS:0.000=4;
#TIMESIGNATURES:0.000=4=4;
#LABELS:0.000=Song Start;
#COMBOS:0.000=1;
#DISPLAYBPM:122.000;
#CHARTNAME:;
#CHARTSTYLE:;
#CREDIT:;
#GAChartDataVersion:1;
#GAChartData:{"MusicOffset"\:0,"ShouldUseChartMusicOffset"\:false,"ExpressedChartConfig"\:"a19d532e-b0ce-4759-ad1c-02ecbbdf2efd","Patterns"\:{}};
#NOTES:
0000
0000
0000
0000
,
0000
0000
0000
0000
,
0000
0000
0000
0000
,
0000
0000
0000
0000
,
0000
0000
0000
0000
0000
0000
0000
0000
0000
0000
0000
1001
0000
0000
0000
0000
,
0000
0000
0000
0000
,
0000
0000
0000
0000
,
0000
0000
0000
0000
,
0000
0000
0000
2002
0000
0000
0000
0000
0000
0000
0000
3003
0000
0000
0000
0000
,
1000
0000
1000
0000
,
0001
0000
0001
0000
,
0100
0000
0000
0000
0010
0000
0000
1000
0000
0001
0000
1000
0000
0000
0000
0000
,
0001
0010
0100
0000
,
1000
0000
1000
0000
,
0001
0000
0001
0000
,
0010
0000
0000
0000
0100
0000
0000
1000
0000
0001
0000
1000
0000
0000
0000
0000
,
0000
0000
0000
0000
0002
0000
0000
0000
2003
0000
0000
3100
0000
0000
0000
0000
,
0100
0000
0010
0000
,
0001
0000
0001
0000
,
0100
0000
0000
0000
0010
0000
0000
1000
0000
0010
0000
1000
0000
0000
0000
0000
,
0000
0000
0000
0000
2000
0000
0000
0000
3020
0000
0000
0130
0000
0000
0000
0000
,
0010
0100
0100
0000
,
0001
0100
0100
0000
,
0010
0000
0000
0000
1000
0000
0000
0001
0000
1000
0000
0001
0000
0000
0000
0000
,
0000
0000
0000
0000
0002
0000
0000
0000
0023
0000
0000
0130
0000
0000
0000
0000
,
0100
1000
1000
0000
,
0001
1000
1000
0000
,
0010
0000
0000
0000
1000
0000
0000
0001
0000
1000
0000
0001
0000
0000
0000
0000
,
0000
0000
0000
0000
0200
0000
0000
0000
0320
0000
0000
1030
0000
0000
0000
0000
,
0010
1000
1000
0000
,
0001
0010
0010
0000
,
0100
0000
0000
0000
0010
0000
0000
0001
0000
1000
0000
0001
0000
0000
0000
0000
,
0000
0000
0000
1001
,
0000
0000
0000
0000
0000
0000
0000
0000
0000
0000
0000
1001
0000
0000
0000
0000
,
0000
0000
0000
0000
0000
0000
0000
0000
0000
1000
0000
0100
0000
0000
0000
0000
,
0000
0000
0000
0000
0000
0000
0000
0000
0000
0000
0000
0110
0000
0000
0000
0000
,
0000
0000
0000
0000
0010
0000
0000
0001
0000
1000
0000
0001
0000
0000
0000
0000
,
0000
0000
0000
0000
1001
0000
0000
0000
0110
0000
0000
1000
0000
0000
0000
0000
,
0001
0000
0001
0000
,
1000
0000
1000
0000
,
0010
0000
0010
0000
,
0100
0000
0001
0000
,
1000
0000
0000
0000
0000
0001
0000
1000
,
0000
0100
0000
0100
0000
0000
0000
0000
0000
0000
0000
0000
0020
0000
0000
0000
,
0000
0000
0000
0030
0002
0000
0000
0000
0000
0000
0000
1003
0000
0000
0000
0000
,
1000
0000
0001
0000
2000
0000
0000
3001
0000
0000
0000
0000
0000
0000
0000
0000
,
0001
0100
0100
0000
,
0010
1000
0000
1000
,
0000
0000
0000
0000
0100
0000
0000
0000
0010
0000
0000
0001
0000
0000
0000
0001
,
0000
0000
0000
1001
0000
0000
0000
0000
0000
0000
0000
0000
0000
0000
0000
0000
,
1000
0100
0100
0000
,
1000
0001
0001
0000
,
1000
0010
0010
0000
,
0100
0010
0010
0000
,
1000
0000
1000
0000
,
0001
0000
0001
0000
,
0001
0000
0000
0000
1000
0000
0000
0100
0000
0010
0000
0100
0000
0000
0000
0000
,
0010
0000
0000
0000
0001
0000
0000
0000
0001
0000
0000
1000
0000
0000
0000
0000
,
0001
0000
1000
0000
,
0010
0010
0010
0000
,
1000
0000
0000
0000
0001
0000
0000
0100
0000
0001
0000
0100
0000
0000
0000
0000
,
0000
0000
0000
0000
0020
0000
0000
0000
2030
0000
0000
3001
0000
0000
0000
0000
,
1000
1000
0001
0000
,
1000
0001
0001
0000
,
0001
0000
0000
0000
0100
0000
0000
0010
0000
0100
0000
0010
0000
0000
0000
0000
,
0000
0000
0000
0000
2000
0000
0000
0000
3002
0000
0000
1003
0000
0000
0000
0000
,
0001
0001
0010
0000
,
0001
0100
0100
0000
,
0010
0000
0000
0000
1000
0000
0000
0010
0000
1000
0000
0010
0000
0000
0000
0000
,
0000
0000
0000
0000
0200
0000
0000
0000
0302
0000
0000
1003
0000
0000
0000
0000
,
0001
0010
0010
0000
,
0100
1000
1000
0000
,
0001
0000
0000
0000
1000
0000
0000
0010
0000
0100
0000
0010
0000
0000
0000
0000
;

//--------------- dance-single - HellKiteChaos ----------------
#NOTEDATA:;
#STEPSTYPE:dance-single;
#DESCRIPTION:HellKiteChaos;
#DIFFICULTY:Medium;
#METER:6;
#RADARVALUES:0,0,0,0,0;
#OFFSET:-0.068;
#BPMS:0.000=122.302
,17.000=124.302
,18.750=122.302
,35.000=119.500
,36.000=122.302
,72.000=122.000
,76.000=122.300
,136.750=121.300
,137.250=120.300
,137.750=122.300
,150.000=119.300
,152.000=123.300
,152.750=122.300
,194.750=124.300
,195.750=127.300
,196.750=138.300
,198.000=137.300
,199.000=122.300
,263.000=123.300
,263.250=122.300
;
#STOPS:131.000=0.123;
#SPEEDS:0.000=1.000=0.000=0;
#SCROLLS:0.000=1.000,
131.000=0.000,
134.000=1.000,
196.750=0.900,
199.000=1.000
;
#TICKCOUNTS:0.000=4;
#TIMESIGNATURES:0.000=4=4;
#LABELS:0.000=Song Start;
#COMBOS:0.000=1;
#DISPLAYBPM:122.000;
#CHARTNAME:;
#CHARTSTYLE:;
#CREDIT:;
#GAChartDataVersion:1;
#GAChartData:{"MusicOffset"\:0,"ShouldUseChartMusicOffset"\:false,"ExpressedChartConfig"\:"a19d532e-b0ce-4759-ad1c-02ecbbdf2efd","Patterns"\:{}};
#NOTES:
0000
0000
0000
0000
,
0000
0000
0000
0000
,
0000
0000
0000
0000
,
0000
0000
0000
0000
,
0000
0000
0000
0000
0000
0000
0000
0000
0000
0000
0000
1001
0000
0000
0000
0000
,
0000
0000
0000
0000
,
0000
0000
0000
0000
,
0000
0000
0000
0000
,
0000
0000
0000
2001
0000
0000
0000
0000
0000
0000
0000
3001
0000
0000
0000
0000
,
1000
0000
0010
0000
0210
0000
0000
0000
0301
0100
0000
0001
0000
0000
1000
0000
,
0010
0000
0000
0000
0100
0000
0001
0000
1000
0000
0000
0001
0000
0000
0100
0000
,
0010
0000
0000
0000
1000
0000
0000
0001
0000
0001
0000
1000
0000
0000
0001
0000
,
0010
0000
0000
0000
0011
0000
0000
0000
1100
0000
0000
0001
0000
0000
1000
0000
,
0100
0000
1000
0000
0002
0000
0000
0000
0003
1000
0000
1100
0000
0000
1000
0000
,
0001
0000
0000
0000
0100
0000
0010
0000
0100
0000
0000
0100
0000
0000
0001
0000
,
1000
0000
0000
0000
0001
0000
0000
0100
0000
0010
0000
1000
0000
0000
1000
0000
,
0010
0000
0000
0000
1010
0000
0000
0000
0101
0000
0000
0100
0000
0002
0000
0000
,
1003
0000
1000
0000
0001
0000
0000
0000
0100
0000
0000
0010
0000
0000
1000
0000
,
0010
0000
1000
0000
0001
0000
0000
0000
0010
0000
0000
0100
0000
0000
0010
0000
,
0100
0000
1000
0000
0001
0000
0000
1000
0000
0001
0000
1000
0000
0000
0000
0000
,
0010
0000
0010
0000
2000
0000
0000
0000
3002
0000
0000
0103
0000
0000
0010
0000
,
0100
0000
0001
0000
1000
0000
0000
0000
0001
0000
0000
0010
0000
0000
0000
0000
,
0100
0000
0010
0000
0001
0000
0000
0000
1000
0000
0000
0100
0000
0000
0000
0000
,
1000
0000
0001
0000
0100
0000
0000
0010
0000
0010
0000
1000
0000
0000
0000
0000
,
0010
0000
0100
0000
0002
0000
0000
0000
2003
0000
0000
3100
0000
0000
0000
0000
,
0100
0000
0010
0000
0001
0000
0000
0000
1000
0000
0000
0100
0000
0000
0000
0000
,
0100
0000
1000
0000
0001
0000
0000
0000
0100
0000
0000
0010
0000
0000
0000
0000
,
0100
0000
0010
0000
1000
0000
0000
0001
0000
1000
0000
0001
0000
0000
0000
0000
,
0100
0000
0001
0000
0002
0000
0000
0000
2003
0000
0000
3100
0000
0000
0000
0000
,
0100
0000
0010
0000
0100
0000
0000
0000
1000
0000
0000
0001
0000
0000
0000
0000
,
1000
0000
0001
0000
0100
0000
0000
0000
0010
0000
0000
1000
0000
0000
0000
0000
,
0010
0000
0100
0000
0001
0000
1000
0001
0000
1000
0000
0001
0000
0000
0000
0000
,
0010
0000
0001
0100
0010
0000
1001
0000
,
0000
0000
0000
0000
0000
0000
0000
0000
0000
0000
0000
1001
0000
0000
0000
0000
,
0000
0000
0000
0000
0000
0000
0000
0000
0000
1000
0000
1100
0000
0000
0000
0000
,
0000
0000
0000
0000
0000
0000
0000
0000
0000
0000
0000
0011
0000
0000
0000
0000
,
0000
0000
0000
0000
0001
0000
0000
1000
0000
0010
0000
0100
0000
0000
0000
0000
,
0000
0000
0000
0000
0100
0000
0000
0000
0010
0000
0000
0110
0000
0000
0000
0000
,
0001
0000
1000
0000
0100
0000
0000
1000
0000
0001
0000
1000
0000
0000
0010
0000
,
0100
0000
0000
0000
0001
0000
0000
1000
0000
0010
0000
1000
0000
0000
0001
0000
,
0010
0000
0000
0000
0001
0000
0000
1000
0000
0100
0000
1000
0000
0000
0001
0000
,
0010
0000
0000
0000
0100
0000
0000
0010
0000
0100
0000
1000
0000
0000
0000
0000
,
1100
0000
0000
1001
0000
0000
0000
0000
0000
0000
0001
0000
0000
0000
0100
0000
,
0000
0001
0000
1000
0000
0000
0000
0000
0000
0000
0000
0000
0000
0000
0000
0000
,
0000
0000
0000
1100
0000
0000
0000
0000
0000
0000
0000
1001
0000
0000
0000
0000
,
0001
0000
0100
0000
0120
0000
0000
1030
0000
0000
0000
0001
0000
0000
0000
0000
,
1000
0000
0100
0000
1000
0000
0000
0001
0000
0100
0000
0001
0000
0100
0000
0000
,
0000
0000
0000
0000
0010
0000
0000
0000
0000
0000
0000
1000
0000
0001
0000
0000
,
0000
0000
0000
0000
1000
0000
0000
0100
0000
0010
0000
0001
0000
0000
0000
1000
,
0000
0000
0000
0001
0000
0000
0000
0000
0000
0000
0000
1000
0000
0000
0000
0000
,
0001
0000
0000
0000
0100
0000
0000
0010
0000
0100
0000
0010
0000
0000
0000
0000
,
1000
0000
0000
0000
0001
0000
0000
1000
0000
0001
0000
1000
0000
0000
0000
0000
,
0100
0000
0000
0000
0010
0000
0000
0001
0000
0010
0000
0001
0000
0000
0000
0000
,
1000
0000
0000
0000
0001
0000
0000
0100
0000
0001
0000
0100
0000
0000
0000
0000
,
0010
0000
0000
0000
1000
0000
0000
0000
0000
0001
0000
1000
0000
0000
0000
0000
,
0010
0000
0000
0000
0100
0000
0000
0000
0001
0000
0000
1000
0000
0000
0000
0000
,
0001
0000
0000
0000
0010
0000
0000
0100
0000
0010
0000
0100
0000
0000
0000
0000
,
1000
0000
0000
0000
0001
0000
0000
0000
0100
0000
0000
0010
0000
0000
1000
0000
,
0010
0000
0000
0000
0100
0000
0000
0000
0001
0000
0000
1000
0000
0000
0000
0000
,
0001
0000
0010
0000
0001
0000
0000
0000
1000
0000
0000
0100
0000
0000
0000
0000
,
1000
0000
0100
0000
1000
0000
0000
0001
0000
0100
0000
0001
0000
0000
0000
0000
,
0100
0000
0000
0000
0020
0000
0000
0000
2030
0000
0000
3001
0000
0000
0000
0000
,
0100
0000
0010
0000
0020
0000
0000
0000
1030
0000
0000
0001
0000
0000
0000
0000
,
1000
0000
0100
0000
0020
0000
0000
0000
0031
0000
0000
1000
0000
0000
0000
0000
,
0010
0000
1000
0000
0010
0000
0000
0100
0000
0100
0000
0001
0000
0000
0000
0000
,
1000
0000
0001
0000
2000
0000
0000
0000
3020
0000
0000
0130
0000
0000
0000
0000
,
0010
0000
1000
0000
2000
0000
0000
0000
3001
0000
0000
0001
0000
0000
0000
0000
,
0010
0000
0001
0000
0002
0000
0000
0000
1003
0000
0000
1000
0000
0000
0000
0000
,
0010
0000
0000
0000
1000
0000
0000
0001
0000
1000
0000
0001
0000
0000
0000
0000
,
1000
0000
1000
0000
0020
0000
0000
0000
0130
0000
0000
0100
0000
0000
0000
0000
,
0010
0000
0100
0000
0010
0000
0000
0000
1000
0000
0000
0001
0000
0000
0000
0000
,
0010
0000
0100
0000
1000
0000
0000
0000
0001
0000
0000
1000
0000
0000
0000
0000
,
0010
0000
1000
0000
0001
0000
0000
1000
0000
0100
0000
0010
0000
0000
0000
0000
;

//--------------- dance-single - HellKiteChaos ----------------
#NOTEDATA:;
#STEPSTYPE:dance-single;
#DESCRIPTION:HellKiteChaos;
#DIFFICULTY:Hard;
#METER:8;
#RADARVALUES:0,0,0,0,0;
#OFFSET:-0.068;
#BPMS:0.000=122.302
,17.000=124.302
,18.750=122.302
,35.000=119.500
,36.000=122.302
,72.000=122.000
,76.000=122.300
,136.750=121.300
,137.250=120.300
,137.750=122.300
,150.000=119.300
,152.000=123.300
,152.750=122.300
,194.750=124.300
,195.750=127.300
,196.750=138.300
,198.000=137.300
,199.000=122.300
,263.000=123.300
,263.250=122.300
;
#STOPS:131.000=0.123;
#SPEEDS:0.000=1.000=0.000=0;
#SCROLLS:0.000=1.000,
131.000=0.000,
134.000=1.000,
196.750=0.900,
199.000=1.000
;
#TICKCOUNTS:0.000=4;
#TIMESIGNATURES:0.000=4=4;
#LABELS:0.000=Song Start;
#COMBOS:0.000=1;
#DISPLAYBPM:122.000;
#CHARTNAME:;
#CHARTSTYLE:;
#CREDIT:;
#GAChartDataVersion:1;
#GAChartData:{"MusicOffset"\:0,"ShouldUseChartMusicOffset"\:false,"ExpressedChartConfig"\:"a19d532e-b0ce-4759-ad1c-02ecbbdf2efd","Patterns"\:{}};
#NOTES:
0000
0000
0000
0000
,
0000
0000
0000
0000
,
0000
0000
0000
0000
,
0000
0000
0000
0000
,
0000
0000
0000
0000
0000
0000
0000
0000
0000
0000
0000
1001
0000
1000
0000
0000
,
0010
0000
0000
0001
0000
0001
0000
0000
0100
0000
0000
1000
0000
1000
0000
0000
,
0100
0000
0000
0001
0000
0001
0000
0000
0100
0000
0000
1000
0000
1000
0000
0000
,
0010
0000
0000
0001
0000
0001
0000
0000
0010
0000
0000
1000
0000
1000
0000
0000
,
0010
0000
0000
1002
0000
0000
0000
0000
0000
0000
0000
0103
0000
0000
0010
1000
,
0010
0000
1000
0000
0002
0000
0000
0000
0000
0103
0000
0110
0000
0000
0010
0000
,
1000
0000
0010
0000
0100
0000
0001
0000
1000
0000
0001
1000
0000
0000
0100
0000
,
1000
0000
0001
0000
0010
0000
0100
0010
0000
0100
0000
0010
0000
0000
0100
0000
,
1000
0000
0001
0000
1000
0010
1000
0000
0001
0100
0001
1000
0000
0000
0001
0000
,
0100
0000
0001
0000
2000
0000
0000
0000
0000
3100
0000
1100
0000
0000
0100
0000
,
0010
0000
0001
0000
1000
0000
0010
0000
0100
0000
0001
1000
0000
0000
0001
0000
,
0010
0000
0001
0000
0100
0000
0010
1000
0000
0010
0000
0100
0000
0000
0010
0000
,
0100
0000
0001
0000
1000
0001
1000
0000
0010
0100
0010
0100
0000
0210
0000
0000
,
0310
0000
1000
0000
0002
0000
0000
0000
2003
0000
0000
3100
0000
0000
0010
0000
,
0100
0000
0010
0000
0002
0000
0000
0000
2003
0000
0000
3010
0000
0000
0100
0000
,
0010
0000
1000
0000
0001
0000
0010
0001
0000
1000
0000
0001
0000
0000
1000
0000
,
0010
0000
0100
0000
0102
0000
0000
0000
0203
0000
0000
0310
0000
0000
0000
0000
,
0010
1000
0010
0100
0001
1000
0100
0000
,
0100
0010
0100
1000
0001
0100
0010
0000
,
0100
0000
0010
0000
1000
0000
0001
1000
0000
0001
0000
0100
0000
0000
0000
0000
,
0010
0000
0100
0000
0102
0000
0000
0000
2003
0000
0000
3001
0000
0000
0000
0000
,
0001
0000
0010
0000
0100
0000
1000
0000
0001
1000
0000
0001
0000
0000
0000
0000
,
1000
0000
0001
0000
0100
0000
0010
0000
1000
0000
0010
0100
0000
0000
0000
0000
,
0010
0000
0100
0000
0001
1000
0000
0001
0000
1000
0000
0100
0000
0000
0000
0000
,
0010
0000
0001
0000
2000
0000
0000
0000
3200
0000
0000
0310
0000
0000
0000
0000
,
0010
0000
0001
0000
0002
0000
0003
0000
1000
0010
0000
0010
0000
0000
0000
0000
,
0100
0000
0010
0000
2000
0000
3000
0000
0001
0100
0000
0100
0000
0000
0000
0000
,
0010
0000
0100
0000
0001
0000
1000
0001
0000
1000
0000
1100
0000
0000
0000
0000
,
0100
1000
1100
0001
0100
0010
0110
0000
,
0000
0000
0000
0000
0000
0000
0000
0000
0000
0000
0000
0101
0000
0000
0000
0000
,
0000
0000
0000
0000
0000
0000
0000
0000
0000
0101
0000
1010
0000
0000
0000
0000
,
0000
0000
0000
0000
0000
0000
0000
0000
0000
0000
0000
1100
0000
0000
0000
0000
,
0000
0000
0000
0000
0011
0000
0001
1000
0000
0001
0000
0100
0000
0000
0000
0000
,
0000
0000
0000
0000
0010
1000
0010
0000
0100
0001
0100
0001
0000
0000
0001
0000
,
1000
0000
0000
0000
0100
0010
0000
0010
0000
0001
0000
0001
0000
0000
1000
0000
,
0010
0000
0100
0000
0001
1000
0000
0010
0000
1000
0000
1000
0000
0000
0100
0000
,
0010
0000
0100
0000
1000
0100
0000
0010
0000
0001
0000
0100
0000
0000
0010
0000
,
1000
0000
0010
0000
0100
0010
0000
1000
0000
0001
0000
0100
0000
0000
0010
0000
,
1000
0000
0001
0000
0100
0000
0000
0000
0000
0000
0010
0100
0010
0000
1000
0001
,
0000
0010
0000
0100
0000
0000
0000
0000
1001
0000
0000
0000
1000
0000
0010
0000
,
0100
0001
1000
0000
0100
0010
0001
0000
,
0011
0000
0010
0000
0002
0000
0000
0103
0000
0000
0000
1001
0000
0000
0000
0000
,
1000
0000
0100
0000
1000
0000
0100
0010
0000
0010
0000
0100
0000
0100
0000
0000
,
0000
0000
0000
0000
0000
0000
1000
0000
0000
0000
0000
0000
0001
0000
0000
0000
1000
0000
0000
0000
0100
0000
0000
0000
0010
0000
0000
0000
0001
0000
0000
0000
0000
1000
0000
0000
0000
0000
0000
1000
0000
0000
0000
0000
0000
0001
0000
0000
,
0100
0000
0000
0000
0110
0000
0100
0010
0000
1000
0000
0001
0000
0000
0000
1001
,
0000
0000
0000
0000
0000
0000
2000
0000
0000
0000
0000
0000
0000
0000
3000
0002
0000
0000
0000
0000
0000
0000
0103
0000
0000
0000
0000
0000
0010
0000
0000
0000
,
0100
0000
0001
0000
1000
0010
0000
0010
0000
0100
0000
0100
0000
0000
0001
0000
,
1000
0000
0001
0000
0010
0001
0000
0001
0000
1000
0000
1000
0000
0000
0100
0000
,
0010
0000
0100
0000
1000
0001
0000
0001
0000
0100
0000
0100
0000
0000
0010
0000
,
0100
0000
0001
0000
1000
0001
0000
1000
0000
1000
0000
0100
0000
0000
0000
0000
,
0110
0000
0000
0000
0002
0000
0000
0000
0000
1003
0000
1100
0000
0000
0000
0000
,
1000
0000
0100
0000
1000
0000
0001
0000
0100
0000
0010
0100
0000
0000
0000
0000
,
0100
0000
0010
0000
0100
0000
0010
1000
0000
0001
0000
1001
0000
0000
0000
0000
,
0001
0000
0100
0000
0010
1000
0010
0000
0100
0001
0100
0001
0000
0000
1000
0000
,
0100
0000
0010
0000
0002
0000
0000
0000
2003
0000
0000
3001
0000
0000
0000
0000
,
0001
0000
0010
0000
0200
0000
0000
0000
2300
0000
0000
3001
0000
0000
0000
0000
,
0100
0000
0010
0000
1000
0000
0001
0100
0000
0100
0000
0010
0000
0000
0000
0000
,
0100
0000
0001
0000
1002
0000
0000
0000
2003
0000
0000
3100
0000
0000
0000
0000
,
0100
0000
0001
0000
0200
0000
0000
0000
2300
0000
0000
3001
0000
0000
0000
0000
,
0100
0000
1000
0000
0200
0000
0000
0000
0302
0000
0000
1003
0000
0000
0000
0000
,
0100
0000
0010
0000
0001
0000
0100
0010
0000
1000
0000
0100
0000
0000
0000
0000
,
0010
0000
0001
0000
2001
0000
0000
0000
3020
0000
0000
0130
0000
0000
0000
0000
,
0010
0000
0100
0000
0001
0000
0100
0000
0010
1000
0000
1000
0000
0000
0000
0000
,
0010
0000
0100
0000
0001
0000
0100
0000
0010
1000
0000
1000
0000
0000
0000
0000
,
0001
0000
0010
0000
0100
0000
1000
0001
0000
1000
0000
0001
0000
0000
0000
0000
,
0010
0000
0100
0000
2100
0000
0000
0000
3002
0000
0000
0103
0000
0000
0000
0000
,
0010
0000
1000
0000
0010
0000
0100
0000
0001
1000
0000
0001
0000
0000
0000
0000
,
1000
0000
0100
0000
0010
0000
0001
0000
0100
0010
0000
0010
0000
0000
0000
0000
,
1000
0000
0001
0000
0010
0000
0100
1000
0000
0001
0000
1001
0000
0000
0000
0000
;

//--------------- dance-single - HellKiteChaos ----------------
#NOTEDATA:;
#STEPSTYPE:dance-single;
#DESCRIPTION:HellKiteChaos;
#DIFFICULTY:Challenge;
#METER:10;
#RADARVALUES:0,0,0,0,0;
#OFFSET:-0.068;
#BPMS:0.000=122.302
,17.000=124.302
,18.750=122.302
,35.000=119.500
,36.000=122.302
,72.000=122.000
,76.000=122.300
,136.750=121.300
,137.250=120.300
,137.750=122.300
,150.000=119.300
,152.000=123.300
,152.750=122.300
,194.750=124.300
,195.750=127.300
,196.750=138.300
,198.000=137.300
,199.000=122.300
,263.000=123.300
,263.250=122.300
;
#STOPS:131.000=0.123;
#SPEEDS:0.000=1.000=0.000=0;
#SCROLLS:0.000=1.000,
131.000=0.000,
134.000=1.000,
196.750=0.900,
199.000=1.000
;
#TICKCOUNTS:0.000=4;
#TIMESIGNATURES:0.000=4=4;
#LABELS:0.000=Song Start;
#COMBOS:0.000=1;
#DISPLAYBPM:122.000;
#CHARTNAME:;
#CHARTSTYLE:;
#CREDIT:;
#GAChartDataVersion:1;
#GAChartData:{"MusicOffset"\:0,"ShouldUseChartMusicOffset"\:false,"ExpressedChartConfig"\:"a19d532e-b0ce-4759-ad1c-02ecbbdf2efd","Patterns"\:{}};
#NOTES:
0000
0000
0000
0000
,
0000
0000
0000
0000
,
0000
0000
0000
0000
,
0000
0000
0000
0000
,
0000
0000
0000
0000
0000
0000
0000
0000
0000
0000
0000
1001
0000
1000
0000
0000
,
0010
0000
0000
0001
0000
0001
0000
0000
0100
0000
0000
1000
0000
1000
0000
0000
,
0100
0000
0000
0001
0000
0001
0000
0000
0100
0000
0000
1000
0000
1000
0000
0000
,
0010
0000
0000
0001
0000
0001
0000
0000
0010
0000
0000
1000
0000
1000
0000
0000
,
0010
0000
0000
2001
0000
0000
0000
0000
0000
0000
0000
3001
0000
0000
1000
0010
,
1000
0000
0001
0000
0102
0000
0000
0000
1003
0001
0000
1001
0000
0001
0100
0001
,
1000
0000
0001
0010
0001
1000
0001
0000
0100
0010
0000
0110
0000
0010
1000
0010
,
0100
0000
0100
0000
0110
0000
0100
0001
0000
0101
0000
1010
0000
0000
0010
0000
,
1000
0000
0001
0000
1000
0100
1000
0100
0010
0001
0100
0001
0000
0100
0010
1000
,
0001
0000
0100
0000
0020
0000
0000
0000
0000
0130
0000
0101
0000
0000
0001
0000
,
0100
0000
0010
0000
1000
0010
1000
0000
1010
0000
0000
0001
0000
0000
1000
0001
,
0010
0000
0100
0000
1100
0000
0001
0010
0000
0110
0000
1100
0000
0100
0100
0000
,
1000
1000
0000
0000
0001
0100
0010
1000
0001
0010
0100
0010
0000
0210
0000
0000
,
0310
0000
0100
0000
2000
0000
0000
0000
3001
0000
0000
0101
0000
0000
0100
0000
,
0010
0000
1000
0000
0002
0000
0000
0000
1003
0000
0000
1100
0000
0000
0100
0000
,
0010
0000
0001
0000
1000
0000
0010
0100
0000
0001
0000
1000
0000
0000
0001
0000
,
1000
0000
0100
0000
0120
0000
0000
0000
0031
0000
0000
1001
0000
0000
0001
0000
,
1000
0000
0010
0000
0200
0000
0000
0000
0301
0000
0000
1001
0000
0000
1000
0000
,
0001
0000
0010
0000
0200
0000
0000
0000
1300
0000
0000
1001
0000
0000
0000
0001
,
0100
0000
1000
0000
0100
0000
0001
1000
0000
0001
0000
1000
0000
0000
0000
0100
,
0010
0000
0001
0000
1002
0000
0000
0000
0103
0000
0000
0110
0000
0000
0000
0010
,
0100
0000
0010
0000
1000
0000
0001
0000
1000
0100
0000
1100
0000
0000
0000
0100
,
1000
0000
0100
0000
0010
0000
0001
0000
1000
0100
0000
1100
0000
0000
0000
1000
,
0100
0000
0010
0000
0100
0010
0000
0001
0000
1000
0000
0001
0000
0000
0100
0000
,
0010
0000
1000
0000
0002
0000
0000
0000
0103
0000
0000
0110
0000
0000
0000
0010
,
0100
0000
1000
0000
0100
0000
0010
0000
1000
0001
0000
0010
0000
0000
0000
0010
,
0100
0000
0001
0000
0100
0000
0010
0000
0001
1000
0000
0010
0000
1000
0000
1000
,
0001
0000
0010
0000
0100
0000
1000
0010
0000
0010
0000
0100
0000
0000
0000
0010
,
0100
0000
0001
0000
1000
0001
0100
0000
0010
1000
0001
0000
1001
0000
0000
0000
,
0000
0000
0000
0000
0000
0000
0000
0000
0000
0000
0000
1001
0000
0000
0000
0000
,
0000
0000
0000
0000
0000
0000
0000
0000
0000
0101
0000
1100
0000
0000
0000
0000
,
0000
0000
0000
0000
0000
0000
0000
0000
0000
0000
0000
0011
0000
0000
0000
0000
,
0000
0000
0000
0000
1001
0000
1000
0100
0000
0010
0000
1001
0000
0000
0000
0000
,
0000
0000
0000
0000
1000
0010
1000
0000
0001
0100
0001
1000
0000
0001
1000
0100
,
1000
0001
1000
0100
0010
0001
0000
1000
0000
0100
0000
1000
0000
0001
0100
0001
,
1000
0001
0100
0000
0010
1000
0000
1000
0000
0100
0000
0010
0000
0001
0010
0001
,
1000
0001
0010
0100
1000
0001
0000
0100
0000
0010
0000
1000
0000
0010
1000
0001
,
1000
0010
1000
0001
0100
0010
0000
1000
0000
0100
0000
0010
0000
0001
0010
0001
,
0010
0001
1000
0100
0000
0000
0000
0000
0000
0000
0010
0001
0010
0000
0100
1000
,
0000
1000
0000
0001
1000
0010
0000
0100
0010
0000
0000
1000
0001
0100
0001
0100
,
0010
1000
0001
0010
0000
0100
0010
0001
1000
0001
1000
0100
0000
0000
0000
0000
,
0100
0000
0010
0000
0020
0000
0000
0031
0000
0000
0000
1001
0000
0000
0000
0000
,
0001
0000
0100
0000
0010
0000
1000
0001
0000
0010
0000
0100
0000
1000
0000
0000
,
0000
0000
0000
0000
0000
0000
0100
0000
0000
1000
0000
0000
0001
0000
0000
0000
0100
0000
0000
0000
0010
0000
0000
0000
0100
0000
0000
0000
0001
0000
0000
0000
0000
0010
0000
0000
0000
0000
0000
0100
0000
0000
0000
0000
0000
0100
0000
0000
,
1000
0000
0001
0000
0001
0000
0100
0010
0000
1010
0000
1001
0000
0000
0000
1001
,
0000
0000
0000
0000
0000
0000
1100
0000
0000
0000
0000
0000
0000
0000
0000
0011
0000
0000
0000
0000
0000
0000
1001
0000
0000
0000
0000
0000
1000
0000
0001
0000
,
0100
0001
1000
0100
0010
0001
0000
0100
0000
0010
0000
1000
0000
0001
0100
0001
,
1000
0100
1000
0000
0001
0010
0000
0010
0000
0100
0000
1000
0000
0001
0010
0001
,
1000
0010
0100
0001
1000
0100
0000
0010
0000
0001
0000
1000
0000
0010
1000
0001
,
0010
0100
1000
0010
0100
0001
0000
0010
0000
0100
0000
0010
0000
0000
0000
0000
,
0100
0000
1000
0000
0002
0000
0000
0000
0000
1003
0000
1100
0000
0000
0000
0000
,
0010
0000
0001
0000
1000
0000
0010
0010
0000
0100
0000
0110
0000
0000
0100
0001
,
0100
0000
0010
0000
1000
0000
0001
0010
0000
0100
0000
0110
0000
0100
0000
1000
,
0100
0000
0010
0000
0001
0010
0001
0001
1000
0010
1000
1000
0000
0001
0000
0100
,
0010
0000
1000
0000
0002
0000
0000
2003
0000
0000
0000
3100
0000
0000
0010
0000
,
0001
0000
1000
0000
0020
0000
0000
0000
0230
0000
0000
0301
0000
0000
1000
0000
,
0010
0000
1000
0000
0001
0000
0010
0001
0000
0010
0000
0100
0000
0100
0000
0100
,
1000
0000
0001
0000
2000
0000
0000
0000
3010
0000
0000
0110
0000
0000
0000
0010
,
0100
0000
0010
0000
2000
0000
0000
0000
3001
0000
0000
1000
0000
0000
0000
1000
,
0001
0000
0100
0000
2000
0000
0000
0000
3100
0000
0000
0110
0000
0000
0000
0010
,
1000
0000
0010
0000
0001
0000
0010
0100
0000
0010
0000
1000
0000
0001
0000
0001
,
0100
0000
0010
0000
1020
0000
0000
0000
0130
0000
0000
0101
0000
0001
0000
0001
,
1000
0000
0100
0000
0020
0000
0000
0030
0001
0010
0000
0011
0000
0000
0001
0000
,
1000
0000
0001
0000
0200
0000
0000
0300
0010
1000
0000
1010
0000
0000
0000
0000
,
0010
0000
0100
0000
0010
0000
1000
0001
0000
1000
0000
0001
0000
0000
0000
0000
,
0100
0000
0010
0000
2010
0000
0000
0000
3001
0000
0000
0011
0000
0010
0000
0010
,
0100
0000
1000
0000
0002
0000
0000
0000
0103
0010
0000
0100
0000
0000
0010
0000
,
0100
0000
0001
0000
2000
0000
0000
0000
3100
0010
0000
0100
0000
0000
0000
0000
,
0100
0000
1000
0000
0001
0000
1000
0001
0000
0100
0000
0110
0000
0000
0000
0000
;

//--------------- dance-double - HellKiteChaos ----------------
#NOTEDATA:;
#STEPSTYPE:dance-double;
#DESCRIPTION:HellKiteChaos;
#DIFFICULTY:Easy;
#METER:3;
#RADARVALUES:0,0,0,0,0;
#OFFSET:-0.068;
#BPMS:0.000=122.302
,17.000=124.302
,18.750=122.302
,35.000=119.500
,36.000=122.302
,72.000=122.000
,76.000=122.300
,136.750=121.300
,137.250=120.300
,137.750=122.300
,150.000=119.300
,152.000=123.300
,152.750=122.300
,194.750=124.300
,195.750=127.300
,196.750=138.300
,198.000=137.300
,199.000=122.300
,263.000=123.300
,263.250=122.300
;
#STOPS:131.000=0.123;
#SPEEDS:0.000=1.000=0.000=0;
#SCROLLS:0.000=1.000,
131.000=0.000,
134.000=1.000,
196.750=0.900,
199.000=1.000
;
#TICKCOUNTS:0.000=4;
#TIMESIGNATURES:0.000=4=4;
#LABELS:0.000=Song Start;
#COMBOS:0.000=1;
#DISPLAYBPM:122.000;
#CHARTNAME:;
#CHARTSTYLE:;
#CREDIT:;
#GAChartDataVersion:1;
#GAChartData:{"MusicOffset"\:0,"ShouldUseChartMusicOffset"\:false,"ExpressedChartConfig"\:"a19d532e-b0ce-4759-ad1c-02ecbbdf2efd","Patterns"\:{}};
#NOTES:
00000000
00000000
00000000
00000000
,
00000000
00000000
00000000
00000000
,
00000000
00000000
00000000
00000000
,
00000000
00000000
00000000
00000000
,
00000000
00000000
00000000
00000000
00000000
00000000
00000000
00000000
00000000
00000000
00000000
00011000
00000000
00000000
00000000
00000000
,
00000000
00000000
00000000
00000000
,
00000000
00000000
00000000
00000000
,
00000000
00000000
00000000
00000000
,
00000000
00000000
00000000
00022000
00000000
00000000
00000000
00000000
00000000
00000000
00000000
00033000
00000000
00000000
00000000
00000000
,
00010000
00000000
00010000
00000000
,
00001000
00000000
00001000
00000000
,
01000000
00000000
00000000
00000000
00010000
00000000
00000000
00100000
00000000
01000000
00000000
00100000
00000000
00000000
00000000
00000000
,
01000000
10000000
00100000
00000000
,
01000000
00000000
01000000
00000000
,
00010000
00000000
00010000
00000000
,
00100000
00000000
00000000
00000000
00001000
00000000
00000000
00010000
00000000
00000100
00000000
00010000
00000000
00000000
00000000
00000000
,
00000000
00000000
00000000
00000000
00000200
00000000
00000000
00000000
00002300
00000000
00000000
00003010
00000000
00000000
00000000
00000000
,
00000010
00000000
00001000
00000000
,
00000100
00000000
00000100
00000000
,
00000010
00000000
00000000
00000000
00000001
00000000
00000000
00000100
00000000
00000001
00000000
00000100
00000000
00000000
00000000
00000000
,
00000000
00000000
00000000
00000000
00000200
00000000
00000000
00000000
00000302
00000000
00000000
00001003
00000000
00000000
00000000
00000000
,
00000001
00001000
00001000
00000000
,
00000100
00001000
00001000
00000000
,
00000010
00000000
00000000
00000000
00010000
00000000
00000000
00001000
00000000
00010000
00000000
00001000
00000000
00000000
00000000
00000000
,
00000000
00000000
00000000
00000000
00002000
00000000
00000000
00000000
00203000
00000000
00000000
00310000
00000000
00000000
00000000
00000000
,
00010000
10000000
10000000
00000000
,
00100000
10000000
10000000
00000000
,
01000000
00000000
00000000
00000000
10000000
00000000
00000000
00100000
00000000
10000000
00000000
00100000
00000000
00000000
00000000
00000000
,
00000000
00000000
00000000
00000000
02000000
00000000
00000000
00000000
03020000
00000000
00000000
00130000
00000000
00000000
00000000
00000000
,
00010000
00100000
00100000
00000000
,
00001000
01000000
01000000
00000000
,
00010000
00000000
00000000
00000000
01000000
00000000
00000000
00001000
00000000
00010000
00000000
00001000
00000000
00000000
00000000
00000000
,
00000000
00000000
00000000
00011000
,
00000000
00000000
00000000
00000000
00000000
00000000
00000000
00000000
00000000
00000000
00000000
00011000
00000000
00000000
00000000
00000000
,
00000000
00000000
00000000
00000000
00000000
00000000
00000000
00000000
00000000
00010000
00000000
00000100
00000000
00000000
00000000
00000000
,
00000000
00000000
00000000
00000000
00000000
00000000
00000000
00000000
00000000
00000000
00000000
00001100
00000000
00000000
00000000
00000000
,
00000000
00000000
00000000
00000000
00001000
00000000
00000000
00000100
00000000
00000010
00000000
00000100
00000000
00000000
00000000
00000000
,
00000000
00000110
00001001
00000000
,
00000001
00000000
00000010
00000100
,
00001000
00000000
00001000
00000000
,
00000100
00001000
00000100
00000000
,
00010000
00000000
00001000
00001000
,
01000000
00000000
00001000
00000000
00000000
00001000
00000000
01000000
,
00000000
00010000
00000000
00010000
00000000
00000000
00000000
00000000
00000000
00000000
00000000
00000000
00200000
00000000
00000000
00000000
,
00000000
00000000
00000000
00300000
00002000
00000000
00000000
00000000
00000000
00000000
00000000
00013000
00000000
00000000
00000000
00000000
,
00010000
00000000
00001000
00000000
00020000
00000000
00000000
00031000
00000000
00000000
00000000
00000000
00000000
00000000
00000000
00000000
,
00001000
01000000
01000000
00000000
,
00010000
00100000
00000000
00100000
,
00000000
00000000
00000000
00000000
00001000
00000000
00000000
00000000
00010000
00000000
00000000
00000010
00000000
00000000
00000000
00000010
,
00000000
00000000
00000000
00001010
00000000
00000000
00000000
00000000
00000000
00000000
00000000
00000000
00000000
00000000
00000000
00000000
,
00001000
00000100
00000100
00000000
,
00001000
00000001
00000001
00000000
,
00001000
00000010
00000010
00000000
,
00001000
00000100
00000100
00000000
,
00001000
00000000
00001000
00000000
,
00000001
00000000
00000001
00000000
,
00000001
00000000
00000000
00000000
00001000
00000000
00000000
00000100
00000000
00010000
00000000
00000100
00000000
00000000
00000000
00000000
,
00010000
00000000
00000000
00000000
00001000
00000000
00000000
00000000
00001000
00000000
00000000
01000000
00000000
00000000
00000000
00000000
,
00001000
00000000
01000000
00000000
,
00010000
00010000
00010000
00000000
,
01000000
00000000
00000000
00000000
00100000
00000000
00000000
10000000
00000000
00100000
00000000
10000000
00000000
00000000
00000000
00000000
,
00000000
00000000
00000000
00000000
02000000
00000000
00000000
00000000
03200000
00000000
00000000
00310000
00000000
00000000
00000000
00000000
,
00100000
00100000
00010000
00000000
,
00100000
00010000
00010000
00000000
,
00010000
00000000
00000000
00000000
01000000
00000000
00000000
00001000
00000000
01000000
00000000
00001000
00000000
00000000
00000000
00000000
,
00000000
00000000
00000000
00000000
00020000
00000000
00000000
00000000
00030200
00000000
00000000
00010300
00000000
00000000
00000000
00000000
,
00000100
00000100
00001000
00000000
,
00000100
00000010
00000010
00000000
,
00000001
00000000
00000000
00000000
00000100
00000000
00000000
00000001
00000000
00000100
00000000
00000001
00000000
00000000
00000000
00000000
,
00000000
00000000
00000000
00000000
00000020
00000000
00000000
00000000
00000230
00000000
00000000
00001300
00000000
00000000
00000000
00000000
,
00000100
00010000
00010000
00000000
,
00001000
01000000
01000000
00000000
,
00010000
00000000
00000000
00000000
01000000
00000000
00000000
00100000
00000000
10000000
00000000
00100000
00000000
00000000
00000000
00000000
;

//--------------- dance-double - HellKiteChaos ----------------
#NOTEDATA:;
#STEPSTYPE:dance-double;
#DESCRIPTION:HellKiteChaos;
#DIFFICULTY:Medium;
#METER:6;
#RADARVALUES:0,0,0,0,0;
#OFFSET:-0.068;
#BPMS:0.000=122.302
,17.000=124.302
,18.750=122.302
,35.000=119.500
,36.000=122.302
,72.000=122.000
,76.000=122.300
,136.750=121.300
,137.250=120.300
,137.750=122.300
,150.000=119.300
,152.000=123.300
,152.750=122.300
,194.750=124.300
,195.750=127.300
,196.750=138.300
,198.000=137.300
,199.000=122.300
,263.000=123.300
,263.250=122.300
;
#STOPS:131.000=0.123;
#SPEEDS:0.000=1.000=0.000=0;
#SCROLLS:0.000=1.000,
131.000=0.000,
134.000=1.000,
196.750=0.900,
199.000=1.000
;
#TICKCOUNTS:0.000=4;
#TIMESIGNATURES:0.000=4=4;
#LABELS:0.000=Song Start;
#COMBOS:0.000=1;
#DISPLAYBPM:122.000;
#CHARTNAME:;
#CHARTSTYLE:;
#CREDIT:;
#GAChartDataVersion:1;
#GAChartData:{"MusicOffset"\:0,"ShouldUseChartMusicOffset"\:false,"ExpressedChartConfig"\:"a19d532e-b0ce-4759-ad1c-02ecbbdf2efd","Patterns"\:{}};
#NOTES:
00000000
00000000
00000000
00000000
,
00000000
00000000
00000000
00000000
,
00000000
00000000
00000000
00000000
,
00000000
00000000
00000000
00000000
,
00000000
00000000
00000000
00000000
00000000
00000000
00000000
00000000
00000000
00000000
00000000
00011000
00000000
00000000
00000000
00000000
,
00000000
00000000
00000000
00000000
,
00000000
00000000
00000000
00000000
,
00000000
00000000
00000000
00000000
,
00000000
00000000
00000000
00021000
00000000
00000000
00000000
00000000
00000000
00000000
00000000
00031000
00000000
00000000
00000000
00000000
,
00010000
00000000
00000100
00000000
00002100
00000000
00000000
00000000
00003000
00000010
00000000
00000010
00000000
00000000
00000100
00000000
,
00000001
00000000
00000000
00000000
00001000
00000000
00000100
00000000
00010000
00000000
00000000
00000100
00000000
00000000
00001000
00000000
,
00000010
00000000
00000000
00000000
00010000
00000000
00000000
00001000
00000000
00001000
00000000
00010000
00000000
00000000
00001000
00000000
,
00100000
00000000
00000000
00000000
00101000
00000000
00000000
00000000
00110000
00000000
00000000
00100000
00000000
00000000
00010000
00000000
,
00010000
00000000
01000000
00000000
00200000
00000000
00000000
00000000
00300000
01000000
00000000
01000000
00000000
00000000
00010000
00000000
,
10000000
00000000
00000000
00000000
10000000
00000000
01000000
00000000
10000000
00000000
00000000
10000000
00000000
00000000
00010000
00000000
,
01000000
00000000
00000000
00000000
00010000
00000000
00000000
00100000
00000000
00001000
00000000
00010000
00000000
00000000
00010000
00000000
,
00001000
00000000
00000000
00000000
00011000
00000000
00000000
00000000
00010010
00000000
00000000
00001000
00000000
00000020
00000000
00000000
,
00001030
00000000
00001000
00000000
00000010
00000000
00000000
00000000
00000100
00000000
00000000
00000001
00000000
00000000
00001000
00000000
,
00000001
00000000
00001000
00000000
00000100
00000000
00000000
00000000
00001000
00000000
00000000
00000010
00000000
00000000
00001000
00000000
,
00000100
00000000
00010000
00000000
00001000
00000000
00000000
00010000
00000000
00010000
00000000
00001000
00000000
00000000
00000000
00000000
,
01000000
00000000
00010000
00000000
00200000
00000000
00000000
00000000
02300000
00000000
00000000
13000000
00000000
00000000
00000000
00000000
,
01000000
00000000
10000000
00000000
00020000
00000000
00000000
00000000
00230000
00000000
00000000
00301000
00000000
00000000
00000000
00000000
,
00010000
00000000
00001000
00000000
00020000
00000000
00000000
00000000
00030020
00000000
00000000
00001030
00000000
00000000
00000000
00000000
,
00000100
00000000
00000010
00000000
00000100
00000000
00000000
00001000
00000000
00000001
00000000
00001000
00000000
00000000
00000000
00000000
,
00000001
00000000
00001000
00000000
00000020
00000000
00000000
00000000
00000230
00000000
00000000
00001300
00000000
00000000
00000000
00000000
,
00010000
00000000
00001000
00000000
00010000
00000000
00000000
00000000
00001000
00000000
00000000
00100000
00000000
00000000
00000000
00000000
,
00010000
00000000
00100000
00000000
00001000
00000000
00000000
00000000
00010000
00000000
00000000
00000010
00000000
00000000
00000000
00000000
,
00010000
00000000
00000010
00000000
00001000
00000000
00000000
00000100
00000000
00001000
00000000
00000100
00000000
00000000
00000000
00000000
,
00010000
00000000
00000100
00000000
00000200
00000000
00000000
00000000
00002300
00000000
00000000
00003001
00000000
00000000
00000000
00000000
,
00000001
00000000
00000010
00000000
00000001
00000000
00000000
00000000
00001000
00000000
00000000
00000100
00000000
00000000
00000000
00000000
,
00001000
00000000
00000100
00000000
00010000
00000000
00000000
00000000
00001000
00000000
00000000
01000000
00000000
00000000
00000000
00000000
,
00001000
00000000
00100000
00000000
00010000
00000000
01000000
00010000
00000000
01000000
00000000
00010000
00000000
00000000
00000000
00000000
,
10000000
00000000
00010000
00100000
01000000
00000000
10010000
00000000
,
00000000
00000000
00000000
00000000
00000000
00000000
00000000
00000000
00000000
00000000
00000000
10100000
00000000
00000000
00000000
00000000
,
00000000
00000000
00000000
00000000
00000000
00000000
00000000
00000000
00000000
10000000
00000000
10010000
00000000
00000000
00000000
00000000
,
00000000
00000000
00000000
00000000
00000000
00000000
00000000
00000000
00000000
00000000
00000000
01001000
00000000
00000000
00000000
00000000
,
00000000
00000000
00000000
00000000
00001000
00000000
00000000
00010000
00000000
00000010
00000000
00001000
00000000
00000000
00000000
00000000
,
00000000
00000000
00000000
00000000
00001000
00000000
00000000
00000000
00000010
00000000
00000000
00001010
00000000
00000000
00000010
00000000
,
00001000
00000000
00000000
00000000
00000001
00000000
00000000
00001000
00000000
00000100
00000000
00001000
00000000
00000000
00000010
00000000
,
00001000
00000000
00000000
00000000
00000100
00000000
00000000
00010000
00000000
00001000
00000000
00010000
00000000
00000000
00001000
00000000
,
00100000
00000000
00000000
00000000
00001000
00000000
00000000
01000000
00000000
00010000
00000000
01000000
00000000
00000000
00001000
00000000
,
00100000
00000000
00000000
00000000
00010000
00000000
00000000
00100000
00000000
00010000
00000000
01000000
00000000
00000000
00000000
00000000
,
01010000
00000000
00000000
01001000
00000000
00000000
00000000
00000000
00000000
00000000
00001000
00000000
00000000
00000000
00100000
00000000
,
00000000
00001000
00000000
00010000
00000000
00000000
00000000
00000000
00000000
00000000
00000000
00000000
00000000
00000000
00000000
00000000
,
00000000
00000000
00000000
00010100
00000000
00000000
00000000
00000000
00000000
00000000
00000000
00001100
00000000
00000000
00000000
00000000
,
00000100
00000000
00001000
00000000
00001020
00000000
00000000
00000130
00000000
00000000
00000000
00000001
00000000
00000000
00000000
00000000
,
00000100
00000000
00000010
00000000
00000100
00000000
00000000
00000001
00000000
00000010
00000000
00000001
00000000
00000010
00000000
00000000
,
00000000
00000000
00000000
00000000
00000100
00000000
00000000
00000000
00000000
00000000
00000000
00001000
00000000
00000001
00000000
00000000
,
00000000
00000000
00000000
00000000
00001000
00000000
00000000
00000100
00000000
00010000
00000000
00001000
00000000
00000000
00000000
01000000
,
00000000
00000000
00000000
00100000
00000000
00000000
00000000
00000000
00000000
00000000
00000000
01000000
00000000
00000000
00000000
00000000
,
00010000
00000000
00000000
00000000
00100000
00000000
00000000
00010000
00000000
00100000
00000000
00010000
00000000
00000000
00000000
00000000
,
10000000
00000000
00000000
00000000
01000000
00000000
00000000
10000000
00000000
01000000
00000000
10000000
00000000
00000000
00000000
00000000
,
00100000
00000000
00000000
00000000
01000000
00000000
00000000
00010000
00000000
01000000
00000000
00010000
00000000
00000000
00000000
00000000
,
10000000
00000000
00000000
00000000
00010000
00000000
00000000
00100000
00000000
00010000
00000000
00100000
00000000
00000000
00000000
00000000
,
00001000
00000000
00000000
00000000
00010000
00000000
00000000
00000000
00000000
00000100
00000000
00001000
00000000
00000000
00000000
00000000
,
00000001
00000000
00000000
00000000
00001000
00000000
00000000
00000000
00000001
00000000
00000000
00000100
00000000
00000000
00000000
00000000
,
00000001
00000000
00000000
00000000
00001000
00000000
00000000
00000010
00000000
00001000
00000000
00000010
00000000
00000000
00000000
00000000
,
00000100
00000000
00000000
00000000
00000001
00000000
00000000
00000000
00000010
00000000
00000000
00000100
00000000
00000000
00001000
00000000
,
00000100
00000000
00000000
00000000
00010000
00000000
00000000
00000000
00001000
00000000
00000000
01000000
00000000
00000000
00000000
00000000
,
00001000
00000000
00010000
00000000
00001000
00000000
00000000
00000000
00100000
00000000
00000000
00010000
00000000
00000000
00000000
00000000
,
00100000
00000000
00010000
00000000
00100000
00000000
00000000
01000000
00000000
10000000
00000000
01000000
00000000
00000000
00000000
00000000
,
10000000
00000000
00000000
00000000
00200000
00000000
00000000
00000000
02300000
00000000
00000000
03010000
00000000
00000000
00000000
00000000
,
00100000
00000000
00001000
00000000
00002000
00000000
00000000
00000000
00013000
00000000
00000000
00000010
00000000
00000000
00000000
00000000
,
00001000
00000000
00000100
00000000
00002000
00000000
00000000
00000000
00003010
00000000
00000000
00000100
00000000
00000000
00000000
00000000
,
00000100
00000000
00000010
00000000
00000100
00000000
00000000
00000001
00000000
00001000
00000000
00000001
00000000
00000000
00000000
00000000
,
00000010
00000000
00000001
00000000
00000020
00000000
00000000
00000000
00000230
00000000
00000000
00001300
00000000
00000000
00000000
00000000
,
00000100
00000000
00010000
00000000
00020000
00000000
00000000
00000000
00031000
00000000
00000000
00001000
00000000
00000000
00000000
00000000
,
00100000
00000000
00001000
00000000
00002000
00000000
00000000
00000000
00013000
00000000
00000000
00010000
00000000
00000000
00000000
00000000
,
00001000
00000000
00000000
00000000
00010000
00000000
00000000
00001000
00000000
01000000
00000000
00001000
00000000
00000000
00000000
00000000
,
01000000
00000000
01000000
00000000
00020000
00000000
00000000
00000000
10030000
00000000
00000000
10000000
00000000
00000000
00000000
00000000
,
00010000
00000000
10000000
00000000
00010000
00000000
00000000
00000000
00100000
00000000
00000000
00001000
00000000
00000000
00000000
00000000
,
00010000
00000000
00000100
00000000
00001000
00000000
00000000
00000000
00000001
00000000
00000000
00001000
00000000
00000000
00000000
00000000
,
00000100
00000000
00001000
00000000
00000001
00000000
00000000
00001000
00000000
00000010
00000000
00010000
00000000
00000000
00000000
00000000
;

//--------------- dance-double - HellKiteChaos ----------------
#NOTEDATA:;
#STEPSTYPE:dance-double;
#DESCRIPTION:HellKiteChaos;
#DIFFICULTY:Hard;
#METER:8;
#RADARVALUES:0,0,0,0,0;
#OFFSET:-0.068;
#BPMS:0.000=122.302
,17.000=124.302
,18.750=122.302
,35.000=119.500
,36.000=122.302
,72.000=122.000
,76.000=122.300
,136.750=121.300
,137.250=120.300
,137.750=122.300
,150.000=119.300
,152.000=123.300
,152.750=122.300
,194.750=124.300
,195.750=127.300
,196.750=138.300
,198.000=137.300
,199.000=122.300
,263.000=123.300
,263.250=122.300
;
#STOPS:131.000=0.123;
#SPEEDS:0.000=1.000=0.000=0;
#SCROLLS:0.000=1.000,
131.000=0.000,
134.000=1.000,
196.750=0.900,
199.000=1.000
;
#TICKCOUNTS:0.000=4;
#TIMESIGNATURES:0.000=4=4;
#LABELS:0.000=Song Start;
#COMBOS:0.000=1;
#DISPLAYBPM:122.000;
#CHARTNAME:;
#CHARTSTYLE:;
#CREDIT:;
#GAChartDataVersion:1;
#GAChartData:{"MusicOffset"\:0,"ShouldUseChartMusicOffset"\:false,"ExpressedChartConfig"\:"a19d532e-b0ce-4759-ad1c-02ecbbdf2efd","Patterns"\:{}};
#NOTES:
00000000
00000000
00000000
00000000
,
00000000
00000000
00000000
00000000
,
00000000
00000000
00000000
00000000
,
00000000
00000000
00000000
00000000
,
00000000
00000000
00000000
00000000
00000000
00000000
00000000
00000000
00000000
00000000
00000000
00011000
00000000
00010000
00000000
00000000
,
00000100
00000000
00000000
00000010
00000000
00000010
00000000
00000000
00000100
00000000
00000000
00001000
00000000
00001000
00000000
00000000
,
00000001
00000000
00000000
00000100
00000000
00000100
00000000
00000000
00001000
00000000
00000000
00010000
00000000
00010000
00000000
00000000
,
00100000
00000000
00000000
10000000
00000000
10000000
00000000
00000000
01000000
00000000
00000000
00010000
00000000
00010000
00000000
00000000
,
00001000
00000000
00000000
00021000
00000000
00000000
00000000
00000000
00000000
00000000
00000000
00030010
00000000
00000000
00001000
00000100
,
00001000
00000000
00001000
00000000
00000020
00000000
00000000
00000000
00000000
00010030
00000000
00011000
00000000
00000000
00001000
00000000
,
00100000
00000000
00001000
00000000
01000000
00000000
00010000
00000000
10000000
00000000
00010000
00100000
00000000
00000000
01000000
00000000
,
10000000
00000000
00100000
00000000
01000000
00000000
00001000
00010000
00000000
00001000
00000000
00000100
00000000
00000000
00001000
00000000
,
00010000
00000000
00001000
00000000
00100000
00010000
00100000
00000000
00001000
00010000
00001000
00010000
00000000
00000000
00001000
00000000
,
00100000
00000000
00001000
00000000
00200000
00000000
00000000
00000000
00000000
00310000
00000000
00110000
00000000
00000000
00010000
00000000
,
01000000
00000000
00001000
00000000
00010000
00000000
00000100
00000000
00000010
00000000
00000000
00000011
00000000
00000000
00000001
00000100
,
00000010
00000000
00001000
00000000
00000100
00000000
00010000
00001000
00000000
00010000
00000000
01000000
00000000
00100000
01000000
00000000
,
10000000
00010000
10000000
00000000
00100000
01000000
00001000
00000000
00010000
00001000
00010000
00001000
00000000
00021000
00000000
00000000
,
00030100
00000000
00000010
00000000
00000002
00000000
00000000
00000000
00000023
00000000
00000000
00000130
00000000
00000000
00001000
00000000
,
00000100
00000000
00001000
00000000
00000020
00000000
00000000
00000000
00020030
00000000
00000000
00031000
00000000
00000000
01000000
00000000
,
00001000
00000000
00100000
00000000
00010000
00000000
10000000
00010000
00000000
01000000
00000000
00100000
00000000
00000000
01000000
00000000
,
00001000
00000000
00010000
00000000
00010020
00000000
00000000
00000000
00020030
00000000
00000000
00031000
00000000
00000000
00000000
00000000
,
00001000
00000000
00100000
00000000
00001000
00000000
00010000
00000000
00000010
00000000
00001000
00000001
00000000
00000000
00000000
00000000
,
00000001
00000000
00000010
00000000
00000001
00000000
00000100
00000000
00000010
00000000
00001000
00000100
00000000
00000000
00000000
00000000
,
00001000
00000000
00000100
00000000
00010000
00000000
00001000
00010000
00000000
00001000
00000000
00100000
00000000
00000000
00000000
00000000
,
00010000
00000000
00100000
00000000
00102000
00000000
00000000
00000000
00023000
00000000
00000000
00031000
00000000
00000000
00000000
00000000
,
00001000
00000000
01000000
00000000
00100000
00000000
10000000
00000000
01000000
10000000
00000000
01000000
00000000
00000000
00000000
00000000
,
10000000
00000000
01000000
00000000
00100000
00000000
00010000
00000000
10000000
00000000
00010000
01000000
00000000
00000000
00000000
00000000
,
00010000
00000000
01000000
00000000
00001000
00010000
00000000
00001000
00000000
00010000
00000000
00000010
00000000
00000000
00000000
00000000
,
00001000
00000000
00000100
00000000
00020000
00000000
00000000
00000000
00030020
00000000
00000000
00001030
00000000
00000000
00000000
00000000
,
00001000
00000000
00000100
00000000
00000200
00000000
00000300
00000000
00001000
00000010
00000000
00000010
00000000
00000000
00000000
00000000
,
00001000
00000000
00000010
00000000
00020000
00000000
00030000
00000000
00001000
00100000
00000000
00100000
00000000
00000000
00000000
00000000
,
00010000
00000000
00100000
00000000
00001000
00000000
01000000
00010000
00000000
01000000
00000000
01010000
00000000
00000000
00000000
00000000
,
00010000
01000000
01010000
00001000
00010000
00000010
00010010
00000000
,
00000000
00000000
00000000
00000000
00000000
00000000
00000000
00000000
00000000
00000000
00000000
00010100
00000000
00000000
00000000
00000000
,
00000000
00000000
00000000
00000000
00000000
00000000
00000000
00000000
00000000
00010100
00000000
00011000
00000000
00000000
00000000
00000000
,
00000000
00000000
00000000
00000000
00000000
00000000
00000000
00000000
00000000
00000000
00000000
00011000
00000000
00000000
00000000
00000000
,
00000000
00000000
00000000
00000000
00010010
00000000
00000010
00001000
00000000
00000001
00000000
00000010
00000000
00000000
00000000
00000000
,
00000000
00000000
00000000
00000000
00000100
00001000
00000100
00000000
00010000
00001000
00010000
00001000
00000000
00000000
00001000
00000000
,
00100000
00000000
00000000
00000000
00010000
10000000
00000000
10000000
00000000
00100000
00000000
00100000
00000000
00000000
01000000
00000000
,
00010000
00000000
10000000
00000000
00100000
01000000
00000000
00010000
00000000
01000000
00000000
01000000
00000000
00000000
00001000
00000000
,
00100000
00000000
00001000
00000000
01000000
00001000
00000000
00010000
00000000
00000010
00000000
00001000
00000000
00000000
00000100
00000000
,
00000010
00000000
00000100
00000000
00001000
00000100
00000000
00000010
00000000
00000001
00000000
00000100
00000000
00000000
00000010
00000000
,
00001000
00000000
00000100
00000000
00010000
00000000
00000000
00000000
00000000
00000000
00001000
00010000
00001000
00000000
00100000
00010000
,
00000000
01000000
00000000
00100000
00000000
00000000
00000000
00000000
10010000
00000000
00000000
00000000
10000000
00000000
01000000
00000000
,
00100000
00001000
00010000
00001000
00100000
01000000
10000000
00000000
,
01010000
00000000
01000000
00000000
00020000
00000000
00000000
10030000
00000000
00000000
00000000
01010000
00000000
00000000
00000000
00000000
,
01000000
00000000
00001000
00000000
01000000
00000000
00001000
00010000
00000000
00010000
00000000
00001000
00000000
00001000
00000000
00000000
,
00000000
00000000
00000000
00000000
00000000
00000000
00100000
00000000
00000000
00000000
00000000
00000000
00010000
00000000
00000000
00000000
00100000
00000000
00000000
00000000
00001000
00000000
00000000
00000000
00010000
00000000
00000000
00000000
00000010
00000000
00000000
00000000
00000000
00001000
00000000
00000000
00000000
00000000
00000000
00001000
00000000
00000000
00000000
00000000
00000000
00000010
00000000
00000000
,
00000100
00000000
00000000
00000000
00000101
00000000
00000100
00000001
00000000
00001000
00000000
00000010
00000000
00000000
00000000
00001010
,
00000000
00000000
00000000
00000000
00000000
00000000
00002000
00000000
00000000
00000000
00000000
00000000
00000000
00000000
00003000
00000020
00000000
00000000
00000000
00000000
00000000
00000000
00000130
00000000
00000000
00000000
00000000
00000000
00000001
00000000
00000000
00000000
,
00000100
00000000
00000010
00000000
00001000
00000100
00000000
00000100
00000000
00010000
00000000
00010000
00000000
00000000
00001000
00000000
,
00100000
00000000
00001000
00000000
00010000
00001000
00000000
00001000
00000000
00100000
00000000
00100000
00000000
00000000
00010000
00000000
,
10000000
00000000
00010000
00000000
00100000
00001000
00000000
00001000
00000000
01000000
00000000
01000000
00000000
00000000
00010000
00000000
,
01000000
00000000
00100000
00000000
10000000
00100000
00000000
10000000
00000000
10000000
00000000
00010000
00000000
00000000
00000000
00000000
,
01010000
00000000
00000000
00000000
00002000
00000000
00000000
00000000
00000000
00013000
00000000
00011000
00000000
00000000
00000000
00000000
,
00010000
00000000
00000100
00000000
00001000
00000000
00000010
00000000
00001000
00000000
00000100
00000010
00000000
00000000
00000001
00000000
,
00001000
00000000
00000100
00000000
00001000
00000000
00000100
00000010
00000000
00000001
00000000
00000011
00000000
00000000
00000000
00000000
,
00000001
00000000
00001000
00000000
00000010
00001000
00000010
00000000
00001000
00000100
00001000
00000100
00000000
00000000
00010000
00000000
,
00001000
00000000
00100000
00000000
00020000
00000000
00000000
00000000
02030000
00000000
00000000
03100000
00000000
00000000
00000000
00000000
,
00100000
00000000
10000000
00000000
02000000
00000000
00000000
00000000
03200000
00000000
00000000
00310000
00000000
00000000
00000000
00000000
,
01000000
00000000
00001000
00000000
00010000
00000000
00001000
00010000
00000000
00000100
00000000
00000010
00000000
00000000
00000000
00000000
,
00000100
00000000
00001000
00000000
00002010
00000000
00000000
00000000
00003020
00000000
00000000
00000130
00000000
00000000
00000000
00000000
,
00000100
00000000
00001000
00000000
00000200
00000000
00000000
00000000
00000320
00000000
00000000
00000031
00000000
00000000
00000000
00000000
,
00000001
00000000
00000100
00000000
00002000
00000000
00000000
00000000
00013000
00000000
00000000
00100000
00000000
00000000
00000000
00000000
,
10000000
00000000
01000000
00000000
00010000
00000000
01000000
00100000
00000000
00001000
00000000
00010000
00000000
00000000
00000000
00000000
,
00000010
00000000
00001000
00000000
00000020
00000000
00000000
00000000
00002030
00000000
00000000
00003100
00000000
00000000
00000000
00000000
,
00000010
00000000
00000000
00000000
00000001
00000000
00001000
00000000
00000100
00010000
00000000
00010000
00000000
00000000
00000000
00000000
,
00000100
00000000
00001000
00000000
00000001
00000000
00001000
00000000
00000010
00010000
00000000
00010000
00000000
00000000
00000000
00000000
,
00000100
00000000
00001000
00000000
00000010
00000000
00010000
00001000
00000000
00100000
00000000
00010000
00000000
00000000
00000000
00000000
,
00100000
00000000
01000000
00000000
21000000
00000000
00000000
00000000
30020000
00000000
00000000
01030000
00000000
00000000
00000000
00000000
,
00010000
00000000
01000000
00000000
00010000
00000000
00100000
00000000
00001000
00100000
00000000
00010000
00000000
00000000
00000000
00000000
,
00100000
00000000
01000000
00000000
00010000
00000000
00001000
00000000
00010000
00001000
00000000
00011000
00000000
00000000
00000000
00000000
,
00010000
00000000
00001000
00000000
00010000
00000000
00000010
00000100
00000000
00000001
00000000
00001001
00000000
00000000
00000000
00000000
;

//--------------- dance-double - HellKiteChaos ----------------
#NOTEDATA:;
#STEPSTYPE:dance-double;
#DESCRIPTION:HellKiteChaos;
#DIFFICULTY:Challenge;
#METER:10;
#RADARVALUES:0,0,0,0,0;
#OFFSET:-0.068;
#BPMS:0.000=122.302
,17.000=124.302
,18.750=122.302
,35.000=119.500
,36.000=122.302
,72.000=122.000
,76.000=122.300
,136.750=121.300
,137.250=120.300
,137.750=122.300
,150.000=119.300
,152.000=123.300
,152.750=122.300
,194.750=124.300
,195.750=127.300
,196.750=138.300
,198.000=137.300
,199.000=122.300
,263.000=123.300
,263.250=122.300
;
#STOPS:131.000=0.123;
#SPEEDS:0.000=1.000=0.000=0;
#SCROLLS:0.000=1.000,
131.000=0.000,
134.000=1.000,
196.750=0.900,
199.000=1.000
;
#TICKCOUNTS:0.000=4;
#TIMESIGNATURES:0.000=4=4;
#LABELS:0.000=Song Start;
#COMBOS:0.000=1;
#DISPLAYBPM:122.000;
#CHARTNAME:;
#CHARTSTYLE:;
#CREDIT:;
#GAChartDataVersion:1;
#GAChartData:{"MusicOffset"\:0,"ShouldUseChartMusicOffset"\:false,"ExpressedChartConfig"\:"a19d532e-b0ce-4759-ad1c-02ecbbdf2efd","Patterns"\:{}};
#NOTES:
00000000
00000000
00000000
00000000
,
00000000
00000000
00000000
00000000
,
00000000
00000000
00000000
00000000
,
00000000
00000000
00000000
00000000
,
00000000
00000000
00000000
00000000
00000000
00000000
00000000
00000000
00000000
00000000
00000000
00011000
00000000
00010000
00000000
00000000
,
00000100
00000000
00000000
00000001
00000000
00000001
00000000
00000000
00000100
00000000
00000000
00000010
00000000
00000010
00000000
00000000
,
00000100
00000000
00000000
00000001
00000000
00000001
00000000
00000000
00000100
00000000
00000000
00001000
00000000
00001000
00000000
00000000
,
00000010
00000000
00000000
00000001
00000000
00000001
00000000
00000000
00000010
00000000
00000000
00000100
00000000
00000100
00000000
00000000
,
00000010
00000000
00000000
00000201
00000000
00000000
00000000
00000000
00000000
00000000
00000000
00000301
00000000
00000000
00000100
00000010
,
00000100
00000000
00000001
00000000
00000012
00000000
00000000
00000000
00001003
00000001
00000000
00001001
00000000
00000001
00000100
00000001
,
00001000
00000000
00000001
00000010
00000001
00001000
00000001
00000000
00000100
00000010
00000000
00000110
00000000
00000010
00001000
00000010
,
00010000
00000000
00010000
00000000
00010010
00000000
00010000
00001000
00000000
00011000
00000000
01001000
00000000
00000000
00001000
00000000
,
01000000
00000000
00001000
00000000
01000000
00010000
01000000
00010000
00100000
01000000
00100000
00010000
00000000
10000000
00010000
00100000
,
01000000
00000000
10000000
00000000
00200000
00000000
00000000
00000000
00000000
10300000
00000000
10010000
00000000
00000000
00010000
00000000
,
10000000
00000000
01000000
00000000
00100000
01000000
00100000
00000000
01100000
00000000
00000000
00010000
00000000
00000000
00100000
00010000
,
01000000
00000000
00100000
00000000
10100000
00000000
00010000
01000000
00000000
01001000
00000000
00011000
00000000
00001000
00001000
00000000
,
00100000
00100000
00000000
00000000
00010000
01000000
00001000
00010000
00000100
00001000
00000010
00001000
00000000
00001020
00000000
00000000
,
00001030
00000000
00000010
00000000
00020000
00000000
00000000
00000000
00030100
00000000
00000000
00001100
00000000
00000000
00001000
00000000
,
00000010
00000000
00010000
00000000
00000200
00000000
00000000
00000000
00010300
00000000
00000000
00011000
00000000
00000000
00001000
00000000
,
01000000
00000000
00010000
00000000
10000000
00000000
00100000
01000000
00000000
00010000
00000000
00100000
00000000
00000000
00010000
00000000
,
00100000
00000000
00001000
00000000
02001000
00000000
00000000
00000000
03010000
00000000
00000000
00110000
00000000
00000000
00010000
00000000
,
00100000
00000000
00001000
00000000
00020000
00000000
00000000
00000000
00030100
00000000
00000000
00001100
00000000
00000000
00001000
00000000
,
00000100
00000000
00000010
00000000
00000002
00000000
00000000
00000000
00001003
00000000
00000000
00001010
00000000
00000000
00000000
00000010
,
00000100
00000000
00001000
00000000
00000100
00000000
00000010
00001000
00000000
00000010
00000000
00001000
00000000
00000000
00000000
00000100
,
00010000
00000000
00000010
00000000
00001020
00000000
00000000
00000000
00010030
00000000
00000000
00011000
00000000
00000000
00000000
00001000
,
00010000
00000000
00001000
00000000
00100000
00000000
00010000
00000000
00100000
01000000
00000000
01100000
00000000
00000000
00000000
01000000
,
00100000
00000000
01000000
00000000
10000000
00000000
00100000
00000000
01000000
00010000
00000000
01010000
00000000
00000000
00000000
01000000
,
00001000
00000000
00010000
00000000
00001000
00000000
00000000
00000100
00000000
00000010
00000000
00001000
00000000
00000000
00000001
00000000
,
00000010
00000000
00000100
00000000
00002000
00000000
00000000
00000000
00003010
00000000
00000000
00000110
00000000
00000000
00000000
00000010
,
00010000
00000000
00001000
00000000
01000000
00000000
00100000
00000000
10000000
00010000
00000000
00100000
00000000
00000000
00000000
00100000
,
01000000
00000000
00010000
00000000
01000000
00000000
00100000
00000000
00010000
10000000
00000000
00100000
00000000
10000000
00000000
10000000
,
00010000
00000000
01000000
00000000
00001000
00000000
00010000
00000100
00000000
00000100
00000000
00001000
00000000
00000000
00000000
00000100
,
00001000
00000000
00000010
00000000
00000100
00000010
00001000
00000000
00000100
00010000
00001000
00000000
00011000
00000000
00000000
00000000
,
00000000
00000000
00000000
00000000
00000000
00000000
00000000
00000000
00000000
00000000
00000000
00011000
00000000
00000000
00000000
00000000
,
00000000
00000000
00000000
00000000
00000000
00000000
00000000
00000000
00000000
00011000
00000000
00101000
00000000
00000000
00000000
00000000
,
00000000
00000000
00000000
00000000
00000000
00000000
00000000
00000000
00000000
00000000
00000000
01001000
00000000
00000000
00000000
00000000
,
00000000
00000000
00000000
00000000
00011000
00000000
00010000
00000010
00000000
00001000
00000000
00010100
00000000
00000000
00000000
00000000
,
00000000
00000000
00000000
00000000
00010000
00001000
00010000
00000000
00000100
00001000
00000100
00000010
00000000
00000100
00000010
00000001
,
00001000
00000001
00001000
00000010
00000100
00000001
00000000
00000100
00000000
00000010
00000000
00001000
00000000
00000100
00010000
00001000
,
00010000
00001000
00010000
00000000
00001000
00100000
00000000
00010000
00000000
00100000
00000000
01000000
00000000
10000000
00010000
01000000
,
00010000
10000000
01000000
00100000
00010000
01000000
00000000
00010000
00000000
00100000
00000000
00001000
00000000
00010000
00001000
00010000
,
00000010
00001000
00000100
00010000
00001000
00100000
00000000
01000000
00000000
10000000
00000000
00010000
00000000
01000000
00010000
01000000
,
00010000
01000000
00001000
00010000
00000000
00000000
00000000
00000000
00000000
00000000
00010000
00001000
00001000
00000000
00010000
00000010
,
00000000
00001000
00000000
00000100
00000010
00000001
00000000
00001000
00000010
00000000
00000000
00000100
00000000
00000010
00001000
00000010
,
00001000
00000100
00010000
00001000
00000000
00001000
00010000
00000100
00001000
00000100
00001000
00000001
00000000
00000000
00000000
00000000
,
00000001
00000000
00000010
00000000
00000020
00000000
00000000
00000130
00000000
00000000
00000000
00001100
00000000
00000000
00000000
00000000
,
00000100
00000000
00010000
00000000
00000010
00000000
00001000
00000100
00000000
00010000
00000000
00001000
00000000
01000000
00000000
00000000
,
00000000
00000000
00000000
00000000
00000000
00000000
00001000
00000000
00000000
01000000
00000000
00000000
00010000
00000000
00000000
00000000
10000000
00000000
00000000
00000000
01000000
00000000
00000000
00000000
10000000
00000000
00000000
00000000
00010000
00000000
00000000
00000000
00000000
00100000
00000000
00000000
00000000
00000000
00000000
00001000
00000000
00000000
00000000
00000000
00000000
00001000
00000000
00000000
,
01000000
00000000
00010000
00000000
00010000
00000000
00100000
00001000
00000000
00011000
00000000
00010010
00000000
00000000
00000000
00001010
,
00000000
00000000
00000000
00000000
00000000
00000000
00000110
00000000
00000000
00000000
00000000
00000000
00000000
00000000
00000000
00001001
00000000
00000000
00000000
00000000
00000000
00000000
00000101
00000000
00000000
00000000
00000000
00000000
00000100
00000000
00000001
00000000
,
00000010
00000001
00001000
00000100
00001000
00000010
00000000
00001000
00000000
00000100
00000000
00010000
00000000
00001000
01000000
00001000
,
00100000
00010000
00100000
00000000
01000000
10000000
00000000
10000000
00000000
00100000
00000000
01000000
00000000
00010000
10000000
00010000
,
01000000
00001000
00100000
00010000
01000000
00001000
00000000
00010000
00000000
00000010
00000000
00001000
00000000
00000001
00001000
00000100
,
00001000
00000001
00000100
00000001
00001000
00000010
00000000
00001000
00000000
00000100
00000000
00001000
00000000
00000000
00000000
00000000
,
00000100
00000000
00010000
00000000
00000020
00000000
00000000
00000000
00000000
00010030
00000000
00011000
00000000
00000000
00000000
00000000
,
01000000
00000000
00010000
00000000
00100000
00000000
01000000
01000000
00000000
10000000
00000000
11000000
00000000
00000000
10000000
00100000
,
10000000
00000000
00010000
00000000
00100000
00000000
00001000
00010000
00000000
00000100
00000000
00010100
00000000
00000100
00000000
00001000
,
00000100
00000000
00010000
00000000
00000010
00001000
00000010
00000010
00001000
00000001
00001000
00001000
00000000
00000100
00000000
00001000
,
00000010
00000000
00001000
00000000
00000002
00000000
00000000
00002003
00000000
00000000
00000000
00003100
00000000
00000000
00010000
00000000
,
00001000
00000000
00100000
00000000
00020000
00000000
00000000
00000000
20030000
00000000
00000000
31000000
00000000
00000000
00100000
00000000
,
00010000
00000000
00100000
00000000
00001000
00000000
01000000
00001000
00000000
01000000
00000000
00010000
00000000
00010000
00000000
00010000
,
00100000
00000000
00001000
00000000
00200000
00000000
00000000
00000000
00310000
00000000
00000000
01010000
00000000
00000000
00000000
00010000
,
01000000
00000000
00010000
00000000
20000000
00000000
00000000
00000000
30100000
00000000
00000000
10000000
00000000
00000000
00000000
10000000
,
01000000
00000000
00100000
00000000
00020000
00000000
00000000
00000000
00130000
00000000
00000000
00101000
00000000
00000000
00000000
00001000
,
00010000
00000000
00001000
00000000
00010000
00000000
00000010
00001000
00000000
00000001
00000000
00000100
00000000
00001000
00000000
00010000
,
00000010
00000000
00001000
00000000
00002010
00000000
00000000
00000000
00003100
00000000
00000000
00001001
00000000
00001000
00000000
00000010
,
00001000
00000000
00000100
00000000
00000020
00000000
00000000
00000030
00000001
00000010
00000000
00000011
00000000
00000000
00000001
00000000
,
00000100
00000000
00000001
00000000
00002000
00000000
00000000
00003000
00000100
00010000
00000000
00010100
00000000
00000000
00000000
00000000
,
00000100
00000000
00001000
00000000
00000100
00000000
00001000
00000010
00000000
00001000
00000000
00000100
00000000
00000000
00000000
00000000
,
00001000
00000000
00000001
00000000
00000021
00000000
00000000
00000000
00000130
00000000
00000000
00001100
00000000
00001000
00000000
00001000
,
00000001
00000000
00000010
00000000
00000200
00000000
00000000
00000000
00001300
00000001
00000000
00001000
00000000
00000000
00000001
00000000
,
00001000
00000000
00000010
00000000
00020000
00000000
00000000
00000000
00031000
01000000
00000000
00001000
00000000
00000000
00000000
00000000
,
00001000
00000000
00100000
00000000
00010000
00000000
00100000
00010000
00000000
01000000
00000000
01100000
00000000
00000000
00000000
00000000
;
