#VERSION:0.83;
#TITLE:Cheer Up [Full Version];
#SUBTITLE:;
#ARTIST:Twice;
#TITLETRANSLIT:;
#SUBTITLETRANSLIT:;
#ARTISTTRANSLIT:;
#GENRE:;
#CREDIT:;
#MUSIC:Cheer Up.mp3;
#BANNER:Cheer Up.png;
#BACKGROUND:Cheer Up-bg.png;
#CDTITLE:;
#SAMPLESTART:79.066;
#SAMPLELENGTH:12.000;
#SELECTABLE:YES;
#OFFSET:-0.071;
#BPMS:0.000=173.000;
#STOPS:;
#SPEEDS:0.000=1.000=0.000=0;
#SCROLLS:0.000=1.000;
#TICKCOUNTS:0.000=4;
#TIMESIGNATURES:0.000=4=4;
#LABELS:0.000=Song Start;
#COMBOS:0.000=1;
#CUSTOMBPM:-1;
#HEARTS:4;
#CATEGORY:KPOP;
#VOLUME:85;
#ORIGIN:;
#PREVIEWVID:;
#JACKET:;
#CDIMAGE:;
#DISCIMAGE:;
#DIVISION:;
#BGCHANGES: 0.000=Cheer Up.avi=1.000=0=0=0=StretchNoLoop====,
99999=-nosongbg-=1.000=0=0=0
;
#FGCHANGES:;

//--------------- pump-single - ----------------
#NOTEDATA:;
#STEPSTYPE:pump-single;
#DESCRIPTION:;
#DIFFICULTY:Beginner;
#METER:5;
#RADARVALUES:0.283447,0.356408,0.014697,0.411523,0,405,402,3,84,0,0,0,0,0,0.283447,0.356408,0.014697,0.411523,0,405,402,3,84,0,0,0,0,0;
#OFFSET:-0.303;
#BPMS:0.000=173.000;
#SPEEDS:0.000=1.000=0.000=0;
#SCROLLS:0.000=1.000;
#TICKCOUNTS:0.000=1;
#TIMESIGNATURES:0.000=4=4;
#LABELS:0.000=Song Start;
#COMBOS:0.000=1;
#DISPLAYBPM:173.000;
#CHARTNAME:;
#LABELTYPE:UCS;
#PRELOADNOTESKIN:;
#SEPARATENOTES:NO;
#PLAYERS:1;
#QUESTDESC:;
#QUESTMODS:;
#QUESTBARINITIAL:500;
#QUESTBARMAX:1000;
#SHOWSKINSCORE:NO;
#RANDOMSKINLIST:;
#CHARTSTYLE:;
#CREDIT:Haruki-kun;
#DIVISION:;
#BRAINHELP:0.000000=BrainHelp ;
#SPECIALDIVISION:;
#DISPLAYPERSPECTIVE:PUMP;
#NOTES:
00000
00000
00000
00000
,
00000
00000
00000
00000
,
00000
00000
00000
00000
,
00200
00300
01000
00010
,
00200
00000
00000
00000
,
00000
00300
00000
00000
,
00000
00000
00000
00000
,
10001
00000
10000
00001
,
10000
00001
00100
00010
,
01000
00100
01000
00100
,
10000
00010
10000
00100
,
01000
00001
00100
00010
,
01000
00001
00100
00001
,
01000
00010
00200
00300
,
00001
10000
00010
01000
,
00002
00000
00000
00003
,
01000
00100
01000
00010
,
20000
00000
00000
30000
,
00001
10000
00200
00300
,
10000
10000
00001
00001
,
00200
00300
00020
00000
,
00030
20000
00000
30010
,
00010
00100
00001
10000
,
00020
00000
00000
00030
,
01000
00100
01000
00002
,
00003
20000
30000
00100
,
01000
00010
00010
01000
,
01000
00100
00100
10000
,
00001
00200
00300
00001
,
10000
00010
01000
00200
,
00000
20300
00000
30000
,
00010
00100
00100
00001
,
20000
00000
00000
30000
,
00100
02000
03000
00001
,
00100
00010
00100
00002
,
00003
10000
10000
00001
,
00001
00200
00020
00300
,
00030
10000
00100
00100
,
10000
00001
02000
00000
,
00020
03000
00030
00100
,
00002
00000
10003
00000
,
00100
02000
00000
03010
,
00100
00010
00100
00001
,
20000
00000
00000
30000
00010
00000
00100
00000
,
00002
00000
00003
01000
,
00100
20000
00000
30000
,
00010
00010
01000
01000
,
00010
00200
00300
00001
,
00100
00010
10000
00001
,
01000
00001
00100
00001
,
10000
10000
00100
01000
,
00020
00000
00000
00000
00030
00000
01000
00100
,
20000
00000
30000
00100
,
00100
10000
00002
00003
,
01000
00010
00100
00002
,
10000
00000
10003
00000
00200
00000
00000
00300
,
00000
00000
00000
00000
,
20000
00000
00000
00000
,
30020
00000
00000
00030
,
02000
00000
00000
03000
,
00002
00000
00000
00000
00000
00000
00000
00000
00000
00003
00000
00000
01000
00000
00000
00000
,
00200
00000
00300
00000
,
20000
00000
30000
00000
,
02000
00000
03000
00000
,
00200
00000
00300
00010
,
20000
00000
30000
00010
,
10000
00100
01000
00010
,
00100
00001
10000
00100
,
01000
00001
00100
00001
,
20000
30000
00001
00001
,
00100
00010
01000
00100
,
10000
00001
10000
00000
00010
00000
01000
00000
,
00200
00300
00000
00000
,
02000
00000
03000
00100
10000
00000
00010
00000
,
01000
00000
00001
00100
00000
00000
00010
00000
,
01000
00200
00000
10300
,
00001
00100
00010
10000
,
00200
00300
01000
00010
,
01000
00100
10000
00001
,
00200
00000
00300
00010
,
01000
00100
10000
00001
,
00200
00000
00000
00300
,
00020
00000
00030
01000
,
00200
00000
00300
10000
,
00010
10000
00200
00300
,
01000
00001
01000
00100
,
10000
00010
00100
00001
,
20000
00000
00000
00000
,
30200
00000
00300
10001
,
00100
00100
01000
00001
,
00100
00010
01000
00100
,
10000
00001
00100
00001
,
20000
00000
30000
00100
,
00100
01000
01000
00010
,
00200
00000
00300
00001
,
00001
10000
10000
00100
,
00100
01000
00010
01000
,
00001
00001
01000
00100
,
10000
10000
00010
00100
,
00001
10000
00100
01000
,
00020
00000
00030
10000
,
00100
10000
00010
00100
,
00001
01000
00200
00300
,
10000
00001
10000
00010
,
01000
00100
00200
00300
,
00000
00000
00000
00000
,
20000
00000
30000
00000
,
00002
00000
00003
00000
,
00200
00000
00300
00020
,
00030
02000
03000
00100
,
20000
00000
30000
00000
,
00002
00000
00003
00000
,
02000
00000
03000
00000
,
00200
00000
00300
01010
,
00100
10000
00001
10000
,
10000
00001
00001
00100
,
00100
00010
00010
01000
,
01000
00010
01000
00100
,
10000
10000
00001
00001
,
10000
00100
01000
01000
,
00001
00100
00010
00010
,
02000
00000
00000
03000
,
00001
10000
00200
00300
,
01000
00010
00200
00300
,
00010
00100
00002
00000
,
00000
00003
01000
00100
,
10000
00001
00200
00300
,
00010
01000
00200
00300
,
20000
00000
00000
30000
,
00002
00000
00003
00100
,
00010
01000
00010
10000
,
00001
10000
00100
01000
,
00010
00100
00001
10000
,
00200
00000
00300
01000
,
00001
00200
00000
00300
,
00010
00010
01000
00010
,
00200
00000
00300
00002
,
00000
00003
20000
00000
,
30010
00010
01000
00010
,
00100
00100
00001
01000
,
00001
00001
10000
00100
,
00100
10000
10000
00001
,
00001
00100
00010
02000
,
00000
03000
00010
01000
,
00200
00000
00000
00300
,
20000
00000
30001
00000
;

//--------------- pump-single - ----------------
#NOTEDATA:;
#STEPSTYPE:pump-single;
#DESCRIPTION:;
#DIFFICULTY:Easy;
#METER:7;
#RADARVALUES:0.406624,0.535531,0.078385,0.303743,0,581,565,16,62,0,0,0,0,0,0.406624,0.535531,0.078385,0.303743,0,581,565,16,62,0,0,0,0,0;
#OFFSET:-0.303;
#BPMS:0.000=173.000;
#SPEEDS:0.000=1.000=0.000=0;
#SCROLLS:0.000=1.000;
#TICKCOUNTS:0.000=1;
#TIMESIGNATURES:0.000=4=4;
#LABELS:0.000=Song Start;
#COMBOS:0.000=1;
#DISPLAYBPM:173.000;
#CHARTNAME:;
#LABELTYPE:UCS;
#PRELOADNOTESKIN:;
#SEPARATENOTES:NO;
#PLAYERS:1;
#QUESTDESC:;
#QUESTMODS:;
#QUESTBARINITIAL:500;
#QUESTBARMAX:1000;
#SHOWSKINSCORE:NO;
#RANDOMSKINLIST:;
#CHARTSTYLE:;
#CREDIT:Haruki-kun;
#DIVISION:;
#BRAINHELP:0.000000=BrainHelp ;
#SPECIALDIVISION:;
#DISPLAYPERSPECTIVE:PUMP;
#NOTES:
00000
00000
00000
00000
,
00000
00000
00000
00000
,
00000
00000
00000
00000
,
00200
00000
20300
30020
,
02000
00000
00030
00000
,
00000
00000
00000
00000
,
03000
00000
00000
00000
,
01010
00000
00000
00000
00100
00000
00100
00020
,
10000
00000
10030
00000
10100
00000
00000
00001
,
10000
00000
00010
00100
00001
00000
00100
00000
,
00010
10000
00100
01000
,
00010
00000
01000
00100
10000
00000
00010
00100
,
00001
10000
00001
00100
,
00020
01030
01010
00000
,
00010
00100
00001
01000
,
00200
00300
10001
00000
,
00100
00100
00010
01000
,
00001
10000
00200
00300
,
01000
00001
00100
00000
,
00010
00000
00100
00001
00100
00000
00010
00000
,
10000
00100
01000
00002
,
00003
01000
00100
20000
,
30100
01000
01000
00010
,
00100
20002
00000
30003
,
10001
00000
00000
10000
00000
00100
00000
00100
,
02000
03000
00010
00000
00010
01000
00100
00000
,
20000
30100
00100
01000
,
00010
00100
00002
01003
,
01000
00010
01000
01000
,
00100
10000
00001
00000
00200
00300
00010
00000
,
02000
03000
00100
00000
10000
00000
00001
00000
,
00100
00000
00010
01000
00010
00000
01000
00000
,
00100
00000
10000
00001
10000
00000
00010
00100
,
00010
00000
01000
00100
01000
00000
00100
00000
,
10000
00001
00100
00020
,
01030
01000
00010
00100
,
00100
00001
01000
00001
01000
00100
10000
00010
,
10000
00010
00100
00000
00001
00000
01001
00000
,
01000
00000
00100
00000
10000
00001
10000
00000
,
00200
00000
00300
01010
,
00100
00000
01000
00001
01000
00000
00010
00000
,
00100
00000
00010
10000
00010
00000
00100
00000
,
00001
00000
10000
00000
00001
00100
00020
00000
,
02000
00000
00000
03030
00000
10000
00000
00100
,
01000
00010
00100
00001
,
10000
00000
00100
01000
00000
00010
00000
01000
,
00100
00000
10000
00000
00001
00000
00100
00001
,
10000
00000
00100
00000
00100
01000
00100
00000
,
10000
00001
00100
00000
00010
00000
01000
00000
,
00100
10000
00100
00000
01000
00000
00001
00000
,
01000
00100
01000
00000
00010
00100
00010
00000
,
02000
00000
00000
00000
03000
00000
00001
00001
,
10000
10000
00001
00100
,
00010
01000
01010
00100
,
00100
01000
00010
00000
00100
00000
00010
01000
,
00100
00000
10000
00001
00200
00000
00000
00300
,
00000
00000
00000
00000
,
00020
00000
00000
00000
,
20030
00000
00000
30000
,
00200
00000
00000
00300
,
01000
00010
01000
00001
,
00200
00000
00300
00000
,
00020
00000
00030
00000
,
02000
00000
03000
00000
,
00100
01000
00001
01000
,
00200
00000
00300
10000
,
00010
00000
01000
00100
10000
00000
00010
00000
,
00100
00000
00001
00100
00010
00000
10000
00000
,
00001
01000
00010
10000
,
00100
00000
00100
00000
01000
00010
01000
00000
,
00100
00000
00100
00000
10000
00010
00100
00000
,
00001
01000
00100
00000
10000
00000
00001
00000
,
00200
00300
00000
00000
,
00002
00000
00003
00100
00010
00000
00010
00100
,
00001
00000
01000
00100
10000
00000
00010
00100
,
00001
00100
00010
00010
,
01000
00000
01000
00010
10000
00000
00010
01000
,
00001
00000
00100
00000
00100
00000
00001
10000
,
00001
00100
00010
00100
,
00001
00000
10000
00000
10000
00000
00100
01000
,
00001
00000
00100
00010
10000
00000
10001
00000
,
00200
20300
30002
00203
,
00320
20030
30200
10300
,
00010
00000
00010
01000
00100
00000
20000
00000
,
30001
00000
00001
00100
00020
00000
01030
00000
,
00100
00000
00010
00000
01000
00000
00001
00100
,
00010
10000
00100
10000
,
00010
00100
00002
00000
10000
00000
10003
00000
,
00200
00000
00300
01010
,
00100
00000
00100
00001
10000
00000
00100
00000
,
01000
00000
00100
10000
00001
00000
00100
00000
,
00010
00000
10000
00001
10000
00000
00010
00000
,
01000
00000
00200
00000
00300
00000
10000
00001
,
10000
00001
00001
10000
,
00100
01000
00010
00000
00100
00000
00001
00100
,
00010
00000
10000
00100
01000
00000
00100
10000
,
00010
00000
00100
00001
01000
00000
00001
00000
,
01000
00100
01000
00000
00001
00000
10000
00000
,
00010
00100
00010
00000
10000
00000
00001
00000
,
01000
00100
10000
00000
00001
00000
00100
00000
,
00020
00000
00000
00000
00030
00000
00100
00001
,
00100
00100
00010
10000
,
00100
00001
00100
10000
,
10000
00000
00001
00000
00001
00000
00100
10000
,
00100
00000
00001
10000
00200
00000
00300
00000
,
00000
00000
00000
00000
,
00200
00000
00000
00300
,
02000
00000
03000
00000
,
00020
00000
00030
10000
,
00001
00200
00300
00010
,
02000
00000
03000
00000
,
00002
00000
00000
00003
,
00200
00000
00000
00300
,
00010
10000
00100
10000
,
00001
00100
00100
00010
,
01000
00000
00010
00100
00001
00000
10000
00000
,
00100
00000
01000
00100
10000
00000
00001
00000
,
00100
00001
10000
00100
,
01000
00000
00010
00000
01000
00100
01000
00000
,
00010
00000
00100
00000
00001
01000
00001
00000
,
00100
00010
10000
00100
,
01010
00000
00100
00000
10000
00001
00100
00010
,
02000
03000
00001
00100
,
00010
00000
10000
00100
10000
00000
00001
00000
,
10000
00100
01000
01000
,
00010
00010
00100
10001
,
00100
01010
00100
10000
,
00001
00100
00010
01000
,
00001
00001
10000
10000
,
00200
00000
00300
01000
,
00002
00000
00003
00100
00010
00000
00010
01000
,
00100
00000
00100
10000
00000
00010
00100
00010
,
01000
00100
10000
00001
,
00200
00300
00020
00000
00030
00000
01000
00000
,
00010
00000
00100
00000
00001
01000
00001
00000
,
10000
00010
10000
00000
00100
00000
02000
00000
,
00010
03010
00100
01000
,
00010
00100
00001
10001
,
10000
00000
00100
01000
00100
00000
10000
00000
,
00010
00100
00001
00000
10000
00000
00001
00000
,
00100
00000
00010
01000
00100
00000
20000
00000
,
30010
00100
00002
01003
,
00100
00000
00100
00000
10000
00000
00001
00100
,
00001
00000
10000
00100
10000
00000
10001
00000
,
00100
00100
01000
01000
,
00010
00010
00200
00300
;

//--------------- pump-single - ----------------
#NOTEDATA:;
#STEPSTYPE:pump-single;
#DESCRIPTION:;
#DIFFICULTY:Medium;
#METER:10;
#RADARVALUES:0.504605,0.571723,0.215559,0.602587,0,721,677,44,123,0,0,0,0,0,0.504605,0.571723,0.215559,0.602587,0,721,677,44,123,0,0,0,0,0;
#OFFSET:-0.303;
#BPMS:0.000=173.000;
#SPEEDS:0.000=1.000=0.000=0,
456.250=0.500=4.000=0,
492.250=1.000=4.000=0
;
#SCROLLS:0.000=1.000,
324.250=0.500,
328.250=1.000
;
#TICKCOUNTS:0.000=2,
456.250=1,
492.250=2
;
#TIMESIGNATURES:0.000=4=4;
#LABELS:0.000=Song Start;
#COMBOS:0.000=1;
#DISPLAYBPM:173.000;
#CHARTNAME:;
#LABELTYPE:UCS;
#PRELOADNOTESKIN:;
#SEPARATENOTES:NO;
#PLAYERS:1;
#QUESTDESC:;
#QUESTMODS:;
#QUESTBARINITIAL:500;
#QUESTBARMAX:1000;
#SHOWSKINSCORE:NO;
#RANDOMSKINLIST:;
#CHARTSTYLE:;
#CREDIT:Haruki-kun;
#DIVISION:;
#BRAINHELP:0.000000=BrainHelp ;
#SPECIALDIVISION:;
#DISPLAYPERSPECTIVE:PUMP;
#NOTES:
00000
00000
00000
00000
,
00000
00000
00000
00000
,
00000
00000
00000
00000
,
10000
10000
00100
02000
,
00002
00000
03000
00000
,
00000
00000
00000
00000
,
00000
00000
00000
00003
,
20000
00000
30100
00000
00100
10000
00100
02000
,
00010
00000
03010
00000
01010
00000
00000
10000
,
00001
00000
01000
00100
20000
00000
30001
00000
,
00020
00130
02000
03100
,
01000
00000
00010
00100
00001
00000
01000
00100
,
20000
00000
30001
00000
10001
00000
00001
00100
,
00020
01030
01010
00000
,
01000
00100
20000
00000
30001
00000
10001
00000
,
00200
00000
00300
00010
01000
00010
01000
00010
,
01000
00100
00100
10000
,
10000
00000
00001
00000
10001
00000
00100
00010
,
00100
00001
10000
00000
00200
00300
01000
00000
,
00100
10000
00100
01000
00100
00000
10000
00000
,
00001
02000
03100
20000
,
30100
00020
00130
00002
,
00103
00000
00010
01000
00010
00000
00100
00000
,
00001
10000
00001
00100
00010
01000
00100
10000
,
00020
00000
00030
00100
00000
00100
00001
00100
,
00020
00030
10000
00100
10000
00010
00200
00000
,
00302
00100
00103
01001
,
00100
00000
10000
00100
02000
00000
03100
00000
,
01002
00000
00103
00000
00010
00100
00010
01000
,
00010
00100
00002
00000
20003
00000
30100
00000
,
02000
00100
03100
01002
,
00103
00000
00001
00100
00010
00000
01010
00000
,
00100
00000
00001
10000
00100
00000
01000
10000
,
00100
00000
00001
10000
00200
00000
01300
00000
,
00001
00000
00001
10000
00100
00000
02000
00000
,
03010
00000
00010
00100
00002
00000
10003
00000
,
00100
00100
00010
01000
00010
01000
00010
10000
,
00001
10000
00001
00000
00100
00000
01010
00000
,
00010
01000
00001
01000
00010
10000
00010
01000
,
00200
00000
00000
00000
00300
10000
00001
00000
,
00100
00000
00100
00010
10000
00100
02000
03000
,
00100
00000
00100
01000
00001
00100
00020
00030
,
10000
00010
00100
00010
10000
00100
02000
00000
,
00020
00000
00000
03030
00000
00001
00100
00010
,
02000
03010
00020
01030
,
00010
01000
00100
20000
30000
00001
00100
00010
,
20000
00000
00200
00000
30300
00000
10000
00010
,
00100
00002
00003
01000
00100
01000
00010
00000
,
10000
00001
00100
00020
00030
00001
00200
00300
,
10000
00001
02000
03000
00100
10000
00001
00000
,
01000
00100
00010
00000
00010
00100
01000
00010
,
00100
20002
00000
00000
00000
30003
00100
10000
,
00002
00103
01001
20000
,
30100
00000
10010
00000
01010
00000
01000
00001
,
00100
00010
01000
00000
00100
00000
01000
00010
,
00100
00000
00001
10000
00100
00000
02020
00000
,
03030
00000
00000
00000
,
02000
00000
00000
00000
,
03020
00000
00000
00030
,
00200
00000
00000
00000
00000
00000
00300
00001
,
10000
10100
10100
10100
,
00020
00000
00000
00030
,
02000
00000
00000
03000
,
00002
00000
00000
00003
,
00101
00000
00101
00000
00101
00000
00001
00100
,
00020
00000
00100
00000
00100
00000
02000
03030
,
01000
00000
00010
00100
00002
00003
01000
00000
,
00001
00000
10000
00100
01000
00000
01000
00001
,
00100
00000
00010
00000
01000
00000
00200
00300
,
20000
00000
00000
00000
30100
01000
00020
00030
,
00100
00000
00100
00000
00001
10000
00100
00000
,
01000
00010
00100
00000
00001
00000
10000
00000
,
10001
00000
00000
00000
,
01000
00010
00100
00001
00000
00001
01000
00100
,
20000
30000
00010
00100
00010
10000
00200
00000
,
02300
00100
03100
01001
,
00100
00000
00010
00100
00002
00000
00103
00000
,
02001
00000
03100
00000
10000
00100
10000
00001
,
10000
00100
02000
00000
03020
00000
00130
00000
,
00002
00100
00103
02001
,
03100
00000
01000
00100
10000
00000
10001
00000
,
00100
00000
01000
00010
00100
00000
00001
00010
,
00100
00000
01000
00010
00200
00000
00301
00000
,
01000
00010
01000
00010
00100
00001
10000
00100
,
01000
00010
10000
00100
02000
00000
03010
00000
,
00100
00100
10000
00001
10000
00001
10000
00010
,
01000
00010
01000
00000
00100
00000
10001
00000
,
10000
00001
01000
00010
10000
00001
01000
00010
,
00200
00000
00000
00000
00300
00010
01000
00000
,
00100
00000
00100
10000
00010
00100
00002
00003
,
00100
00000
00100
00001
01000
00100
20000
30000
,
00010
10000
00100
10000
00010
00100
00002
00000
,
20000
00000
00000
30003
00000
01000
00100
10000
,
00010
00110
10000
10100
,
10000
01000
00100
00020
00030
01000
00100
00010
,
00002
00000
00200
00000
00303
00000
00100
00010
,
01000
00200
00300
10000
00001
00001
10000
00000
,
00010
01000
00100
20000
30000
00100
02000
03000
,
00010
00100
00002
00003
00100
00010
01000
00000
,
00001
00100
00001
00000
10000
00100
10000
00001
,
00100
02020
00000
00000
00000
03030
00100
00010
,
02000
00100
03010
00002
,
00100
00000
10003
00000
10001
00000
00100
01000
,
00100
10000
00001
00000
00100
00000
00001
10000
,
00100
00000
01000
00010
20000
00000
00000
00000
,
30000
00000
00000
00000
,
00002
00000
00000
00000
,
20003
00000
00000
30000
,
00200
00000
00000
00000
00000
00000
00300
01000
,
00010
10000
00002
00103
,
20000
00000
00000
30000
,
00002
00000
00000
00003
,
02000
00000
00000
03000
,
00100
10000
00020
00130
,
20000
00000
00100
00000
00100
00000
00002
30003
,
00001
00000
10000
00100
02000
03000
00001
00000
,
01000
00000
00010
00100
00001
00000
00001
01000
,
00100
00000
10000
00000
00001
00000
00200
00300
,
00020
00000
00000
00000
00130
00001
20000
30000
,
00100
00000
00100
00000
01000
00010
00100
00000
,
00001
10000
00100
00000
01000
00000
00010
00000
,
01010
00000
01000
00000
00010
01000
00010
01000
,
00200
00000
00300
10000
00001
00000
01000
00100
,
20000
30000
01000
00100
01000
10000
00200
00000
,
02300
03001
20000
30010
,
00001
10000
10000
00100
01000
00000
01001
00000
,
00010
00000
10010
00000
00001
00100
00010
01000
,
00001
10000
00100
01000
00010
00000
00100
00000
,
00010
00100
00001
00100
00010
00000
01010
00000
,
00010
01000
00001
10000
00100
00000
01010
00000
,
02002
00000
03003
00100
00000
00100
10000
01000
,
00002
00003
00010
00100
01000
00001
00020
00000
,
20030
00100
30100
10010
,
00100
00000
01000
00100
00020
00000
00130
00000
,
00012
00000
00103
00000
00001
00100
00001
00010
,
00001
00100
10000
01000
00200
00000
10300
00000
,
00020
00100
00130
00012
,
00103
00000
10000
00100
00001
00000
00011
00000
,
00011
00000
00010
00100
01000
00000
10000
00100
,
01000
00000
00010
00100
02000
00000
13000
00000
,
11000
00000
10000
01000
00100
00000
00020
00000
,
00031
00000
00001
00100
20000
00000
31000
00000
,
00100
00010
00001
00010
10000
01000
10000
00010
,
00001
00010
10000
01000
00100
00000
00011
00000
,
00001
00010
00100
01000
00100
00010
10000
00100
,
02000
03000
10000
01000
00100
00020
00000
00030
;

//--------------- pump-single - ----------------
#NOTEDATA:;
#STEPSTYPE:pump-single;
#DESCRIPTION:;
#DIFFICULTY:Hard;
#METER:14;
#RADARVALUES:0.684471,0.751029,0.362532,0.445816,0.146972,978,904,74,91,0,0,0,0,0,0.684471,0.751029,0.362532,0.445816,0.146972,978,904,74,91,0,0,0,0,0;
#OFFSET:-0.303;
#BPMS:0.000=173.000;
#SPEEDS:0.000=0.500=0.000=0,
16.000=1.000=12.000=0,
288.000=0.125=0.000=0,
288.021=1.000=4.000=0,
418.500=0.500=4.000=0,
456.000=1.000=16.000=0,
516.000=0.000=0.000=0,
516.500=1.000=0.000=0,
517.000=0.000=0.000=0,
517.500=1.000=0.000=0,
518.000=0.000=0.000=0,
518.500=1.000=0.000=0,
582.500=4.000=2.000=0
;
#SCROLLS:0.000=1.000,
16.000=0.500,
28.000=1.000,
288.000=0.500,
292.000=1.000
;
#TICKCOUNTS:0.000=2,
16.000=4,
418.500=2,
484.000=4,
485.500=2,
488.000=4,
500.000=2,
520.000=4
;
#TIMESIGNATURES:0.000=4=4;
#LABELS:0.000=Song Start;
#ATTACKS:TIME=89.869:LEN=1.127:MODS=Stealth, Dark, Overhead, Normal :TIME=214.551:LEN=4.769:MODS=0.5x, Stealth, Dark, Overhead, Normal
;
#COMBOS:0.000=1;
#DISPLAYBPM:173.000;
#CHARTNAME:;
#LABELTYPE:UCS;
#PRELOADNOTESKIN:;
#SEPARATENOTES:NO;
#PLAYERS:1;
#QUESTDESC:;
#QUESTMODS:;
#QUESTBARINITIAL:500;
#QUESTBARMAX:1000;
#SHOWSKINSCORE:NO;
#RANDOMSKINLIST:;
#CHARTSTYLE:;
#CREDIT:Haruki-kun;
#DIVISION:;
#BRAINHELP:0.000000=BrainHelp ;
#SPECIALDIVISION:;
#DISPLAYPERSPECTIVE:PUMP;
#NOTES:
00000
00000
00000
00000
,
00000
00000
00000
00000
,
00000
00000
00000
00000
,
10000
00001
00100
00020
,
02030
00000
00000
00100
00000
00000
00000
00000
,
00001
00000
00000
00001
00000
00000
00000
00000
,
00100
00000
00000
00100
00000
00000
03000
00000
,
00100
00100
10000
00001
10000
00100
01000
00010
,
00200
00000
00301
00000
01001
00000
00001
10000
,
00100
00000
01000
00100
10000
02000
00000
03000
,
00100
00020
00030
01000
00200
00300
01000
01000
,
00010
00100
00001
00010
00001
00100
00010
01000
,
00200
00000
01300
00000
01100
01000
00100
01000
,
00001
00000
00001
00000
01000
00000
00000
00000
02200
00000
00000
00000
00000
03300
00000
00000
,
01000
00000
00100
00000
10000
00000
00010
00000
10000
00100
00000
00000
10100
00000
00000
00000
,
10000
00010
00100
00010
10000
01000
00100
00010
,
01000
11000
00100
00011
,
00100
00010
01000
00001
20000
30000
00100
10000
,
00010
00000
00100
00000
00001
00000
00010
00000
00200
00000
00300
00000
01000
00000
00000
01000
,
00100
00000
00000
00100
10000
00000
00000
10000
00001
00000
00100
00000
00010
00000
00000
00000
,
01010
00000
00210
00000
00301
00000
10000
00100
,
02000
03000
10000
01000
00200
00000
00320
00030
,
00011
00001
01000
00001
00100
00010
00100
00100
,
00001
10000
10000
00010
00100
00100
00001
10000
,
02020
00000
03030
00100
10000
00010
01000
00100
,
20000
30000
01000
00100
01000
10000
00200
00000
,
01300
01100
11000
01100
,
00100
00000
10000
00100
10000
00000
00100
00000
01001
00000
00000
00000
00101
00000
00000
00000
,
00011
00000
00011
00000
00101
00100
00010
01000
,
00001
00000
00100
00010
00100
00000
00001
00000
02000
00000
00000
00000
03100
00000
00000
00000
,
01010
00110
00011
00110
,
00010
00000
01000
00100
10000
00000
00100
00000
01000
00000
00010
00000
01010
00000
00000
00000
,
00100
00001
10000
00100
00001
00100
10000
00010
,
01000
00100
00010
00100
02000
00000
00020
03030
,
01000
00100
01000
10000
00100
10000
02000
00000
,
03010
00100
00010
00001
00100
00001
00020
00000
,
01030
00000
00010
00000
01000
00100
10000
00000
00010
00100
00001
00000
10000
00100
01000
00000
,
00001
00100
00010
00000
10000
00000
00001
00000
00100
00000
00000
00000
01010
00000
00000
00000
,
00100
00100
00010
01000
00010
00100
00010
01000
,
00100
00100
10000
10000
00001
00001
00100
00000
,
00010
00000
01000
00000
00100
00000
10000
00010
10000
00000
00100
00000
02000
00000
03000
00000
,
00010
00000
00100
00000
00001
00000
01000
00001
01000
00000
00010
00000
00200
00000
00300
00000
,
00001
00000
00010
00000
00100
00000
01000
00010
01000
00000
00100
00000
10000
00000
00001
00000
,
00100
00000
00010
00100
00001
00000
01000
00100
10000
00000
00001
00000
00100
00000
00010
00000
,
01000
01100
01010
00110
,
01010
01000
00100
20000
30000
00010
00100
01000
,
00100
00000
00010
01000
00010
00000
00100
00000
00001
00000
01000
00000
00100
00000
10000
00000
,
00100
00000
01000
00100
10000
00000
00100
00000
01000
00000
01000
00000
00010
00000
00010
00000
,
10000
00000
00001
00000
00100
00000
00010
10000
00010
00000
00100
00000
00002
00000
00003
00000
,
10000
00000
00100
00000
01000
00000
00001
01000
00001
00000
10000
00000
00200
00000
00300
00000
,
01000
00000
10000
00000
00100
00000
00001
10000
00001
00000
00100
00000
00010
00000
01000
00000
,
00100
00000
10000
00100
01000
00000
00001
00100
00010
00000
01000
00000
00100
00000
10000
00000
,
00001
00101
10001
10100
,
10001
00001
00100
00020
00030
10000
00100
00001
,
00100
00000
10000
00001
10000
00000
00100
00000
01000
00000
00001
00000
00100
00000
00010
00000
,
00100
00000
00001
10000
00001
00000
00100
00000
00020
00000
02000
00000
00000
00000
00000
00000
,
03030
00000
00000
00000
,
00001
01000
00100
10000
00001
10000
00001
00100
,
00001
00010
00001
00100
00001
01000
00020
00030
,
00100
00010
10000
00001
10000
00100
10000
01000
,
10000
11000
01100
00110
,
00100
00010
00100
00010
10000
00100
10000
01000
,
10000
00100
10000
01000
10000
00100
02000
03000
,
00100
01000
00001
00010
00001
00100
00001
00010
,
00001
00100
00100
00010
00010
01000
01000
00100
,
20000
00000
30000
00000
01000
00000
00100
00000
00020
00000
00000
00030
02000
00000
03000
00000
,
00001
00100
00010
00100
00002
00003
01001
00000
,
00100
00010
10000
00010
00100
00001
01000
00001
,
00100
00010
01000
00100
10000
00001
00200
00300
,
00002
00000
00003
00000
00010
00000
00100
00000
02000
00000
00000
03000
00020
00000
00030
00000
,
00100
00001
10000
00001
10000
00100
01000
00100
,
01000
00010
00100
00010
00100
00000
00100
00000
,
10001
00000
00000
00000
,
20002
00000
30003
00100
00010
00001
00100
10000
,
00002
00003
01000
00100
01000
00010
00200
00000
,
00301
00101
00011
00101
,
00100
00000
00010
00100
00010
00000
00100
00000
01001
00000
00000
00000
01100
00000
00000
00000
,
11000
00000
11000
00000
01100
00100
10000
00001
,
01000
00000
00100
10000
00100
00000
01000
00000
00002
00000
00000
00000
00103
00000
00000
00000
,
10001
10100
11000
10100
,
10000
00000
00001
00100
00010
00000
00100
00000
00001
00000
10000
00000
10001
00000
00000
00000
,
00100
01000
00010
00100
01000
00100
00010
10000
,
00001
00100
10000
00100
00002
00000
20000
30003
,
00001
00100
00001
00010
00100
00010
00002
00000
,
10003
00100
10000
01000
00100
01000
20000
00000
,
30001
00000
10000
00000
00001
00100
00010
00000
10000
00100
01000
00000
00010
00100
00001
00000
,
01000
00100
10000
00000
00010
00000
01000
00000
00100
00000
00000
00000
10001
00000
00000
00000
,
00100
00100
10000
00001
10000
00100
10000
00001
,
00100
00100
00010
00010
01000
01000
00100
00000
,
10000
00000
00001
00000
00100
00000
00010
01000
00010
00000
00100
00000
00002
00000
00003
00000
,
10000
00000
00001
00000
00100
00000
00010
01000
00010
00000
10000
00000
00200
00000
00300
00000
,
01000
00000
10000
00000
00100
00000
00001
10000
00001
00000
00100
00000
00010
00000
01000
00000
,
00100
00000
10000
00100
01000
00000
00001
00100
00010
00000
01000
00000
00100
00000
10000
00000
,
00001
00101
10001
10100
,
10001
00001
00100
00020
00030
10000
00100
00001
,
00100
00000
10000
00001
10000
00000
00100
00000
01000
00000
00100
00000
00010
00000
00100
00000
,
01000
00000
00001
00100
00010
00000
00100
00000
00001
00000
00001
00000
10000
00000
10000
00000
,
00010
00000
01000
00000
00100
00000
10000
01000
10000
00000
00100
00000
02000
00000
03000
00000
,
01010
00000
00010
00000
00100
00000
00001
00010
00001
00000
00100
00000
00020
00000
00030
00000
,
10001
00000
10000
00000
00100
00000
01000
00010
01000
00000
00100
00000
10000
00000
00001
00000
,
00100
00000
00010
00100
00001
00000
01000
00100
10000
00000
00001
00000
00100
00000
00010
00000
,
01000
11000
01010
00011
,
01010
01000
00100
20000
30000
00010
00100
01000
,
00100
00000
00010
01000
00010
00000
00100
00000
00001
00000
00100
00000
10000
00000
01000
00000
,
00100
00000
10000
01000
00100
00000
00010
00000
20000
00000
00200
00000
30000
00000
00000
00000
,
00300
00000
00000
00000
,
20000
00000
30000
00100
,
02000
00000
03000
00002
00000
00003
00020
00230
,
00000
00300
00000
00000
00000
00000
02000
00000
,
03020
00000
00030
00200
00000
00300
02000
23000
,
00000
30000
00000
00200
,
02300
00000
00000
00000
,
00020
03000
00000
00000
,
00000
00000
00030
00000
,
20010
00100
00100
30100
,
01000
00100
10000
00100
01000
00100
10000
00100
,
01000
00002
00100
00103
,
00100
00010
00100
00001
00100
00010
00100
00001
,
00100
00020
00100
00130
,
10000
00100
01000
00100
10000
00100
01000
00000
,
01010
00200
00000
00000
,
00000
00000
00000
00000
00000
00000
00000
00000
00000
00000
00000
00000
00000
00300
00000
00000
,
10001
00001
00101
01001
,
00100
10000
10100
10010
,
00100
00000
01000
00010
01000
00100
10000
00001
,
00200
00000
00000
00300
,
01010
00000
00100
00001
20000
00000
30001
00000
,
10001
00000
00100
01000
00020
00000
01030
00000
,
00010
01000
00010
10000
00100
10000
00001
00100
,
00001
00000
00000
00000
,
00001
00000
10000
00000
00100
00000
01000
00010
01000
00000
00100
00000
20000
00000
30000
00000
,
00001
00000
00100
00000
00010
00000
01000
00010
01000
00000
00001
00000
00200
00000
00300
00000
,
00010
00000
01000
00000
00100
00000
10000
01000
10000
00000
00100
00000
01000
00000
00010
00000
,
00100
00000
00001
00010
00100
00000
01000
00010
00100
00000
00001
00000
01000
00000
00100
00000
,
20000
30100
00002
00103
,
10001
10000
00100
02000
03000
00001
00100
10000
,
00100
00000
00001
10000
00001
00000
00100
00000
00010
00000
10000
00000
00100
00000
01000
00000
,
00100
00000
10000
00100
01000
00000
00010
00000
00100
00000
00001
00000
00101
00000
00001
00000
,
01000
00000
00100
00000
00010
00000
00001
00100
00010
00000
00001
00000
00200
00000
00300
00000
,
10000
00000
00100
00000
01000
00000
10000
00100
10000
00000
01000
00000
00200
00000
00300
00000
,
10000
00000
00001
00000
00100
00000
00010
01000
00010
00000
00100
00000
00001
00000
10000
00000
,
00100
00000
01000
10000
01000
00000
00010
00001
00010
00000
10000
00000
00100
00000
01000
00000
,
00020
00130
02000
03100
,
01010
00010
00100
00002
00003
01000
00100
00010
,
00100
00000
01000
00001
01000
00000
00100
00000
10000
00000
01000
00000
00100
00000
00001
00000
,
00010
00000
00100
10000
00001
00000
00100
00000
00020
00000
02000
00000
00000
00000
00000
00000
,
03030
00000
00000
00000
;

//--------------- pump-single - ----------------
#NOTEDATA:;
#STEPSTYPE:pump-single;
#DESCRIPTION:;
#DIFFICULTY:Challenge;
#METER:20;
#RADARVALUES:0.954621,1.215951,0.656477,0.710366,0.649128,1364,1179,134,145,0,57,0,0,0,0.954621,1.215951,0.656477,0.710366,0.649128,1364,1179,134,145,0,57,0,0,0;
#OFFSET:-0.303;
#BPMS:0.000=173.000;
#SPEEDS:0.000=0.000=0.000=0,
0.250=0.500=0.000=0,
1.500=0.000=0.000=0,
1.750=0.500=0.000=0,
4.000=0.000=0.000=0,
4.250=0.500=0.000=0,
5.500=0.000=0.000=0,
5.750=0.500=0.000=0,
8.000=0.000=0.000=0,
8.250=0.500=0.000=0,
9.500=0.000=0.000=0,
9.750=0.500=0.000=0,
16.000=1.000=12.000=0,
222.500=4.000=2.000=0,
224.000=1.000=0.000=0,
288.000=0.125=0.000=0,
288.021=1.000=4.000=0,
418.500=0.500=4.000=0,
456.000=1.000=16.000=0,
516.000=0.000=0.000=0,
516.500=1.000=0.000=0,
517.000=0.000=0.000=0,
517.500=1.000=0.000=0,
518.000=0.000=0.000=0,
518.500=1.000=0.000=0,
582.500=4.000=2.000=0
;
#SCROLLS:0.000=1.000,
16.000=0.500,
28.000=1.000,
222.500=0.500,
260.000=1.000,
288.000=0.500,
292.000=1.000
;
#TICKCOUNTS:0.000=2,
16.000=4,
418.500=2,
484.000=4,
485.500=2,
488.000=4,
500.000=2,
520.000=4,
582.500=8
;
#TIMESIGNATURES:0.000=4=4;
#LABELS:0.000=Song Start;
#ATTACKS:TIME=77.170:LEN=1.127:MODS=Stealth, Dark, Overhead, Normal :TIME=214.551:LEN=4.769:MODS=0.5x, Stealth, Dark, Overhead, Normal
;
#COMBOS:0.000=1;
#DISPLAYBPM:173.000;
#CHARTNAME:;
#LABELTYPE:;
#PRELOADNOTESKIN:;
#SEPARATENOTES:NO;
#PLAYERS:1;
#QUESTDESC:;
#QUESTMODS:;
#QUESTBARINITIAL:500;
#QUESTBARMAX:1000;
#SHOWSKINSCORE:NO;
#RANDOMSKINLIST:;
#CHARTSTYLE:;
#CREDIT:Haruki-kun;
#DIVISION:;
#BRAINHELP:0.000000=BrainHelp ;
#SPECIALDIVISION:;
#DISPLAYPERSPECTIVE:PUMP;
#NOTES:
00000
00000
00000
00000
,
00000
00000
00000
00000
,
00000
00000
00000
00000
,
00002
00003
02000
03000
00200
00300
00020
00030
,
00002
00000
00000
01100
00000
00000
00000
00000
,
10100
00000
00000
10100
00000
00000
00000
00000
,
00110
00000
00000
00110
00000
00000
00003
00000
,
00100
00001
00100
00000
00010
01000
00010
00000
01010
00000
01000
00000
00100
00000
20000
00000
,
02000
33000
11000
00000
11100
00000
00000
00010
,
00200
00300
00001
00100
00010
00002
00000
00003
,
00100
00000
20020
00000
30030
00000
00100
00000
02002
00000
03003
00000
00001
00000
01000
00100
,
10000
00000
00100
00000
01000
00000
10000
00000
01000
00000
00100
00010
00001
00000
00100
00000
,
00010
00001
00011
00000
00111
00000
00100
00001
,
01000
00000
00100
00000
10000
00000
00000
00000
22200
00000
00000
00000
00000
33300
00000
00000
,
10000
00100
01000
00100
10000
01000
11000
00000
,
01100
10010
00101
01100
10010
01001
00110
10100
,
00101
00000
01101
00000
01110
00000
10110
10000
,
00100
01000
00001
10000
00020
00030
00100
00010
,
01000
00001
01000
00010
20000
30000
00000
00000
,
00001
00000
00100
00000
00010
00000
00000
00010
01000
00000
00100
00000
10000
00000
00000
00000
,
10001
00000
10200
00000
01300
00000
00010
00100
,
00002
00003
00011
00001
00200
00000
00310
00000
,
10010
01000
00001
01000
00100
10000
00100
01000
,
00010
00100
00001
00000
00010
00100
01000
00000
00010
00100
01000
00000
10000
00000
00100
00000
,
02020
00000
03030
00100
00010
10000
00001
00100
,
00010
10000
00010
00000
00100
00000
00001
00000
00010
00000
00100
00000
01000
00010
00100
00000
,
00001
00111
01101
00111
,
00001
00000
01000
00100
10000
00000
01000
00000
00100
00000
00010
00000
10110
00000
00000
00000
,
11100
00000
10110
00000
01100
00100
10000
01000
,
00001
00000
00010
00000
00100
00000
00001
01000
00200
00000
00300
00000
10001
00000
00000
00000
,
10001
10110
01101
10110
,
10000
00000
00001
00010
00100
00000
01000
00000
00010
00000
00100
00000
10001
00000
00000
00000
,
00100
01000
00010
00100
01000
00100
00010
10000
,
00001
00100
10000
00100
00002
00000
20000
30003
,
00001
00100
01000
10000
00100
00010
00002
00000
,
10003
00000
00100
10000
00001
00000
01000
00000
00100
00000
01000
00000
00120
00000
00030
00000
,
10010
10000
00001
01100
00001
10000
00110
01000
,
00010
10100
00010
01000
00101
10000
10001
00001
,
00100
00010
01000
00100
10000
00001
00100
00010
01000
00010
00100
00001
10000
00100
01000
00010
,
00100
00000
00001
00010
00001
00000
10000
01000
10000
00000
00100
00000
02020
00000
03030
00000
,
10000
00010
00100
00001
01000
00100
10000
00001
10000
00001
00100
00000
02020
00000
03030
00000
,
00001
01000
00100
10000
00010
00100
00001
10000
00001
10000
00100
00000
02020
00000
03030
00000
,
00001
00100
00010
00100
00010
00100
00001
10000
00001
00100
00010
01000
00010
00100
00001
10000
,
00100
01000
00100
10000
02000
03000
00100
00010
02000
03000
00001
00100
00001
00000
10000
00000
,
00102
00003
01101
00000
10101
00000
10110
00000
,
11100
00000
10000
00000
01000
00000
00100
00010
00100
00010
20000
30000
00200
00300
00002
00003
,
00200
00300
10000
01000
00100
00010
00001
00000
00010
00000
00100
00001
01000
00000
00010
00000
,
00100
00000
00001
01000
00001
00000
00100
00000
00001
00000
00101
00000
10000
00000
10100
00000
,
00010
10000
00100
01000
00001
00100
00010
01000
00010
01000
00100
00000
20002
00000
30003
00000
,
01000
00001
00100
00010
10000
00100
01000
00010
01000
00010
00100
00000
20002
00000
30003
00000
,
01000
00100
10000
00100
10000
00100
01000
00010
01000
00100
10000
00001
10000
00100
01000
00010
,
00100
00001
00100
00010
00002
00003
00100
10000
00002
00003
01000
00100
01000
00000
00010
00000
,
02100
03000
01101
00000
01110
00000
10110
00000
,
00111
00000
00010
00000
00001
00000
00100
10000
00100
10000
00020
00030
00200
00300
02000
03000
,
00200
00300
00010
00001
00100
10000
01000
00000
10000
00000
00100
01000
00001
00000
10000
00000
,
00100
00000
01000
00001
01000
00000
00100
00000
20000
00000
00220
00000
00000
00000
00000
00000
,
30330
00000
00000
00000
,
01000
00001
00100
00010
01000
00010
01000
00100
,
01000
10000
01000
00100
01000
00001
20000
30000
,
00100
10000
00010
01000
00010
00100
00010
00001
,
00010
00011
01010
11000
,
01000
01000
00100
10000
00010
00100
00010
00001
,
00010
00100
00010
00001
00010
00100
00002
00003
,
00100
00001
01000
10000
01000
00100
01000
10000
,
01000
00100
00100
10000
10000
00001
00001
00100
,
00010
01000
00001
00100
20000
30000
11000
00000
,
01000
00100
10000
00100
02000
03000
01001
00000
,
00100
10000
00010
10000
00100
01000
00001
01000
,
00100
10000
00001
00100
00010
01000
00200
00300
,
10000
10000
00001
00100
00020
00030
00011
00000
,
00010
00100
00010
01000
00010
00100
00001
00010
,
00001
10000
01000
10000
00100
00000
10001
00000
,
01110
00000
00000
00000
,
02020
00000
03030
00100
10000
01000
00100
00010
,
01000
00100
01000
00000
00001
00000
00100
00000
00001
00000
10000
00000
00010
00100
00001
00000
,
01000
00100
10000
00000
11100
00000
00000
00000
10110
00000
00000
00000
11100
00000
10000
00000
,
00100
00000
01000
00010
01000
00000
00100
00000
10000
00001
00100
00000
01101
00000
00000
00000
,
00111
00000
00000
00000
01101
00000
00000
00000
00111
00000
00010
00000
00001
00100
00010
00000
,
00001
00000
00010
00100
00001
01000
00000
00001
20000
00000
00000
00000
30100
00000
00000
00000
,
10101
00000
01110
00000
10101
00000
01110
01000
,
00010
00000
01000
00100
10000
00000
00100
00000
01000
00000
00010
00000
01010
00000
00000
00000
,
20000
30000
02000
03000
00200
00300
00002
00003
00020
00030
20000
30000
02000
03000
00020
00030
,
00002
00003
00200
00300
20000
30000
00002
00003
02000
00000
00000
00000
00020
00000
03030
00000
,
20000
30000
00002
00003
00020
00030
20000
30000
02000
03000
00200
00300
00002
00000
00000
00000
,
00013
00000
00100
00001
01000
00000
00100
10000
00010
00000
01000
00000
01210
00000
00300
00000
,
10000
00110
10000
00001
01100
00001
01000
10100
,
01000
00010
00101
00010
01100
00000
01110
00000
,
10010
00101
01100
10010
01001
00110
10100
01001
,
00110
00000
10000
00100
01000
00000
00001
00100
00010
00000
01000
00000
01110
00000
00000
00000
,
00001
01000
00100
00010
00001
00100
00010
01000
00100
01000
00010
00100
00001
00100
00001
01000
,
00010
10000
00100
00001
00010
00100
00001
01000
00100
01000
00010
00100
00001
00100
00001
01000
,
00010
00100
01000
00100
01000
00100
00010
00001
00010
00100
01000
10000
01000
00100
00010
00001
,
00100
10000
00100
00001
00020
00030
00100
00001
20000
30000
00010
00100
00010
00000
00001
00000
,
00111
10110
00111
10110
,
10101
00000
00001
00000
10000
00000
00100
01000
00100
01000
00002
00003
00200
00300
00020
00030
,
00200
00300
00001
10000
00100
01000
10000
00000
01000
00000
00100
10000
01000
00000
00100
00000
,
00010
00000
10000
00100
10000
00000
00100
00000
01000
00000
01100
00000
00001
00000
00101
00000
,
10000
00010
00100
01000
10000
00100
01000
00010
00100
00010
01000
00100
10000
00100
10000
00010
,
01000
00001
00100
10000
01000
00100
10000
00010
00100
00010
01000
00100
10000
00100
10000
00010
,
01000
00100
00010
00100
00010
00100
01000
10000
01000
00100
00010
00001
00010
00100
01000
10000
,
00100
00001
00100
10000
02000
03000
00100
10000
00002
00003
01000
00100
01000
00000
10000
00000
,
11100
01101
11100
01101
,
10101
00000
10000
00000
00001
00000
00100
00010
00100
00010
20000
30000
00200
00300
02000
03000
,
00200
00300
10000
00001
00100
00010
00001
00000
00010
00000
00100
00001
00010
00000
00100
00000
,
01000
00000
00001
00100
00001
00000
00100
00000
00010
00000
02100
00000
00000
00000
03000
00000
,
00000
00000
00000
00000
,
00020
00000
00030
00100
,
00002
00000
00003
02000
00000
03000
20000
30200
,
00000
00300
00000
00000
00000
00000
00002
00000
,
20003
00000
30000
00200
00000
00300
00002
00023
,
00000
00030
00000
00200
,
00302
00000
00000
00000
,
20000
00003
00000
00000
,
00000
00000
30000
00000
,
10020
00100
00100
00130
,
00001
01000
00010
00100
00001
00010
00100
01000
,
00020
00030
02000
00000
00100
00000
03100
00000
,
00100
10000
00010
01000
00100
10000
01000
00100
,
00020
00030
20000
00000
00100
00000
30100
00000
,
00010
00100
00001
01000
10000
00100
00001
00000
,
10001
00001
10000
10000
00100
00100
01000
01000
,
00010
00100
00010
00100
00010
00100
00010
00100
00001
10000
00100
01000
00010
00000
00000
00000
,
01010
01000
00100
10000
00110
10000
00002
00003
,
02000
03000
00010
00100
00001
01100
00020
00030
,
00100
00100
00001
10000
00001
00100
00010
01000
,
00002
00103
20000
30100
00020
00130
02000
03100
,
10001
00001
00100
00010
10100
00010
02000
03000
,
00002
00003
10000
00100
01000
00101
20000
30000
,
00100
00100
01000
00010
01000
00100
10000
00001
,
02000
03100
00020
00130
20000
30100
00002
00003
,
01000
00001
00100
10000
01000
00100
10000
00001
00100
00001
10000
00100
01000
00100
01000
00001
,
10000
00010
00100
01000
10000
00100
01000
00001
00100
00001
10000
00100
01000
00100
01000
00001
,
10000
00100
00001
00100
00001
00100
10000
01000
10000
00100
00001
00010
00001
00100
10000
01000
,
00100
00010
00100
01000
20000
30000
00100
01000
00020
00030
10000
00100
10000
00000
01000
00000
,
00100
00010
01000
00100
10000
01000
00100
00010
01000
00100
10000
01000
00100
00010
01000
00100
,
10000
00001
01000
00010
10000
00001
00100
00010
00100
00010
02000
03000
00200
00300
00020
00030
,
00002
00003
01000
00010
00100
00001
00110
00000
00001
00000
00100
00010
01100
00000
00010
00000
,
10000
00000
00001
00100
00010
00000
01110
00000
00001
00000
01101
00000
10000
00000
10110
00000
,
00010
10000
00100
00001
00010
00100
00001
10000
00100
10000
00001
00100
00010
00100
00010
10000
,
00001
01000
00100
00010
00001
00100
00010
10000
00100
10000
00001
00100
00010
00100
00010
10000
,
00001
00100
10000
00100
10000
00100
00001
00010
00001
00100
10000
01000
10000
00100
00001
00010
,
00100
01000
00100
00010
00002
00003
00100
00010
02000
03000
00001
00100
00001
00000
00010
00000
,
00100
01000
00001
00100
00010
01000
00100
00010
00001
00100
00010
01000
00100
00010
00001
00100
,
00010
01000
00010
10000
00001
01000
00100
10000
00100
10000
00020
00030
00200
00300
02000
03000
,
20000
30000
00010
01000
00100
10000
01000
00100
01000
10000
00100
00010
00001
00100
00010
00001
,
00100
10000
00100
00001
00010
00100
01000
10000
00100
00000
02020
00000
00000
00000
00000
00000
,
03030
00000
00000
00000
;

//--------------- pump-double - ----------------
#NOTEDATA:;
#STEPSTYPE:pump-double;
#DESCRIPTION:;
#DIFFICULTY:Hard;
#METER:16;
#RADARVALUES:0.74606,0.858319,0.406624,0.338036,0.235156,1066,983,83,69,0,0,0,0,0,0.74606,0.858319,0.406624,0.338036,0.235156,1066,983,83,69,0,0,0,0,0;
#OFFSET:-0.303;
#BPMS:0.000=173.000;
#SPEEDS:0.000=0.050=0.000=0,
0.125=0.500=32.000=0,
47.000=0.550=1.000=0,
63.000=0.600=1.000=0,
80.000=0.650=1.000=0,
95.000=0.700=1.000=0,
111.000=0.750=1.000=0,
127.000=0.800=1.000=0,
141.500=0.850=1.000=0,
156.000=1.000=4.000=0,
224.000=0.750=4.000=0,
258.500=1.000=1.500=0,
352.000=1.500=4.000=0,
420.000=0.250=4.000=0,
456.000=1.000=32.000=0
;
#SCROLLS:0.000=0.125,
28.000=1.000,
224.000=0.750,
258.500=0.740,
352.000=0.750,
420.000=0.250,
424.000=1.000
;
#TICKCOUNTS:0.000=6,
583.750=48
;
#TIMESIGNATURES:0.000=4=4;
#LABELS:0.000=Song Start;
#COMBOS:0.000=1;
#CHARTNAME:;
#LABELTYPE:UCS;
#PRELOADNOTESKIN:;
#SEPARATENOTES:NO;
#PLAYERS:1;
#QUESTDESC:;
#QUESTMODS:;
#QUESTBARINITIAL:500;
#QUESTBARMAX:1000;
#SHOWSKINSCORE:NO;
#RANDOMSKINLIST:;
#CHARTSTYLE:;
#CREDIT:JasperSteps;
#DIVISION:;
#BRAINHELP:0.000000=BrainHelp ;
#SPECIALDIVISION:;
#DISPLAYPERSPECTIVE:PUMP;
#NOTES:
0000000000
0000000000
0000000000
0000000000
,
0000000000
0000000000
0000000000
0000000000
,
0000000000
0000000000
0000000000
0000000000
,
0000000000
0000000000
0000000000
0000000000
,
0000000000
0000000000
0000000000
0000000000
,
0000000000
0000000000
0000000000
0000000000
,
0000000000
0000000000
0000000000
0000000000
,
0000100000
0000010000
0000100000
0000010000
0001000000
0000001000
0000100000
0000010000
,
0000110000
0000000000
0001010000
0000000000
0001001000
0000000000
0000000000
0000001000
,
0000100000
0000000000
0000100000
0000010000
0010000000
0000000100
0000000000
0000000000
,
0000000100
0000010000
0000001000
0001000000
0000100000
0000000000
0000100000
0001000000
,
0000002000
0000003000
0000100000
0000010000
0020000000
0000000200
0030000300
0000000000
,
0010000100
0000000000
0000000000
0000000000
0000000100
0000000000
0000100000
0000000000
0000000000
0000000000
0000000000
0000000000
0000110000
0000000000
0000000000
0000000000
0000000000
0000000000
0000010000
0000000000
0000000000
0001000000
0000000000
0000000000
,
0000000000
0000000000
0000000000
0000000000
0001000000
0000000000
0000001000
0000000000
0000000000
0000000000
0000000000
0000000000
0002002000
0000000000
0000000000
0003003000
0000000000
0000000000
0000000000
0000000000
0000000000
0000000000
0000000000
0000000000
,
0001001000
0000001000
0000100000
0000010000
0020000000
0030000000
0000010000
0000100000
,
0000000200
0000000300
0000001000
0000010000
0000200000
0000002000
0000303000
0000000000
,
0000101000
0001010000
0000101000
0001010000
,
0001000000
0000000000
0000000000
0000000000
0000100000
0000000000
0010000000
0000000000
0000000000
0000000000
0001000000
0000000000
0000200000
0000000000
0000000000
0000300000
0000000000
0000000000
0000010000
0000000000
0000000000
0000000000
0001000000
0000000000
,
0000001000
0000000000
0000000000
0000000000
0000010000
0000000000
0000000100
0000000000
0000000000
0000000000
0000001000
0000000000
0000020000
0000000000
0000000000
0000030000
0000000000
0000000000
0000000000
0000000000
0000000000
0000000000
0000000000
0000000000
,
0000110000
0000100000
0000001000
0001000000
0000200000
0000300000
0020000000
0030000000
,
0002000000
0000000000
0000000000
1003000000
0000000000
0000000000
0000000000
0000000000
0001000000
1000000000
0000000000
1000000000
,
0000100000
0000000000
0000000000
0000000000
0000000000
0000000000
0010100000
0000000000
0000000000
0000000000
0000100000
0000000000
0001000000
0000000000
0000000000
0000000000
0000000000
0000000000
0000002000
0000000000
0000000000
0000003000
0000000000
0000000000
,
0000200000
0000000000
0000000000
0000300000
0000000000
0000000000
0000010000
0000000000
0000000000
0000000000
0000001000
0000000000
0000000100
0000000000
0000000000
0000000000
0000010000
0000000000
0000000001
0000000000
0000000000
0000000000
0000000100
0000000000
,
0000000020
0000000030
0000002000
0000003000
0000020000
0000030000
0000200000
0000300000
,
0000110000
0000000000
0000100000
0000010000
0000100000
0000000000
0000010000
0000000000
0001000000
0000000000
0000001000
0000000000
0000010000
0000000000
0000000100
0000000000
,
0000001000
0000000000
0000000100
0000001000
0000000100
0000000000
0000001000
0000000000
0000010000
0000000000
0000100000
0000000000
0000000100
0000000000
0010000000
0000000000
,
0010000100
0000000000
0000000100
0000100000
0000010000
0000000000
0001000000
0000000000
0000001000
0000000000
0000010000
0000000000
0000000100
0000000000
0000001000
0000000000
,
0000010000
0000000000
0000100000
0000001000
0001000000
0000000000
0000001000
0000000000
0001001000
0000000000
0000000000
0000000000
0000110000
0000000000
0000000000
0000000000
,
0001001000
0000000000
0000001000
0001000000
0000001000
0000000000
0001000000
0000000000
0000010000
0000000000
0000100000
0000000000
0001000000
0000000000
0010000000
0000000000
,
0000100000
0000000000
0010000000
0000100000
0010000000
0000000000
0000100000
0000000000
0001000000
0000000000
0000001000
0000000000
0010000000
0000000000
0000000100
0000000000
,
0010000100
0000000000
0010000000
0000001000
0001000000
0000000000
0000010000
0000000000
0000100000
0000000000
0001000000
0000000000
0010000000
0000000000
0000100000
0000000000
,
0001000000
0000000000
0000001000
0000100000
0000010000
0000000000
0000100000
0000000000
0000110000
0000000000
0000000000
0000000000
0001001000
0000000000
0000000000
0000000000
,
0000101000
0000100000
0000001000
0001000000
0001010000
0000000000
0000000000
0000000000
,
0001010000
0001000000
0000100000
0010000000
0002000000
0003000000
0200000000
0300000000
,
0010000000
1000000000
0000100000
0010000000
0001000000
0000100000
0000020000
0000030000
,
0002000000
0000000000
0000000000
0000002000
0000000000
0003003000
0000000000
0000000000
,
0000001000
0000000000
0001000000
0000000000
0000010000
0000000000
0001000000
0000000000
0000001000
0000000000
0001000000
0000000000
0000010000
0000000000
0001000000
0000001000
,
0000100000
0000000000
0000001000
0000000000
0001000000
0000000000
0000001000
0000000000
0000100000
0000000000
0000001000
0000000000
0001000000
0000000000
0000001000
0000100000
,
0000010000
0000100000
0000000100
0010000000
0000010000
0000100000
0000001000
0001000000
,
0000010000
0000100000
0000010000
0000100000
0000010000
0000100000
0000010000
0000100000
0000010000
0000100000
0000010000
0000100000
0000010000
0000000000
0000000000
0000000000
,
0000110000
0000000000
0000100000
0000000000
0001000000
0000000000
0020000000
0000000000
0000100000
0030000000
0001000000
0000000000
0100000000
0000000000
0010000000
0000000000
,
1000000000
0000000000
0000100000
0000000000
0010000000
0000000000
0002000000
0000000000
0000100000
0003000000
0010000000
0000000000
0000100000
0000000000
0001000000
0000000000
,
0000010000
0000001000
0000000100
0000010000
0000000010
0000001000
0000000001
0000000100
,
0000000010
0000001000
0000001100
0000001000
0000010000
0000100000
0000001000
0001000000
,
0001010000
0000101000
0001010000
0000110000
,
0000100000
0000000000
0000010000
0000000000
0010000000
0000000000
0000200000
0000000000
0000300000
0000000000
0001000000
0000000000
0000001000
0000000000
0000010000
0000000100
,
0000010000
0000000000
0000001000
0000000000
0001000000
0000000000
0000100000
0010000000
0000100000
0000000000
0001000000
0000000000
0000001000
0000000000
0000100000
0000010000
,
0000100000
0000000000
0000001000
0000000000
0001000000
0000000000
0000010000
0000100000
0000010000
0000100000
0000010000
0000100000
0000010000
0000000000
0001000000
0000000000
,
0001001000
0000000000
0000001000
0000000000
0000010000
0000000000
0000000200
0000000000
0000001000
0000000300
0000010000
0000000000
0000000001
0000000000
0000000100
0000000000
,
0000000010
0000000000
0000001000
0000000000
0000000100
0000000000
0000020000
0000000000
0000001000
0000030000
0000000100
0000000000
0000001000
0000000000
0000010000
0000000000
,
0001000000
0000100000
0010000000
0001000000
1000000000
0000100000
0100000000
0010000000
,
1000000000
0000100000
0010100000
0000100000
0001000000
0000001000
0000100000
0000010000
,
0001010000
0000101000
0001010000
0001001000
,
0000001000
0000000000
0001000000
0000000000
0000000100
0000000000
0000002000
0000000000
0000003000
0000000000
0000010000
0000000000
0000100000
0000000000
0001000000
0010000000
,
0001000000
0000000000
0000100000
0000000000
0000010000
0000000000
0000001000
0000000100
0000001000
0000000000
0000010000
0000000000
0000100000
0000000000
0000001000
0001000000
,
0000001000
0000100000
0000010000
0001000000
0000002000
0000200000
0000000000
0000000000
,
0000303000
0000000000
0000000000
0000000000
,
0001001000
0001000000
0000100000
0010000000
0001000000
0000100000
0000010000
0000001000
,
0000000100
0000010000
0000001000
0001000000
0000020000
0000000000
0000130000
0000000000
,
0000000100
0000100000
0000010000
0000001000
0000010000
0000100000
0001000000
0000100000
,
0000001000
0001000000
0000010000
0000100000
0000001000
0001000000
0001010000
0000000000
,
0000110000
0000010000
0000001000
0000000100
0000010000
0000001000
0001000000
0000100000
,
0010000000
0001000000
0000100000
0000010000
0002000000
0000000000
0003001000
0000000000
,
0010000000
0000001000
0001000000
0000100000
0000001000
0000010000
0001000000
0000001000
,
0000010000
0000001000
0000100000
0000010000
0001000000
0000002000
0000000000
0000003000
,
0000201000
0000000000
0000000000
0001000000
0000002000
0000000000
0000303000
0000000000
,
0000100000
0001000000
0010000000
0000100000
0001000000
0000000000
0001100000
0000000000
,
0000100000
0001000000
0000001000
0000010000
0000001000
0001000000
0000010000
0000100000
,
0001000000
0000100000
0000010000
0010000000
0000000100
0001000000
0000001000
0000000000
,
0002001000
0000000000
0000000000
0000100000
0000020000
0000000000
0003030000
0000000000
,
0000010000
0000100000
0001000000
0010000000
0001000000
0000000000
0011000000
0000000000
,
0010000000
0000100000
0001000000
0000001000
0000100000
0000000000
0000101000
0000000000
,
0000100000
0000010000
0000001000
0000000100
0001000000
0000000000
0001001000
0000000000
,
0001001000
0000000000
0000001000
0001000000
0000001000
0000000000
0001000000
0000000000
0000010000
0000000000
0000100000
0000000000
0001000000
0000000000
0010000000
0000000000
,
0000100000
0000000000
0010000000
0000100000
0010000000
0000000000
0000100000
0000000000
0001000000
0000000000
0000001000
0000000000
0010000000
0000000000
0000000100
0000000000
,
0010000100
0000000000
0010000000
0000001000
0001000000
0000000000
0000010000
0000000000
0000100000
0000000000
0001000000
0000000000
0010000000
0000000000
0000100000
0000000000
,
0001000000
0000000000
0000001000
0000100000
0000010000
0000000000
0000100000
0000000000
0000110000
0000000000
0000000000
0000000000
0001001000
0000000000
0000000000
0000000000
,
0000110000
0000000000
0000100000
0000010000
0000100000
0000000000
0000010000
0000000000
0001000000
0000000000
0000001000
0000000000
0000010000
0000000000
0000000100
0000000000
,
0000001000
0000000000
0000000100
0000001000
0000000100
0000000000
0000001000
0000000000
0000010000
0000000000
0000100000
0000000000
0000000100
0000000000
0010000000
0000000000
,
0010000100
0000000000
0000000100
0000100000
0000010000
0000000000
0001000000
0000000000
0000001000
0000000000
0000010000
0000000000
0000000100
0000000000
0000001000
0000000000
,
0000010000
0000000000
0000100000
0000001000
0001000000
0000000000
0000001000
0000000000
0001001000
0000000000
0000000000
0000000000
0000110000
0000000000
0000000000
0000000000
,
0000101000
0000001000
0000100000
0000010000
0001010000
0000000000
0000000000
0000000000
,
0001010000
0000010000
0000001000
0000000100
0000020000
0000030000
0000000002
0000000003
,
0000000100
0000000010
0000001000
0000000100
0000010000
0000001000
0002000000
0003000000
,
0000020000
0000000000
0000000000
0000200000
0000000000
0000330000
0000000000
0000000000
,
0000100000
0000000000
0000010000
0000000000
0001000000
0000000000
0000010000
0000000000
0000100000
0000000000
0000010000
0000000000
0001000000
0000000000
0000010000
0000100000
,
0000001000
0000000000
0000100000
0000000000
0000010000
0000000000
0000100000
0000000000
0000001000
0000000000
0000100000
0000000000
0000010000
0000000000
0000100000
0000001000
,
0001000000
0000001000
0010000000
0000000100
0001000000
0000001000
0000100000
0000010000
,
0001000000
0000001000
0001000000
0000001000
0001000000
0000001000
0001000000
0000001000
0001000000
0000001000
0001000000
0000001000
0001000000
0000000000
0000000000
0000000000
,
0001001000
0000000000
0000001000
0000000000
0000010000
0000000000
0000000200
0000000000
0000001000
0000000300
0000010000
0000000000
0000000001
0000000000
0000000100
0000000000
,
0000000010
0000000000
0000001000
0000000000
0000000100
0000000000
0000020000
0000000000
0000001000
0000030000
0000000100
0000000000
0000001000
0000000000
0000010000
0000000000
,
0001000000
0000100000
0010000000
0001000000
1000000000
0000100000
0100000000
0010000000
,
1000000000
0000100000
0010100000
0000100000
0001000000
0000001000
0000100000
0000010000
,
0001010000
0000101000
0001010000
0001001000
,
0000001000
0000000000
0001000000
0000000000
0000000100
0000000000
0000002000
0000000000
0000003000
0000000000
0000010000
0000000000
0000100000
0000000000
0001000000
0010000000
,
0001000000
0000000000
0000100000
0000000000
0000010000
0000000000
0000001000
0000000100
0000001000
0000000000
0000010000
0000000000
0000100000
0000000000
0000001000
0001000000
,
0000001000
0000000000
0000100000
0000000000
0000010000
0000000000
0001000000
0000001000
0001000000
0000001000
0001000000
0000001000
0001000000
0000000000
0000010000
0000000000
,
0000110000
0000000000
0000100000
0000000000
0001000000
0000000000
0020000000
0000000000
0000100000
0030000000
0001000000
0000000000
0100000000
0000000000
0010000000
0000000000
,
1000000000
0000000000
0000100000
0000000000
0010000000
0000000000
0002000000
0000000000
0000100000
0003000000
0010000000
0000000000
0000100000
0000000000
0001000000
0000000000
,
0000010000
0000001000
0000000100
0000010000
0000000010
0000001000
0000000001
0000000100
,
0000000010
0000001000
0000001100
0000001000
0000010000
0000100000
0000001000
0001000000
,
0001010000
0000101000
0001010000
0000110000
,
0000100000
0000000000
0000010000
0000000000
0010000000
0000000000
0000200000
0000000000
0000300000
0000000000
0001000000
0000000000
0000001000
0000000000
0000010000
0000000100
,
0000010000
0000000000
0000001000
0000000000
0001000000
0000000000
0000100000
0010000000
0000100000
0000000000
0001000000
0000000000
0000001000
0000000000
0000100000
0000010000
,
0000100000
0000000000
0000001000
0000000000
0001000000
0000000000
0000010000
0000100000
0000010000
0000100000
0000010000
0000200000
0000020000
0000000000
0000000000
0000000000
,
0000330000
0000000000
0000000000
0000000000
,
0001001000
0000000000
0000000000
0000100000
,
0000010000
0000000000
0000000000
0000001000
0000000000
0000000000
0000000100
0000020000
,
0000000000
0000000000
0000030000
0000001000
,
0001000000
0000000000
0000000000
0000010000
0000000000
0000000000
0000100000
0002000000
,
0000000000
0000000000
0003000000
0010000000
,
0000100000
0000000000
0000100000
0001000000
0000000000
0001001000
0000000000
0000000000
,
0001001000
0000000000
0001000000
0000020000
0000000000
0000100000
0000030000
0000000000
,
0000100000
0000000000
0000100000
0001000000
0000000000
0010000000
0000100000
0001000000
,
0000002000
0000000000
0000100000
0000000000
0010000000
0000000000
0000100000
0000003000
,
0002000000
0000000000
0000010000
0000000000
0000000100
0000000000
0000010000
0003000000
,
0000020000
0000000000
0001000000
0000000000
0010000000
0000000000
0001000000
0000030000
,
0000200000
0000000000
0000001000
0000000000
0000000100
0000000000
0000001000
0000300000
,
0000010000
0000100000
0000010000
0000100000
0000001000
0001000000
0000001000
0001000000
,
0000010000
0000100000
0001000000
0010000000
0000100000
0001000000
0000001000
0000010000
,
0000000100
0000000000
0000001000
0000000000
0000000100
0000000000
0000001000
0000000000
0000010000
0000000000
0000100000
0000000000
0000010000
0000000000
0000100000
0000001000
,
0001000000
0000001000
0001000000
0000001000
0000100000
0000010000
0002000000
0003000000
,
0001001000
0000000000
0000001000
0000000000
0000010000
0000000000
0000000100
0000000000
0000001000
0000000000
0000010000
0000000000
0000100000
0000000000
0000001000
0001000000
,
0000001000
0000000000
0000100000
0000000000
0000010000
0000000000
0001000000
0000000000
0000100000
0000000000
0010000000
0000000000
0001000000
0000000000
0000100000
0000010000
,
0000100000
0000000000
0001000000
0000000000
0010000000
0000000000
0000100000
0001000000
0000100000
0000000000
0010000000
0000000000
0001000000
0000000000
0000100000
0000010000
,
0000100000
0000000000
0000001000
0000000000
0001000000
0000000000
0000000100
0000000000
0010000000
0000000000
0000000000
0000000000
0010000100
0000000000
0000000100
0000100000
,
0000010000
0000000000
0000100000
0000000000
0001000000
0000000000
0010000000
0000000000
0000100000
0000000000
0001000000
0000000000
0000001000
0000000000
0000100000
0000010000
,
0000100000
0000000000
0000001000
0000000000
0001000000
0000000000
0000010000
0000000000
0000001000
0000000000
0000000100
0000000000
0000010000
0000000000
0000001000
0001000000
,
0000001000
0000000000
0000010000
0000000000
0000000100
0000000000
0000001000
0000010000
0000001000
0000000000
0000000100
0000000000
0000010000
0000000000
0000001000
0001000000
,
0000002000
0000000000
0001000000
0000000000
0010000000
0000000000
0000200000
0000303000
,
0000001000
0000100000
0000001000
0000000000
0001000000
0000000000
0000001000
0000000000
0001000000
0000000000
0000100000
0000000000
0010000000
0000000000
0001000000
0000000000
,
0000100000
0000001000
0000100000
0000000000
0000010000
0000000000
0000100000
0000000000
0001000000
0000000000
0010000000
0000000000
0000100000
0000000000
0001000000
0000000000
,
0000001000
0000010000
0000000100
0000000000
0000001000
0000000000
0000100000
0000000000
0010000000
0000000000
0001000000
0000000000
0000100000
0000000000
0000010000
0000000000
,
0000110000
0000000000
0000010000
0001000000
0000001000
0000000000
0000100000
0000000000
0000001000
0000000000
0001000000
0000000000
0000100000
0000000000
0010000000
0001000000
,
0000100000
0000110000
0001001000
0010001000
,
0001001000
0000000000
0001000000
0000001000
0000100000
0000000000
0001000000
0000000000
0010000000
0000000000
0000100000
0000000000
0001000000
0000000000
0000001000
0000000000
,
0000100000
0000000000
0000000100
0000001000
0000000100
0000000000
0000100000
0000000000
0000001000
0000000000
0010000000
0001000000
0010000000
0000000000
0000001000
0000000000
,
0000100000
0000000000
0000001000
0001000000
0000020000
0000030000
0000200000
0000300000
0000002000
0000003000
0002000000
0003000000
0000020000
0000000000
0000030000
0000000000
,
0000100000
0000001000
0000100000
0000000000
0000010000
0000000000
0000100000
0000000000
0000010000
0000000000
0000001000
0000000000
0000000100
0000000000
0000010000
0000000000
,
0000001000
0000100000
0000001000
0000000000
0001000000
0000000000
0000001000
0000000000
0000010000
0000000000
0000000100
0000000000
0000001000
0000000000
0000010000
0000000000
,
0000100000
0001000000
0010000000
0000000000
0000100000
0000000000
0000001000
0000000000
0000000100
0000000000
0000010000
0000000000
0000001000
0000000000
0001000000
0000000000
,
0001001000
0000000000
0001000000
0000010000
0000100000
0000000000
0000001000
0000000000
0000100000
0000000000
0000010000
0000000000
0000001000
0000000000
0000000100
0000010000
,
0000001000
0001001000
0000110000
0000100100
,
0000110000
0000000000
0000010000
0000100000
0000001000
0000000000
0000010000
0000000000
0000000100
0000000000
0000001000
0000000000
0000010000
0000000000
0000100000
0000000000
,
0000001000
0000000000
0010000000
0000100000
0010000000
0000000000
0000001000
0000000000
0000100000
0000000000
0000000100
0000010000
0000000100
0000000000
0000100000
0000000000
,
0000001000
0000000000
0010000000
0000100000
0001000000
0000000000
0000001000
0000000000
0000100000
0000010000
0000100000
0000010000
0002000000
0000000000
0000000000
0000000000
,
0003000000
0000000000
0000000000
0000000000
;

//--------------- pump-double - New ----------------
#NOTEDATA:;
#STEPSTYPE:pump-double;
#DESCRIPTION:New;
#DIFFICULTY:Challenge;
#METER:19;
#RADARVALUES:0.867837,1.180188,0.58299,0.827944,0.487458,1240,1121,119,169,0,8,0,0,0,0.867837,1.180188,0.58299,0.827944,0.487458,1240,1121,119,169,0,8,0,0,0;
#OFFSET:-0.303;
#BPMS:0.000=173.000;
#SPEEDS:0.000=0.500=0.000=0,
92.000=0.750=4.000=0,
110.000=0.620=0.250=0,
110.250=0.750=0.250=0,
111.000=0.620=0.250=0,
111.250=0.750=0.250=0,
112.000=0.620=0.250=0,
112.250=0.750=0.250=0,
156.000=1.000=4.000=0,
224.000=0.750=4.000=0,
306.000=0.620=0.250=0,
306.250=0.750=0.250=0,
307.000=0.620=0.250=0,
307.250=0.750=0.250=0,
308.000=0.620=0.250=0,
308.250=0.750=0.250=0,
352.000=1.000=4.000=0,
456.000=4.000=32.000=0
;
#SCROLLS:0.000=1.000,
420.000=0.250,
516.000=0.063,
520.000=0.250
;
#TICKCOUNTS:0.000=6,
583.500=10
;
#TIMESIGNATURES:0.000=4=4;
#LABELS:0.000=Song Start;
#COMBOS:0.000=1,
223.500=12=1,
224.000=1,
419.500=12=1,
420.000=1
;
#CHARTNAME:;
#LABELTYPE:UCS;
#PRELOADNOTESKIN:;
#SEPARATENOTES:NO;
#PLAYERS:1;
#QUESTDESC:;
#QUESTMODS:;
#QUESTBARINITIAL:500;
#QUESTBARMAX:1000;
#SHOWSKINSCORE:NO;
#RANDOMSKINLIST:;
#CHARTSTYLE:;
#CREDIT:JasperSteps;
#DIVISION:;
#BRAINHELP:0.000000=BrainHelp ;
#SPECIALDIVISION:;
#DISPLAYPERSPECTIVE:PUMP;
#NOTES:
0000000000
0000000000
0000000000
0000000000
,
0000000000
0000000000
0000000000
0000000000
,
0000000000
0000000000
0000000000
0000000000
,
0000000000
0000000000
0000000000
0000000000
,
0000000000
0000000000
0000000000
0000000000
,
0000000000
0000000000
0000000000
0000000000
,
0000000000
0000000000
0000000000
0000000000
,
0000100000
0000010000
0000100000
0000010000
0000001000
0000000100
0000010000
0000000100
,
0000001100
0000000000
0000011000
0000000000
0000220000
0000330000
0000000000
0000100000
,
0000001000
0000000000
0000001000
0000100000
0000010000
0002000000
0003000000
0000000000
,
0000100000
0001000000
0000010000
0000100000
0000002000
0000003000
0000100000
0000010000
,
0002000000
0003000000
0000100000
0010000000
0000010000
0000100000
0000001000
0000010000
,
0000000100
0000001000
0000020000
0000030000
0000110000
0000000000
0000010000
0001000000
,
0000000000
0001000000
0000002000
0000003000
0002001000
0000000000
0003000000
0000000000
,
0000001000
0000100000
0000010000
0000000000
0001010000
0000000000
0000100000
0000000000
,
0000101000
0000000000
0001001000
0000000000
0000001000
0000200000
0000300000
0000000000
,
0010020000
0000130000
0000200100
0000310000
,
0000010000
0000100000
0000001000
0001000000
0000020000
0000030000
0000010000
0001000000
,
0000001000
0000100000
0000010000
0001000000
0000002000
0000000000
0000003000
0000000000
,
0000010000
0000000000
0000001000
0000000000
0000010000
0000000000
0000001000
0000000000
0000100000
0000000000
0000010000
0001000000
0000002000
0000000000
0000000000
0000000000
,
0000103000
0000000000
0001010000
0000000000
0000000000
0000001000
0000100000
0000001000
,
0002000000
0003000000
0000100000
0001000000
0000020000
0000030000
0000200000
0000300000
,
0000110000
0000000000
0000010000
0000100000
0000001000
0000010000
0000000100
0000001000
,
0000020000
0001030000
0002000000
0003001000
0000002000
0000103000
0000200000
0000310000
,
0000110000
0000000000
0000100000
0000010000
0000100000
0000000000
0000001000
0000000000
0001000000
0000000000
0000010000
0000100000
0000010000
0000000000
0001000000
0000000000
,
0000001000
0000000000
0000010000
0000000100
0000010000
0000000000
0000001000
0000000000
0000101000
0000000000
0000000000
0000000000
0000010100
0000000000
0000000000
0000000000
,
0000101000
0000000000
0000001000
0001000000
0000001000
0000000000
0000100000
0000000000
0000010000
0000000000
0001000000
0000100000
0001000000
0000000000
0000010000
0000000000
,
0000100000
0000000000
0000001000
0001000000
0000010000
0000000000
0000100000
0000000000
0000202000
0000303000
0000000000
0000000000
0002020000
0003030000
0000000000
0000000000
,
0001001000
0000000000
0000001000
0001000000
0000001000
0000000000
0000100000
0000000000
0000010000
0000000000
0001000000
0000001000
0001000000
0000000000
0000010000
0000000000
,
0000100000
0000000000
0001000000
0010000000
0001000000
0000000000
0000100000
0000000000
0000101000
0000000000
0000000000
0000000000
0011000000
0000000000
0000000000
0000000000
,
0000101000
0000000000
0000100000
0000010000
0000100000
0000000000
0000001000
0000000000
0001000000
0000000000
0000010000
0000001000
0000010000
0000000000
0001000000
0000000000
,
0000001000
0000000000
0000100000
0000000100
0000001000
0000000000
0000000100
0000000000
0000001200
0000000000
0000010000
0000000000
0000100300
0000000000
0000000000
0000000000
,
0000110000
0000000000
0000010000
0000100000
0000010000
0000000000
0001000000
0000000000
0000001000
0000000000
0000010000
0000000000
0000001000
0000000000
0000100000
0000000000
,
0000010000
0001000000
0000100000
0010000000
0001000000
0010000000
0000100000
0001000000
,
0000001000
0000010000
0000000100
0000001000
0000010000
0000100000
0000001000
0001000000
,
0000020000
0000000000
0000000000
0020000000
0000000000
0000000000
0030030000
0000000000
,
0000100000
0000001000
0000100000
0000001000
0000101000
0000000000
0001010000
0000000000
,
0001001000
0000001000
0000100000
0000010000
0001010000
0000000000
0001001000
0000000000
,
0000101000
0000100000
0000110000
0000010000
0000011000
0000001000
0000001100
0000000100
,
0000010000
0000001000
0000010000
0000000100
0000100000
0000010000
0000100000
0000010000
0010000000
0000100000
0010000000
0000010000
0000100000
0000000000
0000000000
0000000000
,
0000001000
0000100000
0000010000
0000100000
0000002000
0000003000
0000020000
0000030000
0000000200
0000000300
0002000000
0003000000
0000002000
0000003000
0000200000
0000300000
,
0000010000
0001000000
0000010000
0000100000
0000020000
0000030000
0002000000
0003000000
0000200000
0000300000
0020000000
0030000000
0000020000
0000030000
0000200000
0000300000
,
0000101000
0000000000
0000001000
0001000000
0000100000
0000000000
0010000000
0000000000
0000010000
0000000000
0000100000
0000000000
0000001000
0000000000
0000010000
0000000000
,
0000000100
0000001000
0000000100
0000001000
0000000100
0000000000
0000010000
0000000000
0000001000
0000000000
0001000000
0000100000
0001000000
0000000000
0000001000
0000000000
,
0000101000
0001001000
0001010000
0001001000
,
0000101000
0000000000
0000001000
0000010000
0000000100
0000000000
0000001000
0000000000
0000010000
0000000000
0000100000
0000000000
0000001000
0000000000
0010000000
0000000000
,
0000100000
0010000000
0000100000
0010000000
0001000000
0100000000
0010000000
1000000000
0000100000
0010000000
0000100000
1000000000
0010000000
0100000000
0001000000
0010000000
,
0000100000
0001000000
0000001000
0000100000
0000010000
0000001000
0000000100
0000010000
0000000001
0000000100
0000000010
0000001000
0000000100
0000010000
0000002000
0000003000
,
0000100000
0000001000
0001000000
0000001000
0000200000
0000300000
0002000000
0003000000
0020000000
0030000000
0000020000
0000030000
0000200000
0000300000
0000002000
0000003000
,
0001000000
0000010000
0001000000
0000001000
0002000000
0003000000
0000020000
0000030000
0000002000
0000003000
0000000200
0000000300
0002000000
0003000000
0000002000
0000003000
,
0000101000
0000000000
0000100000
0000010000
0000001000
0000000000
0000000100
0000000000
0001000000
0000000000
0000001000
0000000000
0000100000
0000000000
0001000000
0000000000
,
0010000000
0000100000
0010000000
0000100000
0010000000
0000000000
0001000000
0000000000
0000100000
0000000000
0000010000
0000001000
0000010000
0000000000
0000100000
0000000000
,
0000101000
0000110000
0001010000
0000110000
,
0000101000
0000000000
0000100000
0001000000
0010000000
0000000000
0000100000
0000000000
0001000000
0000000000
0000001000
0000000000
0000100000
0000000000
0000000100
0000000000
,
0000001000
0000000100
0000001000
0000000100
0000010000
0000000001
0000000100
0000000010
0000001000
0000000100
0000001000
0000000010
0000000100
0000000001
0000010000
0000000100
,
0000001000
0000010000
0000100000
0000001000
0001000000
0000100000
0010000000
0001000000
0100000000
0010000000
1000000000
0010000000
0000200000
0000000000
0000000000
0000300000
,
0000000000
0000000000
0000000000
0000000000
,
0000101000
0000001000
0000010000
0000001000
0000100000
0000000100
0000100000
0000001000
,
0000010000
0000000100
0000001000
0000010000
0000200000
0000000000
0000301100
0000000000
,
0000001000
0000100000
0000010000
0001000000
0000100000
0001000000
0000010000
0000100000
,
0000002000
0001003000
0000200000
0000310000
0000002000
0000103000
0002020000
0003030000
,
0000101000
0000100000
0001000000
0000100000
0000001000
0010000000
0000001000
0000100000
,
0001000000
0010000000
0000100000
0001000000
0000002000
0000000000
0010103000
0000000000
,
0000100000
0000001000
0001000000
0000010000
0000001000
0000010000
0001000000
0000010000
,
0000210000
0000300100
0000120000
0010030000
0000110000
0002002000
0000003000
0003000000
,
0001010000
0000010000
0000001000
0000000200
0000010300
0000000000
0000110000
0000000000
,
0000101000
0000001000
0000100000
0000010000
0001010000
0000000000
0000101000
0000000000
,
0001010000
0000010000
0010000000
0000010000
0000110000
0000010000
0010000000
0000010000
,
0001010000
0000010000
0010000000
0000010000
0000110000
0000000000
0010000100
0000000000
,
0001010000
0001000000
0000100000
0020000000
0031000000
0000000000
0001001000
0000000000
,
0000001000
0000100000
0000010000
0000001000
0000000100
0000000000
0000010100
0000000000
,
0000000100
0000001000
0000010000
0000100000
0001000000
0000000000
0011000000
0000000000
,
0010000000
0001000000
0000100000
0000010000
0000100000
0000000000
0000110000
0000000000
,
0000100000
0000000000
0000010000
0000100000
0000010000
0000000000
0001000000
0000000000
0000001000
0000000000
0000100000
0000010000
0000100000
0000000000
0000001000
0000000000
,
0001000000
0000000000
0000100000
0010000000
0000100000
0000000000
0001000000
0000000000
0001010000
0000000000
0000000000
0000000000
0010100000
0000000000
0000000000
0000000000
,
0001010000
0000000000
0001000000
0000001000
0001000000
0000000000
0000010000
0000000000
0000100000
0000000000
0000001000
0000010000
0000001000
0000000000
0000100000
0000000000
,
0000010000
0000000000
0001000000
0000001000
0000100000
0000000000
0000010000
0000000000
0002020000
0003030000
0000000000
0000000000
0000202000
0000303000
0000000000
0000000000
,
0001001000
0000000000
0001000000
0000001000
0001000000
0000000000
0000010000
0000000000
0000100000
0000000000
0000001000
0001000000
0000001000
0000000000
0000100000
0000000000
,
0000010000
0000000000
0000001000
0000000100
0000001000
0000000000
0000010000
0000000000
0001010000
0000000000
0000000000
0000000000
0000001100
0000000000
0000000000
0000000000
,
0001010000
0000000000
0000010000
0000100000
0000010000
0000000000
0001000000
0000000000
0000001000
0000000000
0000100000
0001000000
0000100000
0000000000
0000001000
0000000000
,
0001000000
0000000000
0000010000
0010000000
0001000000
0000000000
0010000000
0000000000
0021000000
0000000000
0000100000
0000000000
0030010000
0000000000
0000000000
0000000000
,
0000110000
0000000000
0000100000
0000010000
0000100000
0000000000
0000001000
0000000000
0001000000
0000000000
0000100000
0000000000
0001000000
0000000000
0000010000
0000000000
,
0000100000
0000001000
0000010000
0000000100
0000001000
0000000100
0000010000
0000001000
,
0001000000
0000100000
0010000000
0001000000
0000100000
0000010000
0001000000
0000001000
,
0000200000
0000000000
0000000000
0000000200
0000000000
0000000000
0000300300
0000000000
,
0000010000
0001000000
0000010000
0001000000
0001010000
0000000000
0000101000
0000000000
,
0001001000
0001000000
0000010000
0000100000
0000101000
0000000000
0001001000
0000000000
,
0001010000
0000010000
0000110000
0000100000
0001100000
0001000000
0011000000
0010000000
,
0000100000
0001000000
0000100000
0010000000
0000010000
0000100000
0000010000
0000100000
0000000100
0000010000
0000000100
0000100000
0000010000
0000000000
0000000000
0000000000
,
0001000000
0000010000
0000100000
0000010000
0002000000
0003000000
0000200000
0000300000
0020000000
0030000000
0000002000
0000003000
0002000000
0003000000
0000020000
0000030000
,
0000100000
0000001000
0000100000
0000010000
0000200000
0000300000
0000002000
0000003000
0000020000
0000030000
0000000200
0000000300
0000200000
0000300000
0000020000
0000030000
,
0001010000
0000000000
0001000000
0000001000
0000010000
0000000000
0000000100
0000000000
0000100000
0000000000
0000010000
0000000000
0001000000
0000000000
0000100000
0000000000
,
0010000000
0001000000
0010000000
0001000000
0010000000
0000000000
0000100000
0000000000
0001000000
0000000000
0000001000
0000010000
0000001000
0000000000
0001000000
0000000000
,
0001010000
0001001000
0000101000
0001001000
,
0001010000
0000000000
0001000000
0000100000
0010000000
0000000000
0001000000
0000000000
0000100000
0000000000
0000010000
0000000000
0001000000
0000000000
0000000100
0000000000
,
0000010000
0000000100
0000010000
0000000100
0000001000
0000000010
0000000100
0000000001
0000010000
0000000100
0000010000
0000000001
0000000100
0000000010
0000001000
0000000100
,
0000010000
0000001000
0001000000
0000010000
0000100000
0001000000
0010000000
0000100000
1000000000
0010000000
0100000000
0001000000
0010000000
0000100000
0002000000
0003000000
,
0000010000
0001000000
0000001000
0001000000
0000020000
0000030000
0000002000
0000003000
0000000200
0000000300
0000200000
0000300000
0000020000
0000030000
0002000000
0003000000
,
0000001000
0000100000
0000001000
0001000000
0000002000
0000003000
0000200000
0000300000
0002000000
0003000000
0020000000
0030000000
0000002000
0000003000
0002000000
0003000000
,
0001010000
0000000000
0000010000
0000100000
0001000000
0000000000
0010000000
0000000000
0000001000
0000000000
0001000000
0000000000
0000010000
0000000000
0000001000
0000000000
,
0000000100
0000010000
0000000100
0000010000
0000000100
0000000000
0000001000
0000000000
0000010000
0000000000
0000100000
0001000000
0000100000
0000000000
0000010000
0000000000
,
0001010000
0000110000
0000101000
0000110000
,
0001010000
0000000000
0000010000
0000001000
0000000100
0000000000
0000010000
0000000000
0000001000
0000000000
0001000000
0000000000
0000010000
0000000000
0010000000
0000000000
,
0001000000
0010000000
0001000000
0010000000
0000100000
1000000000
0010000000
0100000000
0001000000
0010000000
0001000000
0100000000
0010000000
1000000000
0000100000
0010000000
,
0001000000
0000100000
0000010000
0001000000
0000001000
0000010000
0000000100
0000001000
0000000010
0000000100
0000000001
0000000100
0000020000
0000000000
0000000000
0000030000
,
0000000000
0000000000
0000000000
0000000000
,
0000110000
0000000000
0000000000
0000100000
,
0000001000
0000000000
0000000000
0001000000
0000000000
0000000000
0000010000
0002000000
,
0003000000
0000000000
0000000000
0000001000
,
0000010000
0000000000
0000000000
0000000100
0000000000
0000000000
0000001000
0000000200
,
0000000300
0000000000
0000000000
0000100000
,
0000002000
0000003000
0000100000
0000010000
0000000000
0002020000
0003030000
0000000000
,
0000110000
0000000000
0000010000
0010000000
0000000000
0010200000
0000300000
0000000000
,
0010000000
0000000000
0000010000
0000200000
0000300000
0000000100
0000010000
0000000001
,
0000200000
0000300000
0000000000
0000000000
0000020000
0000030000
0000000000
0000000000
0020000000
0030000000
0000000000
0000000000
0000200000
0000300000
1000000000
0000000000
,
0010000000
0100000000
0010000000
1000000000
0000100000
0010000000
0001000000
0000100000
,
0000002000
0000000000
0000000000
0000003000
0000000000
0000000000
0000010000
0000000100
,
0000001000
0000000010
0000000100
0000000001
0000001000
0000000100
0000010000
0000001000
,
0002000000
0000020000
0000000000
0003030000
0000000000
0000010000
0010000000
0000010000
,
0000100000
0000000100
0000010000
0000001000
0001000000
0000010000
0000100000
0000001000
,
0001001000
0000000000
0001000000
0000010000
0000110000
0000000000
0000001000
0000100000
,
0000010000
0001000000
0000001000
0000100000
0000010000
0000100000
0000001000
0001000000
,
0001001000
0000000000
0000001000
0000000000
0000010000
0000000000
0000000100
0000000000
0000001000
0000000000
0000010000
0000000000
0001000000
0000100000
0001000000
0000100000
,
0010000000
0000000000
0000010000
0000000000
0001000000
0000000000
0000001000
0000000000
0000010000
0000000000
0000000100
0000000000
0000100000
0000010000
0000100000
0000010000
,
0002000000
0003110000
0000020000
0010130000
0020000000
0031001000
0000002000
0000010000
,
0000103000
0000100000
0000010000
0010000000
0002000000
0003000000
0000100000
0000010000
,
0000110000
0000000000
0000100000
0000000000
0001000000
0000000000
0010000000
0000000000
0000100000
0000000000
0001000000
0000000000
0000010000
0000001000
0000010000
0000001000
,
0000000100
0000000000
0001000000
0000000000
0000010000
0000000000
0000100000
0000000000
0001000000
0000000000
0010000000
0000000000
0000001000
0001000000
0000001000
0001000000
,
0000020000
0001031000
0002000000
0003001100
0000000200
0000110300
0000200000
0001000000
,
0000002000
0000000000
0000300000
0000000000
0000000000
0000003000
0000000000
0000000000
0000000000
0000000000
0000000000
0000000000
0000000000
0000000000
0000000000
0000000000
,
0001000000
0000010000
0000100000
0001000000
0020000000
0030000000
0000200000
0000300000
0002000000
0003000000
0000002000
0000003000
0002000000
0003000000
0000200000
0000300000
,
0010000000
0001000000
0000100000
0000010000
0000002000
0000003000
0000000200
0000000300
0002000000
0003000000
0000002000
0000003000
0000200000
0000300000
0000020000
0000030000
,
0000110000
0000000000
0000010000
0000001000
0000000200
0000000300
0000020000
0000030000
0000002000
0000003000
0000200000
0000300000
0000020000
0000030000
0000002000
0000003000
,
0000000100
0000010000
0000000100
0000001000
0000010000
0000100000
0000001000
0001000000
0000100000
0010000000
0001000000
0010000000
0000100000
0001000000
0000001000
0000010000
,
0000000200
0000001300
0000002000
0000013000
0000020000
0000130000
0000200000
0000301000
,
0000101000
0000000000
0000001000
0000100000
0000001000
0000000000
0001000000
0000000000
0000100000
0000000000
0010000000
0000000000
0001000000
0000000000
0000100000
0000000000
,
0000010000
0000100000
0000010000
0000100000
0000001000
0001000000
0000100000
0010000000
0001000000
0010000000
0001000000
0010000000
0000100000
0001000000
0000001000
0000100000
,
0000010000
0000001000
0000000100
0000010000
0000001000
0001000000
0000100000
0010000000
0001000000
0100000000
0010000000
1000000000
0000100000
0010000000
0001000000
0000100000
,
0000010000
0001000000
0000001000
0000010000
0000000200
0000000300
0000002000
0000003000
0000020000
0000030000
0000200000
0000300000
0000020000
0000030000
0000002000
0000003000
,
0000000100
0000010000
0000001000
0001000000
0000200000
0000300000
0020000000
0030000000
0000020000
0000030000
0000200000
0000300000
0000002000
0000003000
0002000000
0003000000
,
0001001000
0000000000
0001000000
0000100000
0020000000
0030000000
0002000000
0003000000
0000200000
0000300000
0000002000
0000003000
0002000000
0003000000
0000200000
0000300000
,
0010000000
0001000000
0010000000
0000100000
0001000000
0000001000
0000100000
0000010000
0000001000
0000000100
0000010000
0000000100
0000001000
0000010000
0000100000
0001000000
,
0020000000
0030100000
0000200000
0001300000
0002000000
0003010000
0000020000
0000130000
,
0000110000
0000000000
0000100000
0000001000
0000100000
0000000000
0000010000
0000000000
0000001000
0000000000
0000000100
0000000000
0000010000
0000000000
0000001000
0000000000
,
0001000000
0000001000
0001000000
0000001000
0000100000
0000010000
0000001000
0000000100
0000010000
0000000100
0000010000
0000000100
0000001000
0000010000
0000100000
0000001000
,
0001000000
0000100000
0010000000
0001000000
0000100000
0000010000
0000001000
0000000100
0000010000
0000000001
0000000100
0000000010
0000002000
0000000000
0000000000
0000000000
,
0000003000
0000000000
0000000000
0000000000
;
