#TITLE:Cantarella;
#SUBTITLE:~grace edition~;
#ARTIST:Kurousa-P feat. Kaito;
#TITLETRANSLIT:;
#SUBTITLETRANSLIT:;
#ARTISTTRANSLIT:;
#GENRE:;
#CREDIT:;
#BANNER:Cantarella - bn.png;
#BACKGROUND:Cantarella - bg.png;
#LYRICSPATH:;
#CDTITLE:gpopcdtitle.png;
#MUSIC:Cantarella grace edition.ogg;
#OFFSET:-0.020;
#SAMPLESTART:40.032;
#SAMPLELENGTH:13.332;
#SELECTABLE:YES;
#BPMS:0.000=144.000,190.000=72.000,205.000=144.000;
#STOPS:;
#BGCHANGES:;
#KEYSOUNDS:;

//---------------dance-single - Gpop----------------
#NOTES:
     dance-single:
     Gpop:
     Challenge:
     11:
     0.825,0.910,0.505,0.703,0.637:
0000
0000
0000
0000
,
0000
0000
0000
0000
,
0000
0000
0000
0000
,
0000
0000
0000
0000
,
1000
0000
0001
0100
0010
0000
1000
0000
0200
0000
0000
0000
2300
0000
0000
0000
,
3001
0000
0100
0000
0001
0000
0100
0000
0000
0000
0000
0000
0010
0000
0000
0000
0000
0000
1000
0000
0000
0000
0000
0000
0002
0000
0000
0000
0000
0000
0000
0000
0000
0000
0000
0000
0000
0000
0000
0000
0000
0000
1003
0000
0000
0100
0000
0000
,
0010
0000
0000
0001
1000
0001
1000
0000
0000
0010
0000
0000
0100
0000
0000
0010
0000
0000
1000
0000
0000
0001
0000
0000
,
0010
0000
0000
0100
1000
0100
1000
0000
0000
0001
0000
0000
0200
0000
0000
0010
0000
0000
0320
0000
0000
0000
0000
0000
,
1030
0001
0010
0100
0002
0000
0103
0000
,
1000
0010
0100
0010
0002
0000
0013
1000
,
0200
0000
0310
0001
1000
0001
0100
0010
,
2000
0000
0000
0100
0000
0000
0010
0000
0000
0001
0000
0000
3100
0000
0000
0010
0001
0010
0001
0000
0000
1000
0000
0000
,
0001
0001
1000
0100
0002
0000
0103
1000
,
0010
0100
0001
0010
2000
0000
3010
0100
,
2000
0000
0000
0000
0000
0000
3001
0000
0000
0100
0000
0000
0010
1000
0010
1000
0000
0000
0001
0000
0000
0010
0000
0000
,
0200
0000
0000
0000
0000
0000
1000
0000
0000
0000
0000
0000
0010
0000
0000
0000
0000
0000
0001
0000
0000
0000
0000
0000
0310
0000
0000
0000
0000
0000
0001
0000
1000
0000
0001
0000
1000
0000
0000
0010
0000
0000
0100
0000
0000
0000
0000
0000
,
0101
0000
0000
0001
0000
0000
0010
0000
0000
1100
0000
0000
0000
0000
0000
0000
0M00
00M0
000M
0000
0000
1000
0000
0000
,
1010
0000
0000
0010
0000
0000
0100
0000
0000
0011
0000
0000
0000
0000
0000
0000
00M0
0M00
M000
0000
0000
0000
0000
0000
,
0101
0000
0000
0100
0000
0000
0010
0000
0000
1001
0000
0000
0000
0000
0000
0000
M000
000M
00M0
0000
0000
1000
0000
0000
,
1100
0000
0000
0000
0000
0000
0100
0000
0000
0000
0000
0000
0010
0000
0000
0000
0000
0000
0102
0000
0000
0000
0000
0000
0000
0000
0000
0000
0000
0000
1003
0000
0100
0000
1000
0000
0100
0000
0000
0010
0000
0000
0001
0000
0000
0000
0000
0000
,
2001
0000
0000
0000
3010
0000
0102
0000
0000
0000
0013
0100
1000
0001
1000
0000
,
0010
0000
0001
0000
0010
0000
2010
0000
0000
0000
3001
0010
0100
1000
0100
1000
,
0002
0000
0103
0020
0000
1030
0001
0010
,
0110
0000
1100
0000
1001
0000
0101
0000
0000
0000
1000
0000
0010
0100
0010
0000
,
2001
0000
3100
0012
0000
0203
0000
0310
,
1000
0001
0010
0210
0000
1300
0001
1000
,
1020
0000
0130
0001
0021
0000
0130
1000
,
1002
0000
1003
0010
0001
0010
1000
0000
,
1200
0000
0310
0012
0000
2003
0000
3010
,
0100
0001
0010
2100
0000
3001
1000
0010
,
0100
0001
0100
0000
0010
0000
1000
0000
1200
0000
0000
0000
0310
0000
0001
0000
,
2001
0000
0010
0000
3010
0000
0102
0000
0000
0000
0013
0000
0100
1000
0001
0000
,
1001
0000
0000
0000
1020
0000
0000
0130
0000
0001
1000
0001
1000
0100
0010
0001
,
1000
0000
0000
0010
0000
0000
1000
0000
0000
0100
0000
0000
0000
0000
0000
0110
0000
0000
0000
0000
0000
0011
0000
0000
0000
0000
0000
1001
0000
0000
0001
0000
0100
0000
0001
0000
1000
0000
0000
0000
0000
0000
0100
0000
0000
0010
0000
0000
,
0001
0000
0000
0001
0000
0000
0000
0000
0000
1000
0000
0000
0020
0000
0000
0000
0000
0000
1030
0000
0000
0001
0000
0000
0000
0000
0000
0000
1000
0000
0100
0000
0010
0000
0001
0000
1000
0000
0000
0010
0000
0000
1000
0000
0000
0001
0000
0000
,
0020
0000
0000
0000
0130
0000
2001
0000
0000
0000
3010
0000
0100
0001
1000
0100
,
0010
0000
0000
0000
0001
0000
1000
0000
0001
0000
0100
0000
0010
0000
0000
1000
0000
0000
0010
0000
0000
1000
0000
0000
0001
0000
0000
0010
0000
0000
0100
0000
0000
1000
0000
0000
0001
0000
0000
0010
0000
0000
0100
0000
0000
0010
0000
0000
,
0001
1000
0000
0010
0000
1000
0000
0001
0000
0010
0000
0100
1000
0000
0001
0000
,
0101
0000
0100
0010
0000
1000
0000
0001
0000
0010
0000
0100
2000
0000
0000
0000
,
3001
0000
0000
0010
0100
0010
0100
1000
0100
0010
0001
1000
0010
0100
0010
1000
0001
0100
0010
1000
0001
1000
0100
0010
,
0001
0000
0000
0000
1000
0010
0200
0000
0000
0000
0000
0000
0000
0000
0300
0000
,
0101
0000
0000
0000
0000
0000
0001
0000
1000
0000
0001
0000
1000
0000
0000
0100
0000
0000
0010
0000
0000
0100
0000
0000
0010
0000
0000
0001
0000
0000
1000
0000
0000
0010
0000
0000
0100
0000
0000
0010
0000
0000
1000
0000
0000
0000
0000
0000
,
0001
0010
0100
0000
1000
0100
0010
0001
1000
0000
0010
0100
0010
1000
0001
0010
,
0200
0000
0000
0000
0310
0001
1000
0010
0200
0000
0302
0000
2003
0000
0000
3000
,
0012
0000
2003
0000
3010
0000
0210
0000
0000
0000
0001
0000
0301
0000
1000
0100
,
0020
0000
0000
0000
0031
0000
2010
0000
0000
0000
0000
0000
0000
0000
3001
0010
,
0200
0000
0000
0000
0000
0000
0000
0000
0000
0000
0000
0000
0310
0000
0000
0000
0000
0000
0002
0000
0000
0000
0000
0000
0000
0000
0000
0000
0000
0000
1003
0000
0000
0000
0010
0000
0100
0000
0000
0000
0000
0000
0001
0000
0000
1000
0000
0000
,
0100
0000
0110
0000
0010
0001
1000
0000
0MM0
0000
0000
0000
1002
0000
0103
0120
,
0000
0000
2030
0000
0000
0000
0000
3002
0000
0000
0000
0000
0013
0000
0200
0000
0000
0000
1300
0000
0001
0000
0100
0000
0020
0000
0000
0000
0000
0000
1030
0000
,
0002
0000
0000
1003
0200
0000
0310
0001
1000
0001
0100
0000
0120
0000
1030
0002
,
0000
0000
0023
0000
0000
0000
0030
0000
0011
0000
1000
0000
0010
0000
0210
0000
0000
0000
0301
0000
1000
0000
0100
0000
0010
0001
1000
0000
0020
0000
0000
0000
,
0000
0000
1030
0001
M1M1
0000
1001
0000
1100
0000
1002
0000
0000
0000
0103
0010
,
0100
0010
1000
0001
0020
0000
0000
0000
0130
0000
1002
0000
0000
0000
0203
0000
,
0000
0310
1000
0001
1000
0102
0000
0013
,
0100
1000
0021
0000
0130
1000
1002
0000
,
0103
0010
2010
0000
0001
0010
0100
0001
,
3001
0000
1020
0000
0130
0012
0000
2003
,
0000
3010
0100
0010
1000
0002
0000
0013
,
0100
0000
1000
0000
0001
0100
0001
0000
1000
0000
0100
0000
0120
0000
0000
0000
,
0031
1000
1020
0000
0130
1002
0000
0010
,
0013
0000
0000
0000
0000
0000
0100
0000
1000
0000
0100
0000
1000
0000
0000
0000
0000
0000
0001
0000
0000
0100
0000
0000
0010
0000
0000
0000
0000
0000
1000
0000
0000
0000
0000
0000
0200
0000
0000
0000
0000
0000
0000
0000
0000
0000
0000
0000
,
0320
0000
0000
0000
0130
1000
0001
0000
0100
0000
0010
0000
2000
0000
0000
0000
,
3001
0000
0000
0000
0000
0000
1000
0000
0000
0100
0000
0000
0010
0000
0000
0000
0000
0000
0001
0000
1000
0000
0001
0000
1000
0000
0000
0000
0000
0000
0010
0000
0000
0000
0000
0000
0100
0000
0000
0000
0000
0000
0010
0000
0000
0000
0000
0000
,
1000
0000
0000
0100
0000
0000
0010
0000
0000
0001
1000
0001
1000
0000
0000
0010
0000
0000
0100
0000
0000
0101
0000
0000
,
2100
0000
0000
0000
3001
0000
0100
0001
1000
0000
0100
0000
0020
0000
0000
0000
,
0230
0000
0000
0000
1300
0010
0100
0000
0001
0000
1000
0000
0200
0000
0000
0000
,
1300
0000
0000
0000
0000
0000
0001
0000
0000
0100
0000
0000
0010
0000
0000
0000
0000
0000
1000
0000
0001
0000
1000
0000
0001
0000
0000
0000
0000
0000
0010
0000
0000
0000
0000
0000
0001
0000
0000
0000
0000
0000
1000
0000
0000
0000
0000
0000
,
0010
0000
0000
0100
0000
0000
0001
0000
0000
1000
0100
0010
0001
0000
0000
1000
0010
0100
0001
0000
0000
0010
0000
0000
,
0001
0000
0100
0000
0010
0000
0000
0000
1001
0000
0000
0000
0000
0000
0000
0000
0000
0000
0000
0000
0000
0000
0100
0010
0100
0000
0000
0000
0000
0000
0000
0000
;

//---------------dance-single - Gpop----------------
#NOTES:
     dance-single:
     Gpop:
     Hard:
     9:
     0.641,0.683,0.389,0.554,0.256:
0000
0000
0000
0000
,
0000
0000
0000
0000
,
0000
0000
0000
0000
,
0000
0000
0000
0000
,
1000
0000
0001
0100
0001
0000
0100
0000
0020
0000
0000
0000
2030
0000
0000
0000
,
3001
0010
0001
0000
0010
0000
0100
0000
0020
0000
0000
0000
0000
0000
0031
1000
,
0001
0000
1000
0010
1000
0000
0001
0000
0010
0000
0001
0000
1000
0000
0010
0000
,
0100
0001
0010
0100
2000
0000
3002
0000
,
0103
0010
1000
0100
0002
0000
0003
0000
,
0100
1000
0010
0100
2000
0000
3100
0001
,
2000
0000
0000
3100
0010
0100
1000
0001
,
0200
0010
0010
0010
0310
1000
0001
0010
,
0001
0100
0001
0010
2000
0000
0000
3010
,
0001
1000
0100
0010
2000
0000
3010
0001
,
0200
0000
0000
0310
1000
0001
0010
0100
,
2000
0001
0001
0001
3001
0100
0010
1000
,
1001
0001
0010
0110
0000
0000
0000
1000
,
1010
0010
0100
0101
0000
0000
0000
0000
,
1001
0001
1000
1010
0000
0000
0000
0010
,
0110
0100
0001
0022
0000
0000
0033
0000
,
2001
0000
0010
0020
0000
3030
0000
0001
,
0010
0001
0200
0020
0000
0330
0000
1000
,
1002
0000
0000
0023
0000
0130
1000
0002
,
0100
0000
1000
0000
0010
0000
1003
0000
0000
0000
00M0
0000
0M00
00M0
0M00
0000
,
1001
0000
0001
0201
0000
0010
0000
0301
,
1000
0100
0010
0002
0000
1003
0010
1000
,
1200
0000
0310
0001
0201
0000
0310
1000
,
1002
0000
0100
0103
0010
1000
1000
0000
,
1100
0000
0001
0102
0000
0010
0000
1003
,
0100
1000
0001
0200
0000
0310
1000
0001
,
0021
0000
0130
1000
1020
0000
0130
0001
,
2001
0000
0100
3100
0000
1000
0001
1000
,
1010
0000
0000
0000
0101
0000
0000
1100
0000
0000
1000
0000
0100
0000
0010
0000
,
0001
0100
0001
1000
0000
1000
0000
1000
0000
0100
0000
0000
0010
0000
0001
0000
,
1000
0001
0000
2000
0000
0000
0000
3100
0000
0000
0010
0000
0001
0000
1000
0000
,
1020
0000
0000
0000
0130
0000
0201
0000
0000
0000
0301
0000
1000
0000
0001
1000
,
0001
0100
0010
1000
0100
0010
0100
1000
,
0001
0100
0000
0010
0000
0100
0000
0001
0000
1000
0000
0100
0010
0000
0001
0000
,
1001
0000
1000
0010
0000
1000
0000
0001
0000
0010
0000
0100
2000
0000
0000
0000
,
3004
0400
0000
0000
0000
0000
0000
0000
0000
0000
0000
0000
0000
0000
0000
0000
0000
0000
0000
0000
0000
0000
0000
0000
,
0303
0000
0000
0000
1000
0100
0020
0000
0000
0000
0000
0000
0000
0000
0030
0000
,
0000
0000
0100
1000
0100
0000
1000
0000
0001
0000
0100
0000
0010
0000
1000
0000
,
0001
0010
0001
0000
1000
0001
1000
0001
1000
0000
0010
1000
0010
1000
0010
0000
,
0200
0000
0301
1000
0100
0010
0002
0000
,
1003
0000
0010
0000
0100
0000
0102
0000
0000
0000
1000
0000
1003
0000
0100
0010
,
0200
0000
0000
0000
1300
0000
1002
0000
0000
0000
0010
0000
0013
0000
0100
1000
,
0002
0000
0000
0000
1003
0000
0020
0000
0000
0000
0130
0000
0001
0000
0010
0100
,
1000
0000
0001
0000
0101
0000
1100
0000
0000
0000
0000
0000
1001
0000
0001
0100
,
0000
0000
0010
0000
0000
0000
0000
0200
0000
0000
0000
0000
0301
0000
1000
0000
0000
0000
1000
0000
0100
0000
0010
0000
0002
0000
0000
0000
0000
0000
1003
0000
,
0020
0000
0000
0130
0001
0000
0010
0100
1000
0001
0001
0000
1010
0000
0010
0100
,
0000
0001
0000
0000
0100
0010
1000
0001
0000
0010
0100
1000
0002
0000
0000
0000
,
0003
0000
0000
1000
0MM1
0000
1000
0000
1010
0000
0022
0000
0000
0000
0000
0000
,
0033
0000
1001
0000
1000
1020
0000
0100
,
0000
1030
0001
0010
0100
0020
0000
0031
,
1000
0010
0210
0000
0301
0010
0210
0000
,
1300
0001
0021
0000
0100
0130
1000
0001
,
0001
0000
1001
0000
1000
1200
0000
0010
,
0000
1300
0001
1000
0010
0200
0000
0310
,
1000
0001
0021
0000
0130
1000
1020
0000
,
0130
0001
0021
0000
0100
0130
0000
1000
,
0001
0000
1000
0000
0010
0000
0100
0001
0100
0000
0010
0000
2000
0000
0000
0000
,
3002
0000
0000
0000
0013
0100
0010
0000
0100
0000
1000
0000
0002
0000
0000
0000
,
0000
0000
1003
0010
1000
0000
0010
0000
0100
0000
0001
0000
0010
0000
0100
0000
,
1000
0001
1000
0010
1000
0100
0010
0001
,
0012
0000
0000
0000
1003
0000
0010
0100
0010
0000
0100
0000
0002
0000
0000
0000
,
0023
0000
0000
0000
0130
1000
0001
0000
1000
0000
0010
0000
0200
0000
0000
0000
,
0000
0000
0310
1000
0010
0000
0100
0001
0100
0000
0001
0000
1000
0000
0100
0000
,
0010
0000
0001
0000
0010
0000
0100
0000
1000
0000
0001
0100
0010
0000
1000
0000
,
0001
1001
0000
M11M
;

//---------------dance-single - Gpop----------------
#NOTES:
     dance-single:
     Gpop:
     Medium:
     6:
     0.433,0.427,0.083,0.306,0.079:
0000
0000
0000
0000
,
0000
0000
0000
0000
,
0000
0000
0000
0000
,
0000
0000
0000
0000
,
1000
0001
1000
0001
0010
0000
0100
0000
,
0010
0001
0010
0001
2000
0000
3000
0000
,
0010
1000
0001
0000
0010
0100
1000
0000
,
0001
0100
0001
1000
0100
0000
0010
0000
,
0001
1000
0010
1000
0002
0000
0003
0000
,
1000
0100
0010
0001
0100
0000
0010
1000
,
0001
0000
0000
1000
0100
0000
0010
0100
,
2000
0001
0010
3001
,
0100
0010
0100
0001
2000
0000
3000
0000
,
0100
0010
0100
1000
0001
0000
0100
0010
,
1000
0000
0000
0001
0010
0000
0100
0010
,
0002
1000
0010
1003
,
0010
0010
1000
0001
0000
0000
0000
0000
,
1000
1000
0100
0010
0000
0000
0000
0000
,
0010
0010
0100
1000
0000
0000
0000
0000
,
0001
0001
0100
0020
0000
0000
0030
0000
,
2000
0000
0001
0002
0000
3003
0000
0001
,
0100
0000
0100
0020
0000
0000
0030
0000
,
1001
0000
1000
0100
0000
1000
0001
0000
,
0100
0010
0100
0010
0000
0000
0000
0000
,
1001
0000
1000
0100
0000
0010
0000
0002
,
0000
0000
1003
0010
0000
1000
0001
1000
,
0200
0000
0000
0310
0002
0000
0000
1003
,
0010
0000
1000
0100
1000
0100
0010
0000
,
0011
0000
0001
1000
0000
0010
0000
0200
,
0000
0000
0301
0010
0000
0100
1000
0001
,
0200
0000
0000
0310
2000
0000
0000
3001
,
0020
0000
0000
0130
0000
0010
0001
0100
,
0101
0000
0000
0000
1000
0000
0000
1000
0000
0000
0000
0000
0000
0000
0000
0000
,
0001
0000
0000
1000
0000
0001
0000
1000
0000
0001
0000
0000
0000
0000
0000
0000
,
0100
0000
0000
0100
0000
0000
0000
0010
0000
0000
0000
0000
0000
0000
0000
0000
,
2010
0000
3001
0020
0000
0000
0000
0031
,
1000
0010
1000
0100
,
0010
0000
0000
0001
0000
1000
0000
0001
0000
0100
0000
0000
0010
0000
1000
0000
,
0001
0000
0000
0010
0000
0100
0000
0010
0000
0100
0000
0000
2000
0000
0000
0000
,
3001
0100
0010
0100
0010
1000
0010
0100
,
0001
0000
1000
0200
0000
0000
0000
0300
,
0000
0010
0001
1000
0001
0100
0010
0000
,
1000
0000
0010
0100
0010
0000
0100
0010
,
0100
0000
0001
1000
0100
0100
0100
0000
,
1000
0010
0100
0002
0000
0000
0013
0000
,
0200
0000
1300
0002
0000
0000
1003
0000
,
0010
0000
0100
0001
0000
1000
0000
0001
,
0010
0000
0010
0000
0010
0000
0010
0000
0000
0000
0000
0000
0001
0000
0000
0002
,
0000
0000
0000
0000
1003
0000
0000
2000
0000
0000
0000
0000
3010
0000
0000
0000
,
0100
0000
0000
0000
0001
0000
1000
0000
0001
0000
1000
0000
0100
0000
0000
0200
,
0000
0000
0000
0000
0310
0000
0000
0020
0000
0000
0000
0000
0031
0000
0001
0000
,
1000
1000
0010
0100
0010
0200
0000
0000
,
0300
0000
1001
0000
0001
0010
0000
0100
,
0000
2000
0000
0000
3001
0100
0000
0001
,
1000
0001
0020
0000
0000
0130
2000
0000
,
0000
3001
0100
0000
0001
0010
0001
0010
,
0100
0000
1100
0000
1000
0001
0000
0100
,
0000
0020
0000
0000
1030
0100
0000
0010
,
0001
1000
0020
0000
0000
0130
0002
0000
,
0000
1003
0200
0000
0000
0310
0000
0100
,
1000
0010
0100
0000
0001
1000
0100
0000
,
0010
0000
0100
1000
0001
0100
0020
0000
,
0030
0000
1000
0000
0001
0000
0100
0010
,
1000
0000
0001
0000
0100
0000
0010
0100
,
0001
0000
1001
0000
1000
0100
0010
0000
,
0100
0000
0010
0001
1000
0010
0200
0000
,
0300
0000
0010
0000
1000
0000
0001
0010
,
0100
0000
0010
0000
0001
1000
0010
0100
,
0010
1001
0000
0110
;

//---------------dance-single - Gpop----------------
#NOTES:
     dance-single:
     Gpop:
     Easy:
     3:
     0.233,0.256,0.149,0.033,0.000:
0000
0000
0000
0000
,
0000
0000
0000
0000
,
0000
0000
0000
0000
,
0000
0000
0000
0000
,
1000
0000
0001
0000
,
0100
0010
0100
0000
,
0001
0000
0010
0000
,
0100
1000
0010
0010
,
0100
0001
1000
0000
,
0100
0010
0001
1000
,
0010
0000
0100
0010
,
2000
0000
3000
0000
,
0001
0010
0100
0000
,
0010
0100
1000
0001
,
0100
0000
0010
0100
,
0020
0000
0030
0000
,
1010
0000
0000
1000
0000
0000
0000
0000
,
0011
0000
0000
0001
0000
0000
0000
0000
,
1100
0000
0000
1000
0000
0000
0000
0000
,
0101
0000
0000
0001
0000
0000
0000
0000
,
1001
0000
0000
1000
0000
0000
0000
0000
,
0110
0000
0000
0010
0000
0000
0000
0000
,
0100
0000
0001
0000
,
1001
0000
0000
1001
0000
0000
0000
0000
,
1010
0000
0000
1000
0000
0000
0000
0000
,
0001
0000
0000
0001
0000
0000
0010
0000
,
0100
0000
0010
0000
,
0001
1000
0001
0001
,
0100
0000
0000
0100
0000
0000
0000
0000
,
0010
0000
0000
0010
0000
0000
0000
0000
,
1000
0000
0001
0000
,
0010
0000
0000
0010
0000
0000
0100
0000
,
1100
0000
0000
0000
,
0101
0000
0000
0000
,
1010
0000
0000
0000
,
0011
0000
0000
0001
0000
0000
0000
0000
,
1001
1000
0010
0100
,
0001
1000
0001
0010
,
0100
0010
0100
1000
,
0001
0100
0001
0100
,
0010
0000
1000
0000
,
0001
0010
0100
0010
,
0001
1000
0010
0100
,
0010
1000
0001
1000
,
0001
0000
0000
0001
0000
0000
0000
0000
,
1000
0000
0000
1000
0000
0000
0000
0000
,
0010
0000
0000
0010
0000
0000
0000
0000
,
0100
0000
0000
0100
0000
0000
0001
0000
,
0000
0001
0000
1000
,
1000
0010
0100
0001
,
0000
0010
0000
0100
,
0000
0000
2002
0000
0000
3003
0000
0000
,
0000
0000
1001
0000
0000
0001
0000
0000
,
0000
0000
0100
0000
0000
0100
0000
0000
,
0010
1000
0000
0001
,
0000
0010
0100
1000
,
1000
0000
0001
0000
0000
0001
0000
0000
,
0000
0000
1000
0000
0000
1000
0000
0000
,
0010
0100
0000
0010
,
0000
0000
1000
0000
0000
1000
0000
0000
,
0100
0010
0001
1000
,
1000
0010
0100
0010
,
0000
1000
1000
0100
,
0100
0010
0001
1000
,
1000
0001
0100
0001
,
0001
0010
0100
1000
,
0000
0100
0010
0100
,
0010
0001
1000
0010
,
0100
0110
0000
1001
;

//---------------dance-single - Gpop----------------
#NOTES:
     dance-single:
     Gpop:
     Beginner:
     1:
     0.118,0.142,0.108,0.000,0.000:
0000
0000
0000
0000
,
0000
0000
0000
0000
,
0000
0000
0000
0000
,
0000
0000
0000
0000
,
1000
0000
0000
0000
,
0001
0000
0000
0000
,
0100
0000
0000
0000
,
0010
0000
0000
0000
,
1000
0000
1000
0000
,
0001
0000
0001
0000
,
0100
0000
0000
0000
,
0010
0000
0000
0000
,
0100
0000
0100
0000
,
0010
0000
0010
0000
,
1000
0000
0000
0000
,
0001
0000
0000
0000
,
1001
0000
0000
0000
,
0110
0000
0000
0000
,
1001
0000
0000
0000
,
0110
0000
0000
0000
,
1000
0000
0000
0000
,
0001
0000
0000
0000
,
0100
0000
0000
0000
,
0010
0000
0000
0000
,
1001
0000
0000
0000
,
1000
0000
0000
0000
,
0001
0000
0001
0000
,
0100
0000
0010
0000
,
1000
0000
0000
0000
,
0100
0000
0000
0000
,
0010
0000
0010
0000
,
0001
0000
0001
0000
,
1001
0000
0000
0000
,
1001
0000
0000
0000
,
0110
0000
0000
0000
,
0110
0000
0000
0000
,
1001
0000
1000
0000
,
0100
0000
0100
0000
,
0010
0000
0010
0000
,
0001
0000
0000
0000
,
1000
0000
0000
0000
,
0001
0000
0001
0000
,
0100
0000
0010
0000
,
0100
0000
0001
0000
,
1001
0000
0000
0000
,
1000
0000
0000
0000
,
0010
0000
0000
0000
,
0100
0000
0000
0001
,
0000
1000
0000
0100
,
0000
0010
0000
0100
,
0000
1000
0000
0001
,
0000
1001
0000
0000
,
0000
1000
0000
0000
,
0000
0010
0000
0000
,
0000
0100
0000
0010
,
0000
1000
0000
0001
,
0000
0010
0000
0000
,
0000
0001
0000
0000
,
0000
1000
0000
0010
,
0000
1000
0000
0000
,
0000
0001
0000
0000
,
0000
0010
0000
0000
,
0000
0100
0000
0000
,
0000
1000
0000
0000
,
0000
0001
0000
0000
,
0000
0100
0000
0000
,
0000
0010
0000
0000
,
0000
1000
0000
0000
,
0000
1001
0000
0010
;
