#TITLE:Mario Kart 8;
#SUBTITLE:- Big Blue;
#ARTIST:Nintendo;
#TITLETRANSLIT:;
#SUBTITLETRANSLIT:;
#ARTISTTRANSLIT:;
#GENRE:;
#CREDIT:;
#BANNER:logo.png;
#BACKGROUND:back.png;
#LYRICSPATH:;
#CDTITLE:;
#MUSIC:Mario Kart 8 - Big Blue.ogg;
#OFFSET:-1.620000;
#SAMPLESTART:21.223270;
#SAMPLELENGTH:18.401535;
#SELECTABLE:YES;
#BPMS:0.000000=208.000000
;
#STOPS:
;
#BGCHANGES:;
#KEYSOUNDS:;
#ATTACKS:;

//---------------dance-single - ----------------
#NOTES:
     dance-single:
     :
     Medium:
     8:
     0.433083,0.671053,0.126316,0.221053,0.026316,288.000000,276.000000,12.000000,21.000000,0.000000,0.000000,0.433083,0.671053,0.126316,0.221053,0.026316,288.000000,276.000000,12.000000,21.000000,0.000000,0.000000:
// measure 0
1001
0000
0000
0000
0000
0000
0010
0100
,  // measure 1
0000
0000
0000
0000
,  // measure 2
1010
0000
0000
0000
0000
0000
0100
0010
,  // measure 3
0000
0000
0000
0000
,  // measure 4
1100
0000
0000
0000
0000
0000
0010
0100
,  // measure 5
0000
0000
0000
0000
,  // measure 6
0011
0000
0000
0000
0000
0000
0100
0010
,  // measure 7
0000
0000
0000
0000
,  // measure 8
0101
0000
0000
0000
0000
0000
0100
1000
,  // measure 9
0000
0000
0000
0000
,  // measure 10
0110
0000
0000
0000
0000
0000
0001
0010
,  // measure 11
0000
0000
0000
0000
,  // measure 12
1001
0000
0000
0000
0000
0000
0010
0100
,  // measure 13
0000
0000
0000
0000
0000
0000
0000
0000
0001
0000
0000
0010
0000
0000
0100
0000
,  // measure 14
1000
0000
0000
0000
0000
0000
0010
1000
,  // measure 15
0000
0000
0000
2000
0000
0000
0000
0000
,  // measure 16
0000
0000
3000
0000
,  // measure 17
0001
0000
0000
0010
0000
0100
1000
0100
,  // measure 18
0000
0000
0000
0000
0001
0010
1000
0200
,  // measure 19
0000
0000
0000
0000
0300
0001
0100
1000
,  // measure 20
0000
0000
0000
0000
,  // measure 21
0100
0000
1000
0100
0000
0010
0100
1000
,  // measure 22
0100
0000
0000
0000
0000
1000
0010
0001
,  // measure 23
0200
0000
0000
0000
,  // measure 24
0000
0000
0300
0000
,  // measure 25
1000
0001
1000
0001
0100
0010
0100
0020
,  // measure 26
0000
0030
0100
0000
,  // measure 27
0010
0100
0010
0100
1000
0100
0001
0020
,  // measure 28
0000
0000
0030
0000
0010
0001
0010
0100
,  // measure 29
1000
0000
0100
0010
0000
0100
0010
0002
,  // measure 30
1003
0000
0010
0100
0000
0010
0100
0010
,  // measure 31
2200
0000
0000
0000
0000
3300
0000
0000
,  // measure 32
0100
0000
0000
0000
0000
0100
0000
0000
0000
0100
0000
0000
0000
0100
0000
0000
,  // measure 33
0000
1000
0001
0100
1000
0000
0001
0000
,  // measure 34
1000
0000
0001
0100
0000
0000
0010
0000
,  // measure 35
1000
0100
0010
0100
0000
0010
0100
0000
,  // measure 36
1000
0010
1000
0100
0010
0100
0000
0000
,  // measure 37
1000
0001
0010
0100
0000
0000
0010
0000
,  // measure 38
0001
0000
0010
0100
0000
0000
0010
0000
,  // measure 39
1000
0001
0001
1000
0001
0100
1000
0010
,  // measure 40
0000
0000
0001
0010
0000
0100
1000
0000
,  // measure 41
1000
0001
1000
0001
1000
0001
1000
0002
,  // measure 42
0000
0103
0010
0100
0010
0100
0010
0100
,  // measure 43
1000
0100
0010
0001
1000
0100
0010
0002
,  // measure 44
0000
0013
0100
0010
0100
0010
0100
0010
,  // measure 45
1000
0100
1000
0100
0010
0001
0010
0001
,  // measure 46
0001
0001
0100
0100
1000
0000
0001
0000
,  // measure 47
0220
0330
0022
0033
,  // measure 48
2200
3300
2002
3003
,  // measure 49
1000
0001
0010
1000
,  // measure 50
0001
0100
0001
1000
,  // measure 51
0010
1000
0100
0001
,  // measure 52
1000
0000
0000
0000
0000
0000
0000
0200
,  // measure 53
0000
0300
0001
0000
0100
0000
0001
0010
,  // measure 54
1000
0000
0100
0010
0000
0001
0010
0001
,  // measure 55
0020
0000
0000
0000
0000
0000
0000
0000
1030
0000
0000
1000
0000
0000
1000
0000
,  // measure 56
0000
0000
0010
0001
0000
0010
0001
0000
,  // measure 57
2000
0000
0000
0000
0000
0000
0010
0100
,  // measure 58
0000
0000
0000
0000
,  // measure 59
0100
0000
0000
0000
0000
0000
0010
0100
,  // measure 60
0000
0000
0000
0000
,  // measure 61
0001
0000
0000
0000
0000
0000
0001
0010
,  // measure 62
0000
0000
0000
0000
,  // measure 63
0010
0010
0000
0000
0000
0000
0001
0100
,  // measure 64
0000
0010
0001
0010
0001
0010
3001
0010
,  // measure 65
1000
0001
0100
0010
,  // measure 66
0001
0100
0001
1000
,  // measure 67
0010
0100
0001
1000
,  // measure 68
0010
0100
0010
1000
,  // measure 69
0001
0100
0010
1000
,  // measure 70
0010
0001
0010
0100
,  // measure 71
1000
0001
0010
0100
,  // measure 72
0001
0010
0001
0100
,  // measure 73
0001
0010
0100
0001
,  // measure 74
1000
0001
0010
0100
1000
0001
0100
0001
,  // measure 75
1000
0000
0000
0000
;

//---------------dance-single - ----------------
#NOTES:
     dance-single:
     :
     Easy:
     3:
     0.216541,0.355263,0.052632,0.389474,0.000000,144.000000,139.000000,5.000000,37.000000,0.000000,0.000000,0.216541,0.355263,0.052632,0.389474,0.000000,144.000000,139.000000,5.000000,37.000000,0.000000,0.000000:
1000
0000
0000
0000
,
0001
0000
0000
0000
,
0100
0000
0000
0000
,
0001
0000
0000
0000
,
0100
0000
0000
0000
,
0001
0000
0000
0000
,
1000
0000
0000
0000
,
0010
0000
0000
0000
,
1100
0000
0000
0000
,
0011
0000
0000
0000
,
0110
0000
0000
0000
,
1001
0000
0000
0000
,
0100
0000
1000
0000
,
0001
0000
1000
0000
,
0010
0000
0000
0000
1000
0000
0000
0020
,
0000
0000
0000
0002
0000
0000
0000
0000
,
0000
0000
0000
0033
,
1000
0000
0001
0000
,
0100
0000
0010
0000
,
2000
0000
0000
3010
,
0001
0000
1000
0000
,
0001
0000
0001
0000
,
0100
0000
0001
0000
,
2000
0000
0000
0000
,
0000
0000
0000
3000
,
1000
0001
0100
0001
,
2000
0000
3020
0000
,
1030
0000
0001
0000
0100
0000
0001
0020
,
0000
0000
0230
0000
,
0302
0000
2003
0000
,
3020
0000
0230
0000
,
0302
0000
0000
0000
,
0000
0000
0000
0000
0000
0000
0003
2000
,
0000
0000
0000
0000
0000
0000
0000
3000
,
0010
0100
1000
0001
,
0200
0000
0000
0000
,
1300
0001
1000
0001
,
0200
0300
2000
3000
,
0002
0003
0200
0300
,
1000
0001
0010
1000
,
0001
1000
0100
0001
,
0020
0030
2000
3000
,
0002
0003
0200
0300
,
2000
3000
0002
0003
,
0200
0300
2000
3000
,
0001
1000
0001
1000
,
0100
0010
0100
0010
,
1000
0100
0010
0001
,
1000
0100
0020
0000
,
1030
0000
0010
0000
,
0100
0000
1000
0000
,
0001
0000
0010
0000
,
0100
0000
0001
0000
,
1000
0000
0001
0000
,
0010
0000
1000
0000
,
0002
0000
0000
0003
,
0001
0000
0100
0000
,
0002
0000
0000
0003
,
2000
0000
0000
3000
,
0020
0000
0000
0030
,
2000
0000
0000
3000
,
0020
0000
0000
0030
,
0200
0000
0000
0300
,
2000
0000
0000
3000
,
0200
0000
0000
0300
,
0100
0000
0001
0000
,
1000
0000
0001
0000
,
0010
0000
1000
0000
,
0001
0000
0100
0000
,
0001
0000
0100
0000
,
1000
0000
0001
0000
,
0100
0000
1000
0000
,
0010
0000
1000
0000
,
0001
0000
0100
0000
,
0001
0000
1000
0000
,
0110
0000
0000
0000
;

//---------------dance-single - ----------------
#NOTES:
     dance-single:
     :
     Hard:
     10:
     0.718797,0.907895,0.463158,0.178947,0.163158,478.000000,434.000000,44.000000,17.000000,0.000000,0.000000,0.718797,0.907895,0.463158,0.178947,0.163158,478.000000,434.000000,44.000000,17.000000,0.000000,0.000000:
1001
0100
0001
1000
0001
0100
0011
1100
,
0000
0001
0100
1000
0001
0010
0001
0000
,
1010
0001
0100
0001
1000
0001
1100
0011
,
0000
0100
0001
1000
0001
0010
0100
0000
,
1100
0001
0100
0001
1000
0001
1010
0101
,
0000
0001
1000
0001
0100
0001
1000
0000
,
0011
1000
0001
0100
1000
0001
0101
0011
,
0000
1000
0100
0010
0001
0010
0100
1000
,
0101
1000
0001
0100
0001
1000
0110
1100
,
0000
0001
1000
0001
0100
1000
0100
0000
,
0110
1000
0010
0001
1000
0100
0011
1010
,
0000
0001
0010
0100
0000
0001
0100
1000
,
1001
0000
0010
0001
1000
0001
1010
1100
,
0000
0000
0000
0000
0000
0000
0000
0000
0011
0000
0000
0110
0000
0000
1100
0000
,
1000
1000
0000
0000
0000
0000
0010
2000
,
0000
0000
3000
2020
0000
0000
0000
0000
,
0000
0000
3030
0000
,
0001
0000
0000
0010
0000
0100
1000
0100
,
0000
0000
0000
0000
0001
0010
1000
0200
,
0000
0000
0000
0000
0300
0001
0100
1000
,
0000
0000
0000
0000
,
0100
0000
1000
0100
0000
0010
0100
1000
,
0100
0000
0000
0000
0000
1000
0010
0001
,
0200
0000
0000
0000
,
0000
0000
0300
0000
,
1000
0010
0001
0000
1000
0100
0001
0000
0100
0000
0010
0000
0100
0000
0020
0000
,
0000
0030
0100
0000
,
0010
1000
0100
0000
0010
0001
0100
0000
1000
0000
0100
0000
0001
0000
0020
0000
,
0000
0000
0030
0000
0010
0001
0010
0100
,
1000
0000
0100
0010
0000
0100
0010
0002
,
1003
0000
0000
0000
0010
0000
0100
0000
0000
0000
0010
0001
0100
0000
0010
0000
,
2200
0000
0000
0000
0000
3300
0000
0000
,
0100
0000
0000
0000
0000
1001
0000
0000
0000
1001
0000
0000
0000
1000
0000
0000
,
0000
1000
0000
0001
0000
0100
0000
1000
0000
0000
0000
0001
0000
0000
0000
0000
,
1000
0000
0001
0100
0000
0000
0010
0000
,
1000
0100
0010
0100
0000
0010
0100
0000
,
1000
0001
0010
0001
1000
0000
0100
0000
0010
0000
0100
0000
0000
0000
0000
0000
,
1000
0001
0010
0100
0000
0000
0010
0000
,
0001
0000
0010
0100
0000
0000
0010
0000
,
1000
0001
0001
1000
0001
0100
1000
0010
,
0000
0000
0001
0010
0000
0100
1000
0000
,
0001
0010
0100
0000
1000
0010
0001
0000
0100
0000
0001
0000
1000
0000
0002
0000
,
0000
1003
0010
0001
1000
0001
0010
0001
,
1000
0100
1000
0000
0010
0100
0001
0000
1000
0001
0100
0000
0010
0100
0002
0000
,
0000
0103
0010
1000
0001
0010
0100
0010
,
1000
0001
1000
0100
0010
0001
0010
0001
,
0001
0001
0100
0100
1000
0000
0001
0000
,
1000
0100
0010
0000
0001
1000
0010
0000
0010
0001
1000
0000
0010
1000
0001
0000
,
1000
0001
1000
0001
1000
0001
1000
0001
2000
0000
0000
0000
0000
0000
3000
0000
,
0101
0101
0011
1100
,
0101
1001
0101
1000
,
0011
0000
1100
0000
0101
0000
0101
2000
,
3000
0100
0010
0000
0000
0000
0000
0200
,
0000
0300
0001
0000
0100
0000
0001
0010
,
1000
0000
0100
0010
0000
0001
0010
0001
,
0020
0000
0000
0000
0000
0000
0030
0000
1010
0000
0000
1100
0000
0000
1010
0000
,
0000
0000
0010
0001
0000
0010
0001
0000
,
2001
0000
0100
0000
0001
0000
0010
0100
,
0010
0001
0100
0010
,
0100
0000
0001
0000
0010
0000
0001
0100
,
0010
0010
0100
0001
,
0001
0000
0100
0000
0010
0000
0001
0010
,
0001
0100
0001
0010
,
0010
0010
0000
0000
0000
0000
0001
0100
,
0000
0010
0100
0010
0001
0010
3001
0100
,
1000
0001
0001
1000
0100
0001
0010
0100
,
0001
1000
0100
0010
0001
0001
1000
0100
,
0010
1000
0100
0010
0001
0001
1000
0100
,
0010
1000
0100
0001
0010
0100
1000
0010
,
0001
1000
0100
0001
0010
0100
1000
0010
,
0010
1000
0001
0100
0010
0001
0100
0010
,
1000
1000
0001
0100
0010
0001
0100
0010
,
0001
1000
0010
0100
0001
1000
0100
0001
,
0001
0100
0010
1000
0100
0010
0001
0100
,
1000
0001
0010
0100
1000
0001
0100
0001
,
1001
0000
0000
0000
;
