#TITLE:AXEL F;
#SUBTITLE:;
#ARTIST:CRAZY FROG;
#TITLETRANSLIT:;
#SUBTITLETRANSLIT:;
#ARTISTTRANSLIT:;
#CREDIT:DDR SPECIAL mix;
#BANNER:AXEL F.png;
#BACKGROUND:AXEL F-bg.png;
#LYRICSPATH:;
#CDTITLE:./CDTITLES/Licensed Music.png;
#MUSIC:AXEL F.mp3;
#OFFSET:-0.067;
#SAMPLESTART:69.640;
#SAMPLELENGTH:12.000;
#SELECTABLE:YES;
#BPMS:0.000=138.070,96.000=69.030,104.500=138.070;
#STOPS:96.000=6.353
;
#BGCHANGES:16.000=highway1.avi=1.000=1=0=1,
28.000=Highway2.avi=1.000=0=0=1,
28.500=highway1.avi=1.000=0=0=1,
29.000=Highway2.avi=1.000=0=0=1,
29.500=highway1.avi=1.000=0=0=1,
30.000=Highway2.avi=1.000=0=0=1,
32.000=Sphere3.avi=1.000=0=0=1,
48.000=Sphere3R.avi=1.000=0=0=1,
60.000=Sphere3R.avi=0.000=0=0=1,
64.000=highway1.avi=1.000=0=0=1,
80.000=Highway2.avi=1.000=0=0=1,
92.000=highway1.avi=1.000=0=0=1,
92.500=Highway2.avi=1.000=0=0=1,
93.000=highway1.avi=1.000=0=0=1,
93.500=Highway2.avi=1.000=0=0=1,
94.000=highway1.avi=1.000=0=0=1,
96.000=AXEL F-bg.png=1.000=1=0=1,
97.000=grid1.avi=0.500=0=0=1,
104.500=Sphere3.avi=1.000=0=0=1,
121.000=Sphere3R.avi=1.000=0=0=1,
137.000=Highway2.avi=1.000=0=0=1,
153.000=highway1.avi=1.000=0=0=1,
169.000=Cube7.avi=1.000=0=0=1,
185.000=cube7A.avi=1.000=0=0=1,
197.000=grid1.avi=0.000=0=0=1,
197.500=grid1.avi=1.000=0=0=1,
198.000=grid1.avi=0.000=0=0=1,
198.500=grid1.avi=1.000=0=0=1,
199.000=grid1.avi=0.000=0=0=1,
201.000=Highway2.avi=0.500=0=0=1,
215.000=highway1.avi=0.500=0=0=1,
216.000=Highway2.avi=0.500=0=0=1,
217.000=AXEL F-bg.png=1.000=1=0=1,
99999=-nosongbg-=1.000=0=0=0 // don't automatically add -songbackground-
;

//---------------dance-single - ----------------
#NOTES:
     dance-single:
     :
     Beginner:
     1:
     0.145,0.177,0.000,0.000,0.000: // measure 1
0000
0000
0000
0000
,  // measure 2
0000
0000
0000
0000
,  // measure 3
0000
0000
0000
0000
,  // measure 4
0000
0000
1000
0000
,  // measure 5
1000
0000
1000
0000
,  // measure 6
0001
0000
0001
0000
,  // measure 7
0100
0000
0100
0000
,  // measure 8
0100
0100
0100
0000
,  // measure 9
1000
0000
0010
0000
,  // measure 10
1000
0000
0010
0000
,  // measure 11
0100
0000
0001
0000
,  // measure 12
0100
0000
0100
0100
,  // measure 13
0100
0000
0001
0000
,  // measure 14
0010
0000
1000
0000
,  // measure 15
0100
0000
1000
0000
,  // measure 16
0001
0000
0000
0000
,  // measure 17
1000
0000
1000
0000
,  // measure 18
0001
0000
0001
0001
,  // measure 19
0001
0000
0001
0000
,  // measure 20
1000
0000
0010
0010
,  // measure 21
0010
0000
0010
0000
,  // measure 22
0100
0000
0100
0000
,  // measure 23
0001
0000
0001
0000
,  // measure 24
0001
0001
0001
0001
,  // measure 25
0001
1000
0000
0000
,  // measure 26
0000
0001
0000
0000
,  // measure 27
0000
1000
0000
1000
,  // measure 28
0000
1000
0000
1000
,  // measure 29
0000
0100
0000
0100
,  // measure 30
0000
0100
0000
0100
,  // measure 31
0000
0010
0000
0010
,  // measure 32
0000
0010
0000
0010
,  // measure 33
0000
0001
0000
0001
,  // measure 34
0000
0001
0001
0001
,  // measure 35
0000
0001
0000
1000
,  // measure 36
0000
0001
0000
1000
,  // measure 37
0000
0010
0000
0100
,  // measure 38
0000
0010
0000
0010
,  // measure 39
0010
0010
0000
1000
,  // measure 40
0000
0001
0000
1000
,  // measure 41
0000
0010
0000
0001
,  // measure 42
0000
0000
0000
0001
,  // measure 43
0001
0001
0000
1000
,  // measure 44
0000
1000
0000
1000
,  // measure 45
1000
1000
0000
0001
,  // measure 46
0000
0010
0000
0100
,  // measure 47
0000
0100
0000
0010
,  // measure 48
0000
1000
0000
0001
,  // measure 49
0001
0001
0000
0001
,  // measure 50
0000
1000
1000
1000
,  // measure 51
0000
1000
0000
0000
,  // measure 52
0000
0010
0000
0000
,  // measure 53
0000
0100
0000
0100
,  // measure 54
0000
0100
0000
0001
;

//---------------dance-single - ----------------
#NOTES:
     dance-single:
     :
     Easy:
     3:
     0.258,0.279,0.085,0.122,0.000:
0000
0000
0000
0000
,
0000
0000
0000
0000
,
0000
0000
0000
0000
,
0000
0000
1000
1001
,
1000
0100
1000
0100
,
1000
0100
1000
0100
,
1000
1000
0001
0002
,
0000
0000
1003
0000
,
0001
0100
0010
0100
,
0001
0100
0010
0100
,
0001
1000
0001
2000
,
0000
3000
0001
0001
,
0010
0100
0010
0100
,
1000
0100
1000
0100
,
1000
0010
0001
0200
,
0000
0000
1300
1000
,
0001
1000
1001
0001
,
1000
0100
0110
0000
,
0010
0001
0011
0010
,
0100
1000
1001
1000
,
0010
0100
0110
0010
,
1000
0001
2000
0000
,
3001
0010
0001
0100
,
0110
0010
0010
0000
,
1010
1000
0000
0001
,
0000
1000
0000
0010
,
0010
0100
0000
0100
,
0001
0100
0000
1000
,
0100
1000
0000
0001
,
1000
0001
0001
1001
,
1000
0000
1000
0010
,
0100
0000
0001
0100
,
0010
0000
1000
0001
,
1000
0001
1000
0020
,
0000
0130
0100
0100
,
0100
0010
0010
0010
,
0010
1000
0100
0001
,
0200
0000
0300
0010
,
0010
1000
0001
1000
,
0001
0010
0100
0010
,
0100
0001
0010
1000
,
0020
0000
0030
0100
,
0100
0010
0010
1000
,
1000
0010
0010
0200
,
0000
0310
0010
1000
,
1000
0001
0001
2000
,
3002
1003
0010
1000
,
1000
0010
0100
0002
,
0000
1003
1000
0010
,
0010
0200
0000
0300
,
0000
0010
0000
0010
,
1000
0010
0000
1000
,
0100
0001
0010
1000
,
0200
0000
0000
0310
,
0010
0000
0000
0000
;

//---------------dance-single - ----------------
#NOTES:
     dance-single:
     :
     Medium:
     5:
     0.335,0.330,0.160,0.094,0.000:
0000
0000
0000
0000
,
0000
0000
0000
0000
,
0000
0000
0000
0000
,
0000
0000
1000
1010
,
1000
0001
1000
1000
,
0001
1000
0001
0001
,
1000
1000
1000
0000
0100
0100
0100
0200
,
0000
0000
0000
0300
1100
0000
0000
0000
,
1001
0000
1001
0000
0001
1000
0001
0000
,
1000
0000
0010
0000
0100
0010
0100
0000
,
0001
0001
0001
0000
1000
1000
1000
2000
,
0000
0000
3001
0001
,
1001
0000
0011
0000
0001
0010
0001
0000
,
0010
0000
0100
0000
1000
0100
1000
0000
,
0001
0001
0001
0000
1000
0000
0002
0000
,
0000
0000
1003
1001
,
1000
0001
1000
0000
0010
0000
0010
0000
,
0100
0010
0100
0000
0100
0100
0100
0000
,
0010
1000
0001
1001
,
1000
0100
1100
0101
,
0001
0100
0010
1000
,
1000
0000
0010
0000
0100
0100
0100
0000
,
0001
1000
0001
0010
,
0100
0100
0100
0100
0200
0000
0000
0000
,
1300
0001
0001
0001
,
0001
1000
1000
1000
,
1000
0000
0010
0000
0100
0000
0010
0010
,
0010
0000
1000
0000
0001
0000
1000
1000
,
1000
1000
0100
0001
,
0010
1000
0001
1001
,
1001
0000
0000
0000
1000
0000
0001
1000
,
0001
0000
1000
0000
0010
0000
0100
0010
,
0100
0010
1000
0100
,
0001
0010
1000
2020
,
0000
3030
1000
0000
0010
0000
1000
1000
,
1000
0000
0001
0000
0100
0000
0001
0001
,
0001
1000
0100
0001
,
0020
0000
0000
1030
,
1000
0000
1001
0000
1001
0000
1000
0100
,
1000
0001
0100
0010
,
1000
0000
0010
0010
0010
0000
1000
1000
,
1000
2000
0000
0000
0000
0000
3001
0000
,
0001
0000
0001
0100
0001
0000
0100
0000
,
0100
0000
1000
0100
1000
0000
0010
0000
,
0010
0000
1000
0010
1000
0000
0100
0000
,
0100
0000
0001
0010
0001
0000
0101
0000
,
1100
0000
1000
0100
1000
0000
0001
0000
,
0001
0000
0001
0100
0001
0000
0100
0100
,
0100
0000
0010
0100
0010
0000
0100
0010
,
0100
0000
0010
0010
0010
0010
0020
0000
,
0000
1030
0000
0001
,
1000
0001
0000
0010
,
0100
0010
0001
0100
,
2000
0000
0000
3010
,
0010
0000
0000
0000
;

//---------------dance-single - ----------------
#NOTES:
     dance-single:
     :
     Hard:
     7:
     0.441,0.457,0.226,0.085,0.028:
0000
0000
0000
0000
,
0000
0000
0000
0000
,
0000
0000
0000
0000
,
0000
0000
1000
1001
,
1000
0000
0001
0000
0010
0001
0010
0000
,
0010
0000
0100
0000
1000
0100
1000
0000
,
0001
0100
0010
1000
0001
0100
0010
2000
,
0000
0000
3001
0000
,
0010
0000
1010
0000
1000
1010
0010
0100
,
0001
0000
0100
0000
0010
1000
0001
0010
,
0100
0100
0100
0100
0010
0010
0010
0020
,
0000
0000
0031
0011
,
0100
0000
0101
0000
0001
0100
0010
1000
,
0001
0000
1001
0000
1000
0100
0010
0100
,
1000
0001
0100
0010
0010
0100
0010
0020
,
0000
0000
1030
1000
,
0001
1000
0001
1000
0001
0000
0001
0000
,
1000
0010
1000
0010
1010
0100
0110
0000
,
0010
0100
0001
0010
0100
0000
1000
0000
,
0001
1000
0001
1000
0101
0000
1100
0000
,
1000
0100
0010
0001
0011
0000
0011
0000
,
0001
0010
0100
1000
1100
1000
1100
0000
,
1000
0100
0010
0100
1000
0010
0100
0000
,
0001
0001
1000
1000
1001
0000
0000
0000
,
1010
0000
1000
0100
1000
0000
0001
0001
,
0001
0000
0010
0100
0010
0000
0100
0100
,
0100
0000
0010
1000
0010
1000
0010
1000
,
0010
0010
0000
0010
0100
0010
0100
0001
,
0001
0000
0000
0001
0100
0010
1000
0001
,
0010
0100
0010
0001
0100
0010
1000
0000
,
1010
0000
0000
1000
0010
0100
0001
0100
,
0010
1000
0000
1000
0100
0010
0001
0010
,
0100
0000
0000
0100
1000
0010
0100
0010
,
1000
0100
0010
0001
0010
0001
0022
0000
,
0000
0033
0001
0000
0010
0000
0100
1000
,
0100
1000
0010
0100
,
0001
0000
0100
0001
0100
0000
0001
0100
,
0001
0200
0000
0000
0000
0000
0310
0000
,
0110
0000
1010
0000
1010
1000
0010
1000
,
0010
0000
0100
0000
0001
0000
0000
0000
1000
0000
0000
0001
0000
1000
0001
0000
,
0010
0100
1000
1000
1000
0000
0001
0001
,
0001
0002
0000
0000
0000
0000
0103
0000
,
0100
0000
0010
0100
0010
0100
0010
0000
,
0010
0000
0010
1000
0010
1000
0100
0100
,
0100
0000
1000
0100
0001
0010
0100
0000
,
0010
0000
0010
0001
0010
0100
1100
0000
,
0101
0000
0001
0100
0010
1000
0001
0000
,
1000
0000
0001
1000
0010
0100
0001
0001
,
0001
0000
0001
0100
0010
1000
0001
0000
,
1000
0100
0100
0010
0010
0100
2000
0000
,
0000
0000
0000
0000
3001
0000
0001
0000
1000
0000
0000
0010
0000
1000
0010
0000
,
1000
0000
0010
0000
0100
0000
0000
0000
0001
0000
0000
0100
0000
0010
1000
0000
,
0001
0010
0100
0100
0100
0000
0010
0010
,
0001
0002
0000
0000
0003
0000
1001
0000
,
1000
0000
0000
0000
;
