#VERSION:0.83;
#TITLE:徒花ネクロマンシー;
#SUBTITLE:- ゾンビランドサガ OP2;
#ARTIST:フランシュシュ;
#TITLETRANSLIT:Adabana Necromancy;
#SUBTITLETRANSLIT:- Zombie Land Saga OP2;
#ARTISTTRANSLIT:FranChouChou;
#GENRE:;
#ORIGIN:;
#CREDIT:Loak;
#BANNER:Adabana Necromancy.png;
#BACKGROUND:Adabana Necromancy-bg.png;
#PREVIEWVID:;
#JACKET:;
#CDIMAGE:;
#DISCIMAGE:;
#LYRICSPATH:;
#CDTITLE:cdtitle.png;
#MUSIC:Adabana Necromancy.ogg;
#OFFSET:0.000000;
#SAMPLESTART:50.212559;
#SAMPLELENGTH:11.162791;
#SELECTABLE:YES;
#BPMS:0.000=172.000;
#STOPS:;
#DELAYS:;
#WARPS:;
#TIMESIGNATURES:0.000=4=4;
#TICKCOUNTS:0.000=4;
#COMBOS:0.000=1;
#SPEEDS:0.000=1.000=0.000=0;
#SCROLLS:0.000=1.000;
#FAKES:;
#LABELS:0.000=Song Start;
#BGCHANGES: 0.000=Adabana Necromancy-bg.png=1.000=1=0=0=StretchNoLoop====,
99999=-nosongbg-=1.000=0=0=0
;
#KEYSOUNDS:;
#ATTACKS:
;

//---------------dance-single - ----------------
#NOTEDATA:;
#CHARTNAME:;
#STEPSTYPE:dance-single;
#DESCRIPTION:;
#CHARTSTYLE:;
#DIFFICULTY:Challenge;
#METER:11;
#RADARVALUES:0.759266,1.147979,0.094161,0.366182,0.622509,508.000000,499.000000,9.000000,35.000000,11.000000,0.000000,0.000000,0.000000,0.000000,0.759266,1.147979,0.094161,0.366182,0.622509,508.000000,499.000000,9.000000,35.000000,11.000000,0.000000,0.000000,0.000000,0.000000;
#CREDIT:Loak;
#NOTES:
0000
0000
0000
0000
,
0000
0000
0000
0000
,
0000
0000
0000
0000
,
0000
0000
0000
0000
,
0000
0000
0000
0000
0000
1000
0100
0010
,
0002
0000
1003
0010
0000
1000
0000
0001
,
0010
0000
0100
0000
1000
0000
0002
0000
0000
0000
1003
0000
0001
0000
0100
0010
,
2000
0000
0000
3002
0000
2003
0000
3100
,
0010
0001
0020
0000
0000
0000
0100
0000
0000
0000
0031
0000
1000
0000
0001
0000
,
0100
0010
1000
0000
0100
0010
0001
0000
1000
0010
0100
0000
0001
0010
0100
1000
,
0002
0000
1003
0010
0000
0100
0000
0001
,
0100
0000
0010
0000
1000
0000
0002
0000
0000
0000
1003
0000
0001
0000
0010
0100
,
2000
3000
0000
0100
0000
0010
0000
0100
,
1000
0010
0200
0000
0000
0000
0001
0000
0000
0000
0310
1000
0001
0000
0010
0000
,
0100
0000
0010
0000
0100
0000
0010
0000
0100
0000
0010
0000
,
0011
0000
0001
0000
1000
0000
0001
0000
0100
0000
0000
0001
0000
0000
1000
0000
,
0200
0000
0000
0310
0000
0001
0000
0010
,
0001
0100
0010
0000
M001
0100
0010
0000
M001
0100
0010
0000
1000
0010
0100
0000
,
0001
0010
0100
0000
0000
0000
M001
0010
0100
0000
0000
0000
M001
0010
0100
0000
,
1000
0000
0001
0000
1000
0000
0010
0000
0100
0000
0000
0001
0000
0000
0100
0000
,
0010
0000
0000
1000
0000
0001
0000
1000
,
0001
1000
0010
0000
0M01
1000
0010
0000
0M01
1000
0010
0000
0M01
1000
0010
0000
,
2000
0000
0000
3200
0000
0000
0320
0000
0000
0000
0031
0000
1000
0000
0001
0000
,
0100
0000
0010
0000
0000
0000
0110
0000
0000
0000
1000
0010
0100
0001
1000
0000
,
010M
0100
0000
0010
M010
0000
0002
0000
0000
0000
1003
0000
0001
0000
0100
0000
,
0010
0000
1000
0000
0000
0000
1001
0000
0000
0000
0001
0010
0100
1000
0010
0000
,
010M
0100
0000
0010
M010
0000
2000
0000
0000
0000
3001
0000
0010
0000
0100
0000
,
0010
0000
0010
0001
0000
0001
1000
0001
,
0100
0000
0100
0010
0000
0010
1000
0010
,
0100
0000
0001
0000
0010
0000
0100
0000
0000
0000
0020
0000
0031
1000
0001
0100
,
0010
0000
0000
0000
2010
0000
3010
0000
0100
0000
0001
0000
1000
0100
0010
0001
,
0200
0000
0000
0000
0301
0000
1000
0000
0000
0000
0100
0000
0000
0000
0010
0001
,
0010
0000
0100
0000
1000
0000
0001
0000
0000
0000
1000
0000
0001
0100
0001
0100
,
0020
0000
0000
2030
0000
0000
3002
0000
,
0023
0000
0230
0000
,
2300
0000
3020
0000
,
1030
0001
0010
0200
0000
1300
0001
0010
,
0001
0100
0010
1000
0001
1000
0010
0100
,
0000
0001
0100
0010
0000
1000
0001
1000
,
0100
0000
0010
0000
0100
0000
1000
0000
0010
0000
0100
0000
0001
0010
0001
0010
,
0100
1000
0001
1000
0010
0100
0001
0100
0010
1000
0001
1000
0100
0010
0001
1000
,
0001
0010
0100
1000
0001
0100
0010
1000
0100
1000
0001
0100
0001
1000
0100
0010
,
0001
0010
0100
1000
0001
0100
0010
1000
0100
1000
0010
0100
0001
1000
0001
0010
,
0100
0000
0000
1000
0000
0000
1001
0000
0000
0000
0001
0000
0100
0000
0010
0000
,
1000
0010
0100
0002
0000
1003
0001
0010
,
0001
1000
0010
0100
0001
1000
0100
0010
,
0000
0100
1000
0001
0000
0100
0001
0100
,
0010
0000
1000
0000
0001
0000
0010
0000
0100
0000
1000
0000
0001
0100
0001
0100
,
0010
1000
0001
1000
0010
0100
0001
1000
0100
0010
0001
1000
0001
0100
0010
1000
,
0010
0100
0001
1000
0100
1000
0001
0010
0001
0100
0010
1000
0001
1000
0100
0010
,
0001
1000
0010
1000
0001
0100
0001
1000
0100
0010
0001
1000
0001
0100
0020
0000
,
0030
0000
1000
0000
0010
0000
0100
0000
0000
0000
0001
1000
0001
0010
0100
1000
,
0002
0000
1003
0010
1000
0001
0010
0100
,
1000
0001
1000
0010
0100
0001
0100
0010
,
1000
0001
1000
0100
0010
0001
0010
0100
,
1000
0001
0100
0010
1000
0100
0000
1100
,
0000
1000
0001
0100
0001
0010
0100
0020
,
0000
0000
0031
0000
1000
0010
1000
0000
0001
0000
0100
0000
0000
0000
0002
0000
,
0000
0103
0010
1000
0001
1000
0100
0010
,
0001
1000
0001
1000
0010
0000
0000
0000
0100
0000
0010
0000
0000
0000
0000
0000
,
2000
0000
0000
0000
,
3001
0010
0001
0000
1000
0000
1020
0000
0000
0000
0130
0001
1000
0001
0010
0100
,
1000
0010
1000
0000
0001
0000
0201
0000
0000
0000
0000
0000
0301
0000
1001
0000
,
0000
1000
0100
0010
0100
1000
0010
0100
,
0001
0000
1000
0000
0001
0000
1000
0000
0001
0000
1000
0000
,
0100
0010
0001
1000
0001
0100
0010
1000
0001
1000
0100
0010
0001
0100
0010
1000
,
0100
0000
0000
0000
0010
0000
0001
1000
0001
0000
0000
0000
0000
0000
0000
0000
;

//---------------dance-single - ----------------
#NOTEDATA:;
#CHARTNAME:;
#STEPSTYPE:dance-single;
#DESCRIPTION:;
#CHARTSTYLE:;
#DIFFICULTY:Hard;
#METER:8;
#RADARVALUES:0.517138,0.626170,0.083699,0.491730,0.156935,346.000000,338.000000,8.000000,47.000000,0.000000,0.000000,1.000000,0.000000,0.000000,0.517138,0.626170,0.083699,0.491730,0.156935,346.000000,338.000000,8.000000,47.000000,0.000000,0.000000,1.000000,0.000000,0.000000;
#CREDIT:Loak;
#NOTES:
0000
0000
0000
0000
,
0000
0000
0000
0000
,
0000
0000
0000
0000
,
0000
0000
0000
0000
,
0000
0000
0000
0000
0000
1000
0100
0010
,
0002
0000
1003
0010
0000
1000
0000
0001
,
0010
0000
0100
0000
1000
0000
0002
0000
0000
0000
0003
0000
0000
0000
1000
0010
,
2000
0000
0000
3002
0000
2003
0000
3100
,
0010
0100
0020
0000
0000
0000
0000
0000
0000
0000
0031
0000
1000
0000
0010
0000
,
0100
0000
0010
1000
0000
1000
0100
0010
,
0002
0000
1003
0010
0000
1000
0000
0001
,
0010
0000
0001
0000
1000
0000
0020
0000
0000
0000
0030
0000
0000
0000
0100
0001
,
0200
0300
0000
0010
0000
1000
0000
0001
,
1000
0010
2000
0000
0000
0000
0000
0000
0000
0000
3000
0000
0000
0000
0000
0000
,
0001
0000
1000
0000
0001
0000
1000
0000
0001
0000
1000
0000
,
0100
0000
0010
0000
0100
0000
0010
0000
0001
0000
0000
1000
0000
0000
0001
0000
,
0200
0000
0000
0310
0000
1000
0000
0010
,
0200
0300
0000
0000
0000
0000
0000
0000
0200
0000
0000
0300
0000
0000
0000
0000
0200
0000
0000
0000
0000
0300
0000
0000
0001
0000
0000
0000
1000
0000
0000
0000
,
0200
0300
0000
0200
0300
0000
0200
0300
,
0010
0000
0001
0000
1000
0000
0001
0000
0100
0000
0000
0001
0000
0000
0100
0000
,
0010
0000
0000
1000
0000
0001
0000
1000
,
0020
0030
0000
0000
0000
0000
0000
0000
0020
0000
0030
0000
0000
0000
0000
0000
0020
0000
0000
0000
0030
0000
0000
0000
0020
0000
0000
0000
0000
0000
0030
0000
,
2000
0000
0000
3200
0000
0000
0320
0000
0000
0000
0031
0000
1000
0000
0001
0000
,
0100
0010
0000
0110
0000
1000
0001
1000
,
0100
0010
0000
0100
0010
0000
0002
0000
0000
0000
1003
0000
0001
0000
0100
0000
,
0010
1000
0000
1001
0000
0001
0010
0100
,
1000
0100
0000
1000
0100
0000
0020
0000
0000
0000
0031
0000
1000
0000
0001
0000
,
0200
0000
0300
0000
0000
0010
1000
0010
,
0200
0000
0000
0000
0300
0000
0000
0000
0001
0000
0000
1000
0000
0000
0001
0000
,
0020
0000
0000
0000
0000
0130
0000
1000
,
1001
0000
1010
0010
0100
0001
1000
0001
,
0020
0000
0130
1000
0000
0001
0000
0100
,
0001
0100
0010
1000
0000
0001
0010
0100
,
2000
0000
0000
3002
0000
0000
2003
0000
,
3200
0000
0320
0000
,
0032
0000
0203
0000
,
0301
1000
0100
0020
0000
0031
1000
0100
,
1000
0010
0100
0001
1000
0001
0100
0010
,
0000
1000
0010
0100
0000
0001
1000
0001
,
0010
0000
0100
0000
0010
0000
0001
0000
0100
0000
0010
0000
1000
0001
1000
0001
,
0010
0100
0000
1000
0000
0001
0000
0100
,
0000
0010
0000
1000
0000
0010
0000
0100
,
0001
0000
1000
0001
0000
0010
0100
1000
,
0100
0000
0000
0010
0000
0000
0001
0000
0000
0000
1000
0000
0001
0000
0100
0000
,
0010
0100
0001
2000
0000
3001
1000
0100
,
1000
0001
0100
0010
1000
0001
0010
0100
,
0000
0010
0001
1000
0000
0010
1000
0010
,
0100
0000
0001
0000
1000
0000
0100
0000
0010
0000
0001
0000
1000
0010
1000
0010
,
0100
0001
0000
1000
0000
0001
0000
0010
,
0000
0100
0000
1000
0000
0001
0000
1000
,
0010
0000
0100
0010
0000
1000
0000
1001
,
0000
0011
0000
0110
0000
0100
1000
0001
,
2000
3001
0100
0010
,
1000
0000
0001
1000
0000
0100
0000
0020
,
0000
0030
0100
0000
1000
0001
0000
0100
,
0000
0010
0000
1000
0001
0010
0000
0011
,
0000
0001
1000
0010
1000
0100
0010
0200
,
0000
1300
0001
1000
0000
0010
0000
2000
,
0000
3010
0100
0001
1000
0001
0010
0100
,
1000
0001
1000
0001
0100
0000
0000
0000
0010
0000
0100
0000
0000
0000
0000
0000
,
0002
0000
0000
0000
,
1003
0100
1000
0000
0000
0000
0002
0000
0000
0000
1003
0000
0010
0000
1000
0000
,
0001
0010
0001
0000
0000
0000
0020
0000
0000
0000
0000
0000
0130
0000
2000
0000
,
0000
3001
0100
0010
0100
0001
1000
0100
,
0010
0000
0001
0000
1000
0000
0001
0000
1000
0000
0001
0000
,
0400
0000
0000
0000
,
0310
0000
0000
0000
1000
0000
0001
1000
0001
0000
0000
0000
0000
0000
0000
0000
;

//---------------dance-single - ----------------
#NOTEDATA:;
#CHARTNAME:;
#STEPSTYPE:dance-single;
#DESCRIPTION:;
#CHARTSTYLE:;
#DIFFICULTY:Medium;
#METER:5;
#RADARVALUES:0.321343,0.347872,0.062774,0.240634,0.036618,215.000000,209.000000,6.000000,23.000000,0.000000,0.000000,0.000000,0.000000,0.000000,0.321343,0.347872,0.062774,0.240634,0.036618,215.000000,209.000000,6.000000,23.000000,0.000000,0.000000,0.000000,0.000000,0.000000;
#CREDIT:Loak;
#NOTES:
0000
0000
0000
0000
,
0000
0000
0000
0000
,
0000
0000
0000
0000
,
0000
0000
0000
0000
,
0000
0000
0000
0000
,
0001
0000
0000
1000
0000
0001
0000
0000
,
1000
0000
0000
0010
0000
1000
0010
0000
,
1000
0000
0000
0001
0000
1000
0000
0100
,
0020
0000
0030
0000
,
0001
0000
0010
0000
0100
0000
1000
0100
,
0010
0000
0000
0001
0000
0010
0000
0000
,
0001
0000
0000
1000
0000
0001
1000
0000
,
0010
0000
0000
0100
0000
0010
0000
0100
,
0002
0000
0003
0000
,
1000
0000
0001
0000
,
0010
0000
0001
1000
,
0010
0000
1000
0010
,
0200
0300
0000
0000
0000
0000
0000
0000
0200
0000
0000
0300
0000
0000
0000
0000
0200
0000
0000
0000
0000
0300
0000
0000
0001
0000
0000
0000
0000
0000
0000
0000
,
2000
3000
0000
2000
3000
0000
2000
3000
,
0001
0010
0100
0010
,
0001
0000
1000
0001
,
0020
0030
0000
0000
0000
0000
0000
0000
0020
0000
0030
0000
0000
0000
0000
0000
0020
0000
0000
0000
0030
0000
0000
0000
0020
0000
0000
0000
0000
0000
0030
0000
,
0001
0000
0000
1000
0000
0000
0001
0000
,
0100
0000
0000
0110
0000
0000
0010
0000
,
1000
0000
0000
0010
0000
0000
1000
0000
0000
0000
0000
0000
0001
0000
0000
0000
,
0010
0000
0000
0110
0000
0000
0100
0000
,
1000
0000
0000
0100
0000
0000
1000
0000
0000
0000
0000
0000
0001
0000
0000
0000
,
0100
0000
0000
0010
,
1000
0000
0001
1000
,
0020
0000
0000
0000
0000
0030
0000
0000
,
1000
1001
0001
0010
,
0100
0000
0000
0010
0000
0100
0000
0000
,
1000
0000
0000
0001
0000
0000
0000
0000
,
2000
0000
0000
3002
0000
0000
2003
0000
,
3200
0000
0320
0000
,
0032
0000
0203
0000
,
0301
0100
0001
0100
0000
0000
0010
0000
,
1000
0001
1000
0100
,
0010
0000
0000
0001
0000
0000
0010
0000
,
0001
1000
0001
0100
,
0010
1000
0010
0100
,
0001
0100
0010
1000
,
0001
0000
0000
1000
0000
0000
0100
0000
,
0010
0000
0000
0100
0000
0000
0010
0000
0000
0000
0000
0000
0001
0000
0000
0000
,
1000
0010
1000
0010
0000
0000
0100
0000
,
0001
0100
0010
1000
,
0001
0000
0000
1000
0000
0000
0001
0000
,
1000
0100
0010
0001
,
1000
0010
1000
0001
,
0010
0100
1000
0001
,
1000
0000
0000
0010
0000
1000
0000
0001
,
0000
0010
0000
0100
0000
1000
0000
0001
,
1000
0001
0100
0010
,
1000
0000
0001
1000
0000
0100
0000
0010
,
0000
0000
0100
0000
1000
0001
0000
0100
,
0000
0010
0000
0000
1000
0000
0000
1001
,
0000
0000
0001
0000
0010
0000
0100
0010
,
0000
0000
0100
0000
1000
0000
0000
0001
,
0000
1000
0010
0100
,
0001
0100
0001
0000
1000
0001
0000
0000
,
0020
0000
0000
0000
,
0130
0000
0000
1100
0000
0000
1000
0000
,
0001
0000
0000
1001
0000
0000
0000
2000
,
0000
3000
0010
0000
0100
0000
0001
0000
,
1000
0000
0001
0000
1000
0000
0001
0000
1000
0000
0001
0000
,
0200
0000
0000
0000
,
0310
0000
1000
0001
1000
0000
0000
0000
;

//---------------dance-single - ----------------
#NOTEDATA:;
#CHARTNAME:;
#STEPSTYPE:dance-single;
#DESCRIPTION:;
#CHARTSTYLE:;
#DIFFICULTY:Easy;
#METER:3;
#RADARVALUES:0.207752,0.278298,0.000000,0.041849,0.000000,139.000000,139.000000,0.000000,4.000000,0.000000,0.000000,0.000000,0.000000,0.000000,0.207752,0.278298,0.000000,0.041849,0.000000,139.000000,139.000000,0.000000,4.000000,0.000000,0.000000,0.000000,0.000000,0.000000;
#CREDIT:Loak;
#NOTES:
0000
0000
0000
0000
,
0000
0000
0000
0000
,
0000
0000
0000
0000
,
0000
0000
0000
0000
,
0000
0000
0000
0000
,
0001
0000
1000
0000
,
0010
0000
1000
0000
,
0001
0000
0010
0000
,
0100
0000
1000
0000
,
0001
1000
0001
1000
,
0010
0000
0100
0000
,
0001
0000
0100
0000
,
0010
0000
1000
0000
,
0001
0000
1000
0000
,
0100
0000
0000
0000
,
0010
0000
0001
0000
,
0010
0000
0001
0000
,
1000
1000
1000
1000
,
0001
0000
0000
1000
0000
0000
0001
0000
,
1000
0000
0010
0000
,
1000
0000
0010
0000
,
0100
0100
0100
0100
,
0001
0000
0000
0100
0000
0000
0010
0000
,
1000
0000
0001
0000
,
1000
0100
1000
0000
,
0001
0000
0100
0000
,
0010
0100
0010
0000
,
1000
0000
0010
0000
,
0100
0000
0001
0000
,
1000
0000
0001
0000
,
0010
0010
0000
0000
,
0001
0000
1000
0000
,
0010
0000
1000
0000
,
0002
0000
0000
0000
,
2003
0000
0000
0000
,
3000
0000
0000
0000
,
0001
0000
0010
0000
,
0001
0010
0001
0010
,
0100
0000
1000
0000
,
0100
1000
0100
1000
,
0001
0000
1000
0000
,
0001
0000
0100
0000
,
0010
0000
1000
0000
,
0010
0000
0100
0000
,
0001
0000
0100
0000
,
0001
0100
0001
0100
,
0010
0000
1000
0000
,
0010
1000
0010
1000
,
0001
0000
0010
0000
,
0100
0000
1000
0000
,
0100
0000
0010
0000
,
0001
0000
1000
0000
,
0010
0000
1000
0000
,
0010
0000
0100
0000
,
0001
0000
1000
0000
,
0001
0000
0010
0000
,
0100
0000
1000
0000
,
0001
0000
1000
0000
,
0001
0000
0100
0000
,
0010
0010
0010
0000
,
2000
0000
0000
0000
,
3010
0000
0000
1000
0000
0000
0010
0000
,
0100
0000
0000
0001
0000
0000
0100
0000
,
0001
1000
0001
1000
,
0100
0000
0000
0000
,
0020
0000
0000
0000
,
0031
0000
1000
0000
;

//---------------dance-single - ----------------
#NOTEDATA:;
#CHARTNAME:;
#STEPSTYPE:dance-single;
#DESCRIPTION:;
#CHARTSTYLE:;
#DIFFICULTY:Beginner;
#METER:2;
#RADARVALUES:0.109107,0.173936,0.000000,0.031387,0.000000,73.000000,73.000000,0.000000,3.000000,0.000000,0.000000,0.000000,0.000000,0.000000,0.109107,0.173936,0.000000,0.031387,0.000000,73.000000,73.000000,0.000000,3.000000,0.000000,0.000000,0.000000,0.000000,0.000000;
#CREDIT:Loak;
#NOTES:
// measure 0
0000
0000
0000
0000
,  // measure 1
0000
0000
0000
0000
,  // measure 2
0000
0000
0000
0000
,  // measure 3
0000
0000
0000
0000
,  // measure 4
0000
0000
0000
0000
,  // measure 5
0001
0000
0000
0000
,  // measure 6
1000
0000
0000
0000
,  // measure 7
0001
0000
0000
0000
,  // measure 8
0100
0000
0000
0000
,  // measure 9
0010
0000
0100
0000
,  // measure 10
0010
0000
0000
0000
,  // measure 11
1000
0000
0000
0000
,  // measure 12
0010
0000
0000
0000
,  // measure 13
0100
0000
0000
0000
,  // measure 14
0001
0000
1000
0000
,  // measure 15
0001
0000
0000
0000
,  // measure 16
1000
0000
0000
0000
,  // measure 17
0100
0000
0100
0000
,  // measure 18
0100
0000
0000
0000
,  // measure 19
0010
0000
0000
0000
,  // measure 20
0100
0000
0000
0000
,  // measure 21
0010
0000
0010
0000
,  // measure 22
0010
0000
0000
0000
,  // measure 23
0001
0000
0000
0000
,  // measure 24
1000
0000
0000
0000
,  // measure 25
0010
0000
0000
0000
,  // measure 26
1000
0000
0000
0000
,  // measure 27
0001
0000
0000
0000
,  // measure 28
1000
0000
0000
0000
,  // measure 29
0001
0000
0000
0000
,  // measure 30
0010
0000
0000
0000
,  // measure 31
0100
0000
0000
0000
,  // measure 32
1000
0000
0000
0000
,  // measure 33
0200
0000
0000
0000
,  // measure 34
0320
0000
0000
0000
,  // measure 35
0030
0000
0000
0000
,  // measure 36
0001
0000
1000
0000
,  // measure 37
0001
0000
0000
0000
,  // measure 38
1000
0000
0010
0000
,  // measure 39
1000
0000
0000
0000
,  // measure 40
0010
0000
0100
0000
,  // measure 41
0010
0000
0000
0000
,  // measure 42
0100
0000
0001
0000
,  // measure 43
0100
0000
0000
0000
,  // measure 44
0010
0000
0000
0000
,  // measure 45
1000
0000
0000
0000
,  // measure 46
0010
0000
0000
0000
,  // measure 47
1000
0000
0000
0000
,  // measure 48
0001
0000
1000
0000
,  // measure 49
0001
0000
0000
0000
,  // measure 50
0010
0000
0001
0000
,  // measure 51
0010
0000
0100
0000
,  // measure 52
1000
0000
0000
0000
,  // measure 53
0001
0000
0000
0000
,  // measure 54
1000
0000
0000
0000
,  // measure 55
0001
0000
0000
0000
,  // measure 56
0100
0000
0000
0000
,  // measure 57
0010
0000
0000
0000
,  // measure 58
1000
0000
0000
0000
,  // measure 59
0010
0000
0000
0000
,  // measure 60
0200
0000
0000
0000
,  // measure 61
0301
0000
0000
0000
,  // measure 62
1000
0000
0000
0000
,  // measure 63
0001
0000
0000
0000
,  // measure 64
0010
0000
0000
0000
,  // measure 65
0100
0000
0000
0000
,  // measure 66
1000
0000
0001
0000
;
