#VERSION:0.83;
#TITLE:A Severed Timeline;
#SUBTITLE:Pokemon Scarlet & Violet;
#ARTIST:TNH Nebula;
#TITLETRANSLIT:;
#SUBTITLETRANSLIT:;
#ARTISTTRANSLIT:;
#GENRE:;
#CREDIT:;
#MUSIC:A Severed Timeline.ogg;
#BANNER:A Severed Timeline-ban.png;
#BACKGROUND:A Severed Timeline-bg.png;
#CDTITLE:;
#SAMPLESTART:32.060;
#SAMPLELENGTH:14.000;
#SELECTABLE:YES;
#OFFSET:0.006000;
#BPMS:0.000=150.000;
#STOPS:;
#SPEEDS:0.000=1.000=0.000=0;
#SCROLLS:0.000=1.000;
#TICKCOUNTS:0.000=4;
#TIMESIGNATURES:0.000=4=4;
#LABELS:0.000=Song Start;
#COMBOS:0.000=1;
#DISPLAYBPM:150.000;
#ORIGIN:;
#TAGS:;
#PREVIEWVID:;
#JACKET:;
#CDIMAGE:;
#DISCIMAGE:;
#XSCROLLS:0.000000=0.000000 ;
#BGCHANGES:;
#FGCHANGES:;

//--------------- dance-single - DS- ----------------
#NOTEDATA:;
#STEPSTYPE:dance-single;
#DESCRIPTION:DS-;
#DIFFICULTY:Challenge;
#METER:7;
#RADARVALUES:0,0,0,0,0;
#CREDIT:HellKiteChaos;
#CHARTNAME:472 (P) + 709 (S);
#NOTES:
0000
0000
0000
0000
,
0000
0000
0000
0000
,
0000
0000
0000
0000
,
0000
0000
0000
0000
,
0000
0000
0000
0000
,
0000
0000
0000
0000
,
0000
0000
0000
0000
,
0000
0000
0000
0000
,
1000
0100
1000
0010
,
0100
0001
0010
0001
,
1000
0000
0000
0100
0000
0000
0010
0000
0001
0000
0000
1000
0000
0000
0010
0000
,
0100
0000
0001
0000
1000
0001
1001
0000
,
1000
0000
0000
0000
0010
0000
0000
0000
1000
0000
0000
0010
0000
0000
1000
0000
,
0100
0000
0000
0000
0010
0000
0000
0000
0001
0000
0000
0100
0000
0000
0001
0000
,
0010
0000
0000
0000
0100
0000
0000
0000
1000
0000
0000
0010
0000
0000
1000
0000
,
0100
0000
1000
0000
0001
0000
0000
0100
0000
0010
0000
0000
0100
0000
0000
0000
,
0001
0000
0010
0000
0001
0000
0000
0000
0100
0000
0000
0010
0000
0000
1000
0000
,
0100
0000
1000
0000
0100
0000
0000
0000
1000
0000
0000
0010
0000
0000
0100
0000
,
0001
0000
0010
0000
0001
0000
0000
0000
1000
0000
0000
0010
0000
0000
1000
0000
,
0001
0000
1000
0000
0001
1000
0000
0000
,
2000
0000
0100
0000
3001
0100
0010
1000
,
0002
0000
1003
0000
0100
0010
0100
0000
,
0020
0000
0031
1000
0020
0000
0130
0001
,
2000
3200
0320
0032
,
1003
0010
0100
0001
1000
0100
0010
0001
,
2000
0000
3010
1000
0002
0000
0013
0100
,
2000
3001
0100
0010
,
1000
0001
0010
0100
,
1000
0100
1000
0001
0100
0010
1000
0000
,
0001
0010
0001
1000
0010
0100
0001
0000
,
0010
0001
0010
0100
1000
0001
0100
0000
,
0010
0000
1000
0000
0010
0000
0000
0100
0000
0010
0000
0000
0100
0000
0000
0000
,
0001
0100
0010
0000
1000
0001
0010
0000
,
0100
1000
0001
0000
0100
0010
1000
0000
,
0001
0010
0100
1000
0001
0100
0010
1000
,
0001
0000
1000
1000
,
0200
0000
0000
0300
0010
0001
0010
0000
,
0001
0000
1000
0000
1000
0000
0010
0100
,
0002
0000
1003
0100
0020
0000
0032
0000
,
1003
0000
0001
0000
0100
0100
0010
0010
,
2000
0000
3100
0000
1000
0001
0100
0000
,
0002
0000
0103
0000
0001
1000
0100
0010
,
0001
0000
2000
0000
3010
0100
0010
0100
,
0001
0001
1000
1000
0100
0010
0001
0000
,
1000
0100
1000
0001
0100
0000
0010
0000
,
1000
0010
1000
0001
0100
0000
0001
0000
,
0010
0001
0010
0100
1000
0000
0001
0000
,
0100
0000
0010
0000
1000
0000
0000
0001
0000
0100
0000
0000
0010
0000
0100
0000
,
0001
1000
0100
0000
0010
0001
1000
0000
,
0100
0010
0001
0000
1000
0001
0100
0000
,
0010
1000
0001
0000
0100
0010
1000
0001
,
0020
0000
0030
0000
,
0100
0000
1000
0000
0001
0100
0001
1000
,
0100
0010
0001
0010
0100
1000
0001
0000
,
0100
0000
0010
0000
0100
0001
1000
0000
,
0001
0100
0010
0100
0001
0000
0001
0000
,
2000
0000
3100
0000
0010
0000
0100
1000
,
0001
0100
0010
0100
0001
0000
1000
0000
,
0001
0000
0010
0000
0100
1000
0001
1000
,
0010
0000
0000
0000
,
0100
0000
0001
2000
0000
3000
0100
0000
,
0020
0000
0000
0230
0000
0000
2300
0000
0000
0000
3000
0000
0001
0000
0000
0000
,
1000
0000
0010
0200
0000
0300
0010
1000
,
0002
0023
0230
2300
,
3001
0010
0100
2000
0000
3001
0100
0000
,
0020
0000
0000
2030
0000
0000
3002
0000
0000
0003
1000
0000
0100
0000
0000
0000
,
0010
0010
0001
1000
0010
0000
0100
0001
,
1000
0000
0000
0000
,
0001
0010
0100
1000
0001
1000
0010
1000
,
0001
0100
0010
1000
0100
0010
0001
0000
,
1000
0100
1000
0001
0010
0001
1000
0010
,
0100
0000
0001
0000
0010
0000
0000
0001
0000
1000
0000
0000
0010
0000
0100
0000
,
0001
1000
0100
0010
0100
1000
0001
0000
,
0100
0010
1000
0001
0100
0010
1000
0000
,
0001
0010
0100
1000
0001
0100
0010
1000
,
0100
0010
0001
1000
,
0001
0100
0010
1000
,
0001
0010
0100
1000
,
0001
0100
0001
0010
,
0100
1000
0010
0000
,
2000
0100
0100
0000
3001
0100
0010
1000
,
0002
0100
0100
0000
1003
0100
0010
0001
,
2000
0010
0010
0000
3001
0010
0100
1000
,
0002
0010
0010
0000
1003
0010
0100
0001
,
2000
0100
0001
0000
3100
0010
0001
1000
,
0002
0100
1000
0000
0103
0010
1000
0001
,
0010
0100
1000
0000
0010
0100
0001
0000
,
1000
0000
0000
0000
0001
0010
0100
0000
,
1001
0000
0000
0000
;
