#TITLE:wish;
#SUBTITLE:;
#ARTIST:DJ YOSHITAKA feat.杉村ことみ;
#TITLETRANSLIT:wish;
#SUBTITLETRANSLIT:;
#ARTISTTRANSLIT:DJ YOSHITAKA feat.Sugimura Kotomi;
#CREDIT:;
#BANNER:wish.png;
#BACKGROUND:wish-bg.png;
#LYRICSPATH:;
#CDTITLE:beatmania IIDX.png;
#MUSIC:WISH.mp3;
#OFFSET:-0.028;
#SAMPLESTART:49.505;
#SAMPLELENGTH:18.261;
#SELECTABLE:YES;
#DISPLAYBPM:115.000;
#BPMS:0.000=115.000;
#STOPS:142.500=0.522
;
#BGCHANGES:-0.600=wish.avi=1.000=1=1=0
,190.000=wish-bg.png=1.000=0=0=1
;

//---------------dance-single - ----------------
#NOTES:
     dance-single:
     :
     Beginner:
     1:
     0.080,0.114,0.010,0.000,0.000:
0000
0000
0000
0000
,
0000
0000
0000
0000
,
0000
0000
0000
0000
,
0001
0000
0001
0000
,
0001
0000
0000
0000
,
1000
0000
0000
0000
,
0010
0000
0000
0000
,
0100
0100
0100
0100
,
0000
0000
0000
0000
,
0001
0000
0000
0000
,
0010
0000
0000
0000
,
0001
0000
0001
0000
,
0001
0000
0000
0000
,
1000
0000
0000
0000
,
0010
0000
0000
0000
,
0010
0000
0010
0000
,
0010
0000
0000
0000
,
0000
0000
0000
0000
,
1001
0000
0000
0000
,
0000
0000
0000
0000
,
0100
0000
0000
0000
,
0100
0000
0000
0000
,
0010
0000
0010
0000
,
0010
0000
0000
0000
,
0001
0000
0000
0000
,
1000
0000
0000
0000
,
0001
0000
0000
0000
,
0100
0000
0010
0000
,
0100
0000
0000
0000
,
0001
0000
0000
0000
,
1000
0000
0000
0000
,
0100
0000
0100
0100
,
0100
0000
0000
0000
,
0000
0000
0000
0000
,
0001
0000
0000
0000
,
0001
0001
0001
0000
,
0000
0000
0000
0010
,
0000
0000
0000
0001
,
0000
0000
0000
1000
,
0000
1000
0000
1000
,
0000
0000
0000
0000
,
1000
0000
0000
0000
,
0001
0000
0000
0001
,
0000
0001
0000
0001
,
0000
0000
0000
0010
,
0000
0000
0000
1000
,
0000
0000
0000
0010
,
0010
0010
0010
0000
;

//---------------dance-single - ----------------
#NOTES:
     dance-single:
     :
     Easy:
     1:
     0.118,0.183,0.067,0.000,0.000: // measure 1
0000
0000
0000
0000
,  // measure 2
0000
0000
0000
0000
,  // measure 3
0000
0000
0000
0000
,  // measure 4
0001
0000
0001
0000
,  // measure 5
0001
0000
0000
0000
,  // measure 6
1000
0000
1000
0000
,  // measure 7
0010
0000
0000
0000
,  // measure 8
0001
0001
0001
0001
,  // measure 9
0001
0000
0000
0000
,  // measure 10
1000
0000
1000
0000
,  // measure 11
1000
0000
0000
0000
,  // measure 12
0001
0001
0001
0000
,  // measure 13
0010
0000
0000
0000
,  // measure 14
0010
0000
0000
0000
,  // measure 15
0001
0000
0100
0000
,  // measure 16
1000
0000
0000
0000
,  // measure 17
0010
0000
0000
0000
,  // measure 18
0100
0000
0100
0100
,  // measure 19
0100
0000
0000
0000
,  // measure 20
0001
0000
0000
0000
,  // measure 21
0010
0000
0000
0010
,  // measure 22
0010
0000
0000
0000
,  // measure 23
0001
0000
0000
0000
,  // measure 24
0100
0100
0100
0000
,  // measure 25
0001
0000
0000
0000
,  // measure 26
1000
0000
0000
0000
,  // measure 27
0010
0000
0000
0000
,  // measure 28
0110
0000
0110
0000
,  // measure 29
0100
0000
0000
0000
,  // measure 30
0001
0000
0000
0000
,  // measure 31
1000
0000
0000
0000
,  // measure 32
0100
0000
0100
0000
,  // measure 33
1000
0000
1000
0000
,  // measure 34
0001
0000
0001
0000
,  // measure 35
1000
0000
1000
0000
,  // measure 36
0010
0010
0010
0010
,  // measure 37
0000
0010
0000
0100
,  // measure 38
0000
0100
0000
0001
,  // measure 39
0000
0001
0000
0010
,  // measure 40
0010
0010
0000
0001
,  // measure 41
0000
1000
0000
0000
,  // measure 42
0010
0010
0000
0100
,  // measure 43
0000
0100
0000
0001
,  // measure 44
0001
0001
0000
1001
,  // measure 45
0000
0000
0000
0001
,  // measure 46
0000
0000
0000
0100
,  // measure 47
0000
0000
0000
0110
,  // measure 48
0110
0110
0110
0000
;

//---------------dance-single - ----------------
#NOTES:
     dance-single:
     :
     Medium:
     2:
     0.149,0.183,0.000,0.029,0.000:
0000
0000
0000
0000
,
0000
0000
0000
0000
,
0000
0000
0000
0000
,
0001
0001
0001
0000
,
1000
1000
1000
0000
,
1000
1000
0010
0000
,
0100
0100
0100
0000
,
0010
0000
0010
0000
,
0010
0000
0000
0000
,
1000
0000
0100
0000
,
1000
0000
0000
0000
,
0010
0010
0010
0010
,
0010
0000
0100
0000
,
0001
0001
0001
0000
,
2000
3000
0002
0003
,
0200
0300
0000
0000
,
0001
0000
0000
0000
,
0010
0000
0000
0000
,
0100
0000
0000
0000
,
1000
0000
0000
0000
,
0010
0000
0000
0000
,
0100
0000
0100
0100
,
0100
0000
0000
0000
,
0001
0001
0001
0000
,
0010
0010
0010
0000
,
0001
0001
1000
0000
,
0100
0100
0100
0000
,
1000
1000
1000
1000
,
1000
0000
1000
0000
,
0001
0001
0010
0000
,
0100
0100
0100
0000
,
1000
0000
1000
1000
,
1000
0000
1000
0000
,
0001
0000
0001
0000
,
0010
0000
0010
0000
,
0100
0100
0100
0100
,
0000
1000
0000
0001
,
0000
0100
0000
0010
,
0000
1000
0000
0001
,
0001
0001
0000
0010
,
0000
0010
0000
0001
,
0000
0001
0000
1000
,
0000
1000
0000
0010
,
0010
0010
0010
0010
,
0000
0010
0000
1000
,
1000
0100
0000
1000
,
0000
0001
0000
1000
,
0100
1000
0100
0000
;

//---------------dance-single - ----------------
#NOTES:
     dance-single:
     :
     Hard:
     5:
     0.290,0.343,0.241,0.067,0.034:
0000
0000
0000
0000
,
0000
0000
0000
0000
,
0000
0000
0000
0000
,
1001
1001
1001
1001
,
1000
0010
0100
0000
0001
0001
0001
0000
,
1000
0100
1000
0000
0001
0000
0000
0000
,
0010
0001
0100
0000
0001
0001
0001
0000
,
1001
1001
1001
1001
,
1000
0000
0000
0010
0000
0000
1000
0000
0000
0000
0010
0000
0000
0000
0000
0000
,
1000
0000
0000
0100
0000
0000
1000
0000
0000
0000
0001
0000
0000
0000
0000
0000
,
0010
0000
0000
0001
0000
0000
0010
0000
0000
0000
0100
0000
0000
0000
0000
0000
,
1000
1000
1000
1000
,
1000
0000
0000
0010
0000
0000
1000
0000
0000
0000
0001
0000
0000
0000
0000
0000
,
0001
0000
0000
0010
0000
0000
0001
0000
0000
0000
1000
0000
0000
0000
0000
0000
,
1000
0000
0000
0100
0000
0000
1000
0000
0000
0000
0010
0000
0000
0000
0000
0000
,
1001
1001
1001
1001
,
2000
0000
0000
0001
,
0002
3000
1000
1000
,
2000
0000
0003
0010
,
0020
0000
0000
3000
,
0200
0000
0300
0100
,
0200
0030
0001
0001
,
0002
0000
0300
0013
,
0011
0011
0011
0001
,
0010
0000
0000
0100
0000
1000
0010
0100
,
0001
0000
0000
1000
0000
0001
0010
0100
,
1000
0000
0000
0001
0000
0100
0010
1000
,
0001
0001
0001
0001
,
0010
0000
0000
0001
0000
1000
0010
0100
,
0001
0000
0000
1000
0000
0100
0010
0001
,
1000
0000
0000
0010
0000
0100
0001
1000
,
0010
0000
0010
0010
,
1000
0001
1000
0001
,
0010
0100
0010
0100
,
1000
0010
1000
0010
,
1001
1001
1001
1000
,
0010
0100
0001
0010
,
0001
1000
0100
1000
,
0010
0100
0001
0110
,
0110
0000
0000
0000
0110
0000
0000
0000
0000
0000
0000
0000
0001
0000
0000
0001
,
0000
0001
0000
1000
0100
0000
0000
1000
,
1000
1000
0000
0010
0100
0000
0000
0001
,
0000
0001
0000
1000
0100
0000
1001
0000
,
1001
1001
1001
1000
,
0000
0001
0000
0010
0001
1000
0100
0000
,
0000
0010
0000
0001
1000
0010
0100
0000
,
0000
0001
0000
1000
0100
1000
0001
0000
,
0001
0001
0001
0000
;
